osu file format v14

[General]
AudioFilename: audio.mp3
AudioLeadIn: 0
PreviewTime: 72006
Countdown: 0
SampleSet: Normal
StackLeniency: 0.5
Mode: 0
LetterboxInBreaks: 0
WidescreenStoryboard: 0

[Editor]
Bookmarks: 48100,56725
DistanceSpacing: 2.4
BeatDivisor: 4
GridSize: 8
TimelineZoom: 1.7

[Metadata]
Title:me & u
TitleUnicode:me & u
Artist:succ ducc
ArtistUnicode:succ ducc
Creator:Lud5_Beats
Version:meme & u
Source:
Tags:succducc me&u
BeatmapID:1588191
BeatmapSetID:754342

[Difficulty]
HPDrainRate:6.3
CircleSize:4
OverallDifficulty:7
ApproachRate:9.4
SliderMultiplier:1.8
SliderTickRate:1

[Events]
//Background and Video events
0,0,"3136352289-denpa-onna-to-seishun-otoko-anime-hd-wallpaper-1920x1080-45827-pgZQ-1920x1080-MM-100.jpg",0,0
//Break Periods
2,48300,53185
//Storyboard Layer 0 (Background)
//Storyboard Layer 1 (Fail)
//Storyboard Layer 2 (Pass)
//Storyboard Layer 3 (Foreground)
//Storyboard Sound Samples

[TimingPoints]
9100,375,4,1,0,100,1,0
9100,-66.6666666666667,4,1,0,100,0,0
9850,-100,4,1,0,100,0,0
10600,-200,4,1,0,100,0,0
11350,-100,4,1,0,100,0,0
12100,-133.333333333333,4,1,0,100,0,0
12662,-100,4,1,0,100,0,0
13412,-133.333333333333,4,1,0,100,0,0
13975,-100,4,1,0,100,0,0
14725,-285.714285714286,4,1,0,100,0,0
15100,-133.333333333333,4,1,0,100,0,0
15850,-100,4,1,0,100,0,0
20725,-200,4,1,0,100,0,0
21100,-100,4,1,0,100,0,0
24100,-33.3333333333333,4,1,0,100,0,0
24475,-66.6666666666667,4,1,0,100,0,0
24850,-285.714285714284,4,1,0,100,0,0
25225,-66.6666666666667,4,1,0,100,0,0
25600,-33.3333333333333,4,1,0,100,0,0
25975,-66.6666666666667,4,1,0,100,0,0
26350,-285.714285714286,4,1,0,100,0,0
26725,-66.6666666666667,4,1,0,100,0,0
27100,-33.3333333333333,4,1,0,100,0,0
27475,-66.6666666666667,4,1,0,100,0,0
28225,-58.8235294117647,4,1,0,100,0,0
28600,-33.3333333333333,4,1,0,100,0,0
28975,-66.6666666666667,4,1,0,100,0,0
29350,-285.714285714286,4,1,0,100,0,0
29725,-66.6666666666667,4,1,0,100,0,0
33100,-33.3333333333333,4,1,0,100,0,0
33662,-285.714285714286,4,1,0,100,0,0
34600,-33.3333333333333,4,1,0,100,0,0
37225,-200,4,1,0,100,0,0
37787,-33.3333333333333,4,1,0,100,0,0
38725,-200,4,1,0,100,0,0
39287,-33.3333333333333,4,1,0,100,0,0
40225,-200,4,1,0,100,0,0
40787,-33.3333333333333,4,1,0,100,0,0
41725,-200,4,1,0,100,0,0
42193,-33.3333333333333,4,1,0,100,0,0
43037,-200,4,1,0,100,0,0
43318,-33.3333333333333,4,1,0,100,0,0
53725,-133.333333333333,4,1,0,100,0,0
57100,-200,4,1,0,100,0,0
59162,-50,4,1,0,100,0,0
60100,-285.714285714286,4,1,0,100,0,0
66662,-133.333333333333,4,1,0,100,0,0

[HitObjects]
24,16,9100,6,0,B|70:81|85:204|57:268|57:268|92:223|162:173,1,405.000015449525
243,117,9850,2,0,P|205:68|263:118,1,270
387,52,10600,2,0,L|371:124,1,67.5
380,145,10975,2,0,L|450:138,1,67.5
357,206,11350,2,0,L|281:198,1,45
272,304,11537,2,0,L|236:252,1,45
161,337,11725,2,0,L|161:275,1,45
48,304,11912,2,0,L|73:267,1,45
5,176,12100,6,0,L|136:139,1,135.000005149842
188,65,12662,6,0,L|198:-4,1,45
224,153,12850,2,0,L|234:222,1,45
271,68,13037,2,0,L|281:-1,1,45
310,54,13225,2,0,L|320:-15,1,45
414,36,13412,6,0,L|377:167,1,135.000005149842
374,175,13881,1,0,0:0:0:0:
369,187,13975,1,0,0:0:0:0:
241,253,14162,1,0,0:0:0:0:
205,225,14255,1,0,0:0:0:0:
170,197,14350,1,0,0:0:0:0:
117,92,14537,1,0,0:0:0:0:
152,64,14630,1,0,0:0:0:0:
187,36,14725,2,0,L|213:15,1,31.4999990386963
386,28,15100,6,0,B|437:42|439:111|335:116|343:176|402:207,1,202.500007724762
285,273,15850,1,0,0:0:0:0:
287,160,16037,2,0,P|310:121|325:79,1,90
291,47,16412,2,0,P|274:95|234:150,1,90
171,211,16787,1,0,0:0:0:0:
253,128,16975,2,0,P|276:89|291:47,1,90
374,129,17350,2,0,P|388:171|411:210,1,90
338,302,17725,6,0,P|290:252|231:263,1,135
230,263,18100,2,0,P|165:272|122:224,1,135
130,165,18475,2,0,L|175:52,1,90
271,36,18850,2,0,L|384:81,1,90
444,144,19225,2,0,L|410:227,1,90
300,266,19600,2,0,L|216:232,1,90
330,204,19975,2,0,L|246:170,1,90
360,142,20350,2,0,L|276:108,1,90
128,53,20725,6,0,P|156:70|181:97,1,67.5
290,207,21100,6,0,L|326:241,1,45
230,154,21287,2,0,L|197:123,1,45
322,237,21475,2,0,L|358:271,1,45
197,123,21662,2,0,L|164:92,1,45
354,267,21850,2,0,L|390:301,1,45
164,92,22037,2,0,L|131:61,1,45
386,297,22225,2,0,L|422:331,1,45
131,61,22412,2,0,L|98:30,1,45
64,77,22600,5,0,0:0:0:0:
64,90,22693,1,0,0:0:0:0:
64,104,22787,1,0,0:0:0:0:
64,117,22881,1,0,0:0:0:0:
64,131,22975,1,0,0:0:0:0:
64,144,23068,1,0,0:0:0:0:
63,158,23162,1,0,0:0:0:0:
63,185,23256,1,0,0:0:0:0:
89,215,23349,1,0,0:0:0:0:
125,233,23443,1,0,0:0:0:0:
164,229,23537,1,0,0:0:0:0:
202,214,23631,1,0,0:0:0:0:
239,196,23724,1,0,0:0:0:0:
277,185,23818,1,0,0:0:0:0:
317,188,23912,1,0,0:0:0:0:
352,208,24006,1,0,0:0:0:0:
426,141,24100,6,0,P|360:47|372:133,1,270.000010299683
347,91,24475,6,0,L|241:62,1,67.5000025749208
347,91,24850,6,0,L|310:59,1,47.2499985580445
198,26,25225,2,0,L|163:98,1,67.5000025749208
200,243,25412,2,0,L|236:166,1,67.5000025749208
311,60,25600,6,0,B|443:4|443:4|349:116,1,270.000010299683
311,60,25975,6,0,L|452:-2,1,135.000005149842
440,160,26350,6,0,L|440:200,1,31.4999990386963
338,300,26725,6,0,L|264:262,1,67.5000025749208
211,237,26912,1,0,0:0:0:0:
151,205,27005,1,0,0:0:0:0:
91,173,27100,2,0,B|114:108|114:108|161:126|161:126|183:70|183:70|269:103,1,270.000010299683
182,72,27475,6,0,L|327:123,1,135.000005149842
309,116,27850,6,0,L|349:43,1,67.5000025749208
308,116,28037,2,0,L|277:176,1,67.5000025749208
406,168,28225,6,0,B|351:205|351:205|440:230|450:296|362:368|320:318,1,229.500004377365
222,311,28600,6,0,P|81:182|33:103,1,270.000010299683
39,116,28975,6,0,P|115:187|199:217,1,135.000005149842
358,276,29350,6,0,L|328:231,1,47.2499985580445
351,115,29725,6,0,L|328:31,1,67.5000025749208
222,97,29912,2,0,L|165:27,1,67.5000025749208
87,111,30100,5,0,0:0:0:0:
230,211,30287,1,0,0:0:0:0:
58,170,30475,1,0,0:0:0:0:
230,211,30662,1,0,0:0:0:0:
297,48,30850,1,0,0:0:0:0:
263,219,31037,1,0,0:0:0:0:
330,56,31225,1,0,0:0:0:0:
263,219,31412,1,0,0:0:0:0:
223,274,31505,1,0,0:0:0:0:
184,329,31599,1,0,0:0:0:0:
60,205,31787,5,0,0:0:0:0:
200,99,31975,1,0,0:0:0:0:
211,84,32162,1,0,0:0:0:0:
371,156,32350,1,0,0:0:0:0:
382,171,32537,1,0,0:0:0:0:
235,267,32725,2,0,L|179:317,2,67.5000025749208
300,207,33006,1,0,0:0:0:0:
387,140,33100,2,0,B|359:73|362:-4|362:-4|300:25|204:47,1,270.000010299683
387,140,33475,5,0,0:0:0:0:
201,37,33662,2,0,L|177:32,1,15.7499995193482
387,140,33850,1,0,0:0:0:0:
200,48,34037,2,0,L|176:48,1,15.7499995193482
387,140,34225,1,0,0:0:0:0:
200,56,34412,2,0,L|176:64,1,15.7499995193482
89,193,34600,2,0,B|188:253|291:237|291:237|227:187,1,270.000010299683
89,193,34975,2,0,P|231:276|367:267,1,270.000010299683
429,150,35350,2,0,L|271:77,1,135.000005149842
129,12,35537,2,0,L|251:68,1,135.000005149842
431,148,35725,5,0,0:0:0:0:
431,148,35818,1,0,0:0:0:0:
431,148,35912,1,0,0:0:0:0:
431,148,36006,2,0,L|385:274,1,135.000005149842
227,168,36287,6,0,L|142:43,1,135.000005149842
383,274,36475,1,0,0:0:0:0:
227,168,36662,2,0,P|186:99|167:35,1,135.000005149842
383,274,36850,1,0,0:0:0:0:
227,168,37037,2,0,P|202:93|221:38,1,135.000005149842
375,19,37225,6,0,L|420:19,2,45
221,164,37787,6,0,B|176:192|175:236|175:236|218:217,1,135.000005149842
375,19,37975,1,0,0:0:0:0:
221,164,38162,2,0,B|176:192|175:236|175:236|227:236,1,135.000005149842
375,19,38350,1,0,0:0:0:0:
221,164,38537,2,0,B|176:192|175:236|175:236|221:266,1,135.000005149842
360,312,38725,6,0,L|405:312,2,45
215,260,39287,6,0,P|192:201|178:125,1,135.000005149842
256,328,39475,1,0,0:0:0:0:
179,129,39662,2,0,P|193:75|272:29,1,135.000005149842
256,248,39850,1,0,0:0:0:0:
255,31,40037,2,0,P|310:28|377:90,1,135.000005149842
377,228,40225,6,0,L|377:273,2,45
371,75,40787,2,0,P|321:31|255:31,1,135.000005149842
378,209,40975,1,0,0:0:0:0:
254,29,41162,2,0,P|198:65|178:128,1,135.000005149842
379,150,41350,1,0,0:0:0:0:
178,128,41537,2,0,L|177:288,1,135.000005149842
304,320,41725,6,0,L|304:365,2,45
304,212,42193,5,0,0:0:0:0:
304,212,42287,1,0,0:0:0:0:
304,212,42381,2,0,L|303:62,1,135.000005149842
192,80,42568,1,0,0:0:0:0:
192,80,42662,1,0,0:0:0:0:
192,80,42756,2,0,L|191:230,1,135.000005149842
191,214,43037,6,0,L|168:214,2,22.5
304,212,43318,5,0,0:0:0:0:
304,212,43412,1,0,0:0:0:0:
304,212,43506,1,0,0:0:0:0:
304,212,43600,2,0,L|453:212,1,135.000005149842
440,104,43787,1,0,0:0:0:0:
440,104,43881,1,0,0:0:0:0:
440,104,43975,2,0,L|305:104,1,135.000005149842
240,16,44162,1,0,0:0:0:0:
240,16,44256,1,0,0:0:0:0:
240,16,44350,2,0,L|105:16,1,135.000005149842
105,16,44631,6,0,L|240:16,1,135.000005149842
376,184,44912,2,0,P|409:269|406:335,1,135.000005149842
476,316,45100,2,0,P|438:157|351:68,1,270.000010299683
154,50,45475,2,0,B|53:152|53:152|126:274,1,270.000010299683
328,224,45850,2,0,B|226:325|226:325|104:252,1,270.000010299683
269,97,46225,2,0,B|331:96|331:96|263:156|253:250|334:252,1,270.000010299683
334,252,46600,2,0,B|253:250|263:156|331:96|331:96|269:97,1,270.000010299683
107,241,46975,2,0,B|90:339|90:339|179:327|191:253|191:253|243:275,1,270.000010299683
420,333,47350,2,0,B|488:360|488:360|505:257|452:153,1,270.000010299683
363,118,47631,6,0,L|259:204,1,135.000005149842
89,338,47912,1,0,0:0:0:0:
88,120,48100,1,0,0:0:0:0:
256,88,53725,5,0,0:0:0:0:
256,88,53818,1,0,0:0:0:0:
256,88,53912,1,0,0:0:0:0:
256,88,54006,1,0,0:0:0:0:
256,87,54100,2,0,L|256:154,1,67.5000025749208
207,327,54475,2,0,L|207:259,1,67.5000025749208
158,87,54850,2,0,L|158:155,1,67.5000025749208
160,336,55225,2,0,L|160:268,1,67.5000025749208
160,176,55506,1,0,0:0:0:0:
160,176,55600,2,0,L|160:84,1,67.5000025749208
221,280,55975,2,0,L|221:348,1,67.5000025749208
282,176,56350,2,0,L|282:84,1,67.5000025749208
284,291,56725,2,0,L|284:359,1,67.5000025749208
342,251,57100,6,0,L|375:236,3,22.5
192,184,57475,2,0,L|171:174,1,22.5
342,117,57662,2,0,L|362:107,1,22.5
192,184,57850,2,0,L|171:174,1,22.5
264,332,58037,2,0,L|243:322,1,22.5
411,251,58225,2,0,L|390:241,3,22.5
344,64,58600,6,0,L|334:84,3,22.5
257,249,58975,2,0,L|247:228,1,22.5
143,8,59162,6,0,L|143:130,1,90
225,329,59350,2,0,L|225:239,1,90
160,8,59537,2,0,L|160:130,1,90
242,329,59725,2,0,L|242:239,1,90
176,8,59912,2,0,L|176:130,1,90
258,324,60100,6,0,B|308:319|347:285|347:285|384:324|384:324|429:256|382:226|382:226|349:204|306:223|296:240,1,346.49998942566
163,158,62350,5,0,0:0:0:0:
153,145,62443,1,0,0:0:0:0:
144,132,62537,1,0,0:0:0:0:
134,120,62631,1,0,0:0:0:0:
232,158,62725,1,0,0:0:0:0:
241,171,62818,1,0,0:0:0:0:
251,183,62912,1,0,0:0:0:0:
260,196,63006,1,0,0:0:0:0:
304,268,63100,6,0,B|233:324|163:292|163:292|197:285|233:253,1,220.499993270874
301,168,64600,5,0,0:0:0:0:
311,155,64693,1,0,0:0:0:0:
320,142,64787,1,0,0:0:0:0:
330,130,64881,1,0,0:0:0:0:
232,168,64975,1,0,0:0:0:0:
223,181,65068,1,0,0:0:0:0:
213,193,65162,1,0,0:0:0:0:
204,206,65256,1,0,0:0:0:0:
144,280,65350,2,0,L|125:303,3,15.7499995193482
256,280,65725,2,0,L|275:303,3,15.7499995193482
190,199,66100,6,0,L|148:143,1,62.9999980773926
264,160,66662,5,0,0:0:0:0:
359,223,66850,1,0,0:0:0:0:
456,160,67037,1,0,0:0:0:0:
360,96,67225,1,0,0:0:0:0:
360,96,67412,2,0,B|296:43|296:43|284:84|258:104,1,135.000005149842
203,173,67975,1,0,0:0:0:0:
344,250,68162,1,0,0:0:0:0:
213,152,68350,1,0,0:0:0:0:
139,8,68537,1,0,0:0:0:0:
213,152,68725,2,0,B|277:205|277:205|289:164|315:144,1,135.000005149842
299,158,69287,5,0,0:0:0:0:
299,158,69475,2,0,B|308:233|308:233|256:190,1,135.000005149842
110,252,70037,1,0,0:0:0:0:
112,88,70225,2,0,B|156:52|199:52|214:105|259:105|317:58,1,202.500007724762
404,195,70881,5,0,0:0:0:0:
404,195,70975,2,0,P|352:236|328:221,1,101.250003862381
330,223,71350,2,0,P|283:212|256:251,1,101.250003862381
256,251,71725,2,0,P|204:292|180:277,1,101.250003862381
92,144,72100,5,0,0:0:0:0:
