osu file format v14

[General]
AudioFilename: audio.mp3
AudioLeadIn: 0
PreviewTime: 101675
Countdown: 0
SampleSet: None
StackLeniency: 0.7
Mode: 0
LetterboxInBreaks: 0
WidescreenStoryboard: 0

[Editor]
Bookmarks: 11322,22616,33910,45204,56498,67792,79086,90380,101675,112969,124263
DistanceSpacing: 0.7
BeatDivisor: 4
GridSize: 4
TimelineZoom: 2

[Metadata]
Title:Only time make your hapiness
TitleUnicode:Only time make your hapiness
Artist:subplaid
ArtistUnicode:subplaid
Creator:Desperate-kun
Version:Normal
Source:
Tags:enya makes happiness new york jungle breakcore mao kuron-kun
BeatmapID:1191717
BeatmapSetID:560330

[Difficulty]
HPDrainRate:4
CircleSize:4
OverallDifficulty:4
ApproachRate:5.5
SliderMultiplier:1.2
SliderTickRate:1

[Events]
//Background and Video events
0,0,"bg.jpg",0,0
//Break Periods
2,31086,32785
//Storyboard Layer 0 (Background)
//Storyboard Layer 1 (Fail)
//Storyboard Layer 2 (Pass)
//Storyboard Layer 3 (Foreground)
//Storyboard Sound Samples

[TimingPoints]
28,352.941176470588,4,2,0,45,1,0
16969,-86.9565217391304,4,2,0,35,0,0
17145,-100,4,2,0,45,0,0
33910,-86.9565217391304,4,3,0,55,0,0
33998,-86.9565217391304,4,3,0,65,0,0
34616,-100,4,3,0,65,0,0
53851,-100,4,2,0,5,0,0
56498,-100,4,3,0,70,0,0
67792,-133.333333333333,4,2,0,50,0,0
68145,-100,4,3,0,70,0,0
79086,-133.333333333333,4,2,0,45,0,0
100263,-86.9565217391304,4,2,0,35,0,0
100969,-100,4,2,0,25,0,0
101675,-100,4,3,0,70,0,0

[Colours]
Combo1 : 255,0,0
Combo2 : 123,164,183
Combo3 : 173,182,137
Combo4 : 191,157,183
Combo5 : 197,182,171
SliderBorder : 255,255,255
SliderTrackOverride : 20,0,0

[HitObjects]
49,63,11322,6,0,B|89:55|89:55|108:72|142:76|164:66,1,120,4|2,0:3|0:3,0:0:0:0:
193,36,11851,2,0,B|188:96|188:96|216:149|216:149|211:211,1,180,0|0,0:0|0:0,0:0:0:0:
208,250,12557,1,2,0:3:0:0:
203,291,12733,1,4,0:3:0:0:
99,323,13086,2,0,L|123:267,1,60,2|4,0:3|0:3,0:0:0:0:
290,278,13616,2,0,L|306:335,1,60,2|4,0:3|0:3,0:0:0:0:
346,346,13969,1,4,0:3:0:0:
386,356,14145,6,0,P|399:279|487:234,2,180,2|2|2,0:3|0:3|0:3,0:0:0:0:
290,278,15557,2,0,L|259:153,1,120,4|2,0:3|0:3,0:0:0:0:
251,120,16086,2,0,B|302:154|302:154|360:141,1,120,4|2,0:3|0:3,0:0:0:0:
399,128,16616,1,0,0:0:0:0:
325,31,16969,38,0,B|307:51|277:62|247:55|247:55|237:83|237:83|214:65|180:61|149:74,1,207.000003948212,4|0,0:1|0:0,0:0:0:0:
124,40,17675,38,0,P|66:50|31:97,1,120,0|0,0:0|0:0,0:0:0:0:
53,133,18204,1,2,0:3:0:0:
74,169,18380,1,4,0:3:0:0:
124,268,18733,2,0,L|62:279,1,60,2|4,0:3|0:3,0:0:0:0:
174,353,19263,2,0,L|236:342,1,60,2|4,0:3|0:3,0:0:0:0:
257,308,19616,1,4,0:3:0:0:
281,273,19792,6,0,P|366:257|432:336,2,180,2|2|2,0:3|0:3|0:3,0:0:0:0:
184,339,21204,2,0,L|62:321,1,120,4|2,0:3|0:3,0:0:0:0:
24,310,21733,2,0,P|72:267|79:210,1,120,4|2,0:3|0:3,0:0:0:0:
67,173,22263,1,0,0:0:0:0:
149,62,22616,22,0,B|170:140|170:140|234:183|234:183|256:265,1,240,2|0,0:3|0:0,0:0:0:0:
144,259,23675,1,0,0:0:0:0:
154,299,23852,1,2,0:3:0:0:
165,339,24027,2,0,L|233:359,1,60,4|4,0:3|0:3,0:0:0:0:
316,339,24557,1,4,0:3:0:0:
410,266,24910,2,0,L|342:246,1,60,2|4,0:3|0:3,0:0:0:0:
343,207,25263,1,4,0:3:0:0:
334,165,25439,6,0,P|397:160|440:120,1,120,4|2,0:3|0:3,0:0:0:0:
453,84,25969,2,0,P|390:79|347:39,1,120,4|2,0:3|0:3,0:0:0:0:
336,2,26498,1,4,0:3:0:0:
237,80,26851,2,0,L|218:280,2,180,2|2|2,0:3|0:3|0:3,0:0:0:0:
239,64,28263,5,0,0:0:0:0:
84,53,33910,69,4,0:1:0:0:
93,100,34086,1,4,0:0:0:0:
130,130,34263,1,4,0:0:0:0:
139,177,34439,1,4,0:0:0:0:
95,283,34792,6,0,L|165:291,1,60,4|0,0:0|1:0,0:0:0:0:
186,317,35145,1,4,0:0:0:0:
217,344,35322,2,0,L|349:329,1,120,4|0,0:0|1:0,0:0:0:0:
433,262,36027,2,0,B|389:222|389:222|384:155,1,120,4|4,0:0|0:0,0:0:0:0:
409,127,36557,1,0,1:0:0:0:
432,92,36733,21,0,1:0:0:0:
340,35,37086,2,0,L|276:46,1,60,4|0,0:0|1:0,0:0:0:0:
251,162,37616,2,0,L|187:151,1,60,4|0,0:0|1:0,0:0:0:0:
161,122,37969,1,4,0:0:0:0:
129,92,38145,2,0,P|71:98|33:143,1,120,4|0,0:0|1:0,0:0:0:0:
64,172,38675,2,0,P|39:225|59:280,1,120,4|0,0:0|1:0,0:0:0:0:
100,288,39204,1,0,1:0:0:0:
123,322,39380,1,0,1:0:0:0:
164,329,39557,6,0,B|242:342|242:342|319:316|319:316|401:331,1,240,4|0,0:0|0:0,0:0:0:0:
480,244,40616,1,0,1:0:0:0:
460,207,40792,1,4,0:0:0:0:
439,169,40969,2,0,P|375:158|323:193,1,120,4|0,0:0|1:0,0:0:0:0:
252,277,41675,2,0,B|210:235|210:235|213:172,1,120,4|4,0:0|0:0,0:0:0:0:
281,70,42380,5,0,1:0:0:0:
172,48,42733,2,0,L|109:58,1,60,4|0,0:0|1:0,0:0:0:0:
246,153,43263,2,0,L|306:159,1,60,4|0,0:0|1:0,0:0:0:0:
343,141,43616,1,4,0:0:0:0:
381,123,43792,2,0,B|440:130|440:130|480:178,1,120,4|0,0:0|1:0,0:0:0:0:
485,218,44322,2,0,B|426:230|426:230|390:277|390:277|327:289,1,180,0|0,0:0|0:0,0:0:0:0:
223,353,45204,5,4,0:0:0:0:
190,326,45380,1,4,0:0:0:0:
148,331,45557,1,4,0:0:0:0:
115,304,45733,1,4,0:0:0:0:
39,208,46086,22,0,L|106:199,1,60,4|0,0:0|1:0,0:0:0:0:
130,172,46439,1,4,0:0:0:0:
161,144,46616,2,0,P|222:137|267:170,1,120,4|0,0:0|1:0,0:0:0:0:
285,296,47322,2,0,B|330:257|330:257|390:271,1,120,4|4,0:0|0:0,0:0:0:0:
421,297,47851,1,0,1:0:0:0:
462,289,48027,5,0,1:0:0:0:
463,139,48380,2,0,L|449:198,1,60,4|0,0:0|1:0,0:0:0:0:
356,140,48910,2,0,L|342:81,1,60,4|0,0:0|1:0,0:0:0:0:
308,56,49263,1,4,0:0:0:0:
273,31,49439,2,0,P|219:41|181:92,1,120,4|0,0:0|1:0,0:0:0:0:
182,133,49969,2,0,P|147:180|90:192,1,120,4|0,0:0|1:0,0:0:0:0:
53,173,50498,1,0,1:0:0:0:
55,130,50675,1,0,1:0:0:0:
27,98,50851,6,0,B|86:58|86:58|183:70|183:70|230:128,1,240,4|0,0:0|0:0,0:0:0:0:
245,244,51910,1,0,1:0:0:0:
222,279,52086,1,4,0:0:0:0:
199,314,52263,2,0,P|146:343|80:328,1,120,4|0,0:0|1:0,0:0:0:0:
25,225,52969,2,0,B|84:214|84:214|132:250,1,120,4|4,0:0|0:0,0:0:0:0:
256,192,53675,5,0,1:0:0:0:
256,192,53851,12,0,55792,0:0:0:0:
416,40,56498,21,4,0:0:0:0:
394,76,56675,1,4,0:0:0:0:
409,115,56851,1,4,0:0:0:0:
387,151,57028,1,4,0:0:0:0:
439,249,57380,6,0,L|369:264,1,60,4|0,0:0|1:0,0:0:0:0:
359,298,57733,1,4,0:0:0:0:
336,333,57910,2,0,B|296:353|252:334|252:307|210:286|167:308,1,180,4|0,0:0|0:0,0:0:0:0:
140,341,58616,2,0,B|81:333|81:333|41:285,1,120,4|4,0:0|0:0,0:0:0:0:
56,246,59145,1,0,1:0:0:0:
69,206,59322,5,0,1:0:0:0:
179,205,59675,2,0,L|170:137,1,60,4|0,0:0|1:0,0:0:0:0:
40,99,60204,2,0,L|49:31,1,60,4|0,0:0|1:0,0:0:0:0:
88,29,60557,1,4,0:0:0:0:
128,19,60733,2,0,P|179:55|239:49,1,120,4|0,0:0|1:0,0:0:0:0:
272,34,61263,2,0,L|260:156,1,120,4|0,0:0|1:0,0:0:0:0:
294,177,61792,1,0,1:0:0:0:
336,174,61969,1,0,1:0:0:0:
371,196,62145,6,0,P|432:185|468:82,1,180,4|4,0:0|0:0,0:0:0:0:
341,18,63027,2,0,L|350:81,1,60,4|0,0:0|1:0,0:0:0:0:
379,106,63380,1,4,0:0:0:0:
409,135,63557,2,0,L|426:255,1,120,4|0,0:0|1:0,0:0:0:0:
484,367,64263,2,0,B|430:343|430:343|364:360,1,120,4|4,0:0|0:0,0:0:0:0:
311,258,64969,21,0,1:0:0:0:
240,349,65322,2,0,L|165:358,1,60,4|0,0:0|1:0,0:0:0:0:
74,247,65851,2,0,L|149:256,1,60,4|0,0:0|1:0,0:0:0:0:
168,231,66204,1,4,0:0:0:0:
203,208,66380,2,0,B|211:168|211:168|194:149|190:115|200:93,1,120,4|0,0:3|1:0,0:0:0:0:
232,66,66910,1,0,0:0:0:0:
264,39,67086,2,0,P|307:56|286:120,1,120,2|2,0:0|0:0,0:0:0:0:
315,230,67792,54,0,L|406:208,1,90.0000034332277,0|0,2:0|1:0,0:0:0:0:
443,197,68322,21,4,0:0:0:0:
471,105,68675,2,0,L|409:98,1,60,4|0,0:0|1:0,0:0:0:0:
376,74,69027,1,4,0:0:0:0:
341,49,69204,2,0,B|319:88|337:132|364:133|383:176|360:218,1,180,4|0,0:0|0:0,0:0:0:0:
331,248,69910,2,0,B|380:282|380:282|372:345,1,120,4|4,0:0|0:0,0:0:0:0:
344,373,70439,1,0,1:0:0:0:
302,368,70616,5,0,1:0:0:0:
184,300,70969,2,0,L|268:290,1,60,4|0,0:0|1:0,0:0:0:0:
117,369,71498,2,0,L|33:359,1,60,4|0,0:0|1:0,0:0:0:0:
36,325,71851,1,4,0:0:0:0:
14,287,72027,2,0,P|28:230|77:199,1,120,4|0,0:0|1:0,0:0:0:0:
117,212,72557,2,0,P|166:180|179:123,1,120,4|0,0:0|1:0,0:0:0:0:
164,83,73086,1,0,1:0:0:0:
125,66,73263,1,0,1:0:0:0:
108,27,73439,6,0,L|293:45,1,180,4|4,0:0|0:0,0:0:0:0:
411,25,74322,2,0,L|402:91,1,60,4|0,0:0|1:0,0:0:0:0:
428,118,74675,1,4,0:0:0:0:
453,151,74851,2,0,P|457:212|426:260,1,120,4|0,0:0|1:0,0:0:0:0:
320,231,75557,2,0,B|311:290|311:290|349:342,1,120,4|4,0:0|0:0,0:0:0:0:
245,369,76263,21,0,1:0:0:0:
158,310,76616,2,0,L|94:318,1,60,4|0,0:0|1:0,0:0:0:0:
30,197,77145,2,0,L|89:189,1,60,4|0,0:0|1:0,0:0:0:0:
130,197,77498,1,4,0:0:0:0:
171,204,77675,1,4,0:0:0:0:
145,83,78027,1,0,1:0:0:0:
263,39,78380,2,0,P|270:103|215:130,1,120
106,156,79086,5,4,0:3:0:0:
173,236,79439,2,0,P|250:252|335:194,1,180.000006866455,2|0,0:3|0:0,0:0:0:0:
348,98,80498,2,0,B|303:90|303:90|274:57|274:57|230:49,2,135.000005149841,4|4|4,0:3|0:3|0:3,0:0:0:0:
378,89,81733,1,4,0:3:0:0:
408,81,81910,5,2,0:3:0:0:
468,167,82263,2,0,B|479:210|450:248|424:242|394:278|405:325,1,180,0|2,0:0|0:3,0:0:0:0:
306,357,83322,2,0,B|289:268|289:268|320:228,2,135.000005149841,4|4|0,0:3|0:3|0:0,0:0:0:0:
405,325,84733,5,4,0:3:0:0:
418,220,85086,2,0,P|372:145|286:135,1,180.000006866455,2|0,0:3|0:0,0:0:0:0:
204,203,86145,2,0,B|212:248|212:248|245:277|245:277|253:321,2,135.000005149841,4|4|4,0:3|0:3|0:3,0:0:0:0:
176,188,87380,1,4,0:3:0:0:
148,173,87557,22,0,P|82:180|141:315,1,270.000010299683,2|2,0:3|0:3,0:0:0:0:
237,289,88969,2,0,P|281:285|322:304,1,90.0000034332277,4|2,0:3|0:3,0:0:0:0:
334,332,89498,2,0,B|424:319|424:319|458:284,1,135.000005149841,4|0,0:3|0:3,0:0:0:0:
376,205,90380,5,4,0:3:0:0:
481,208,90733,2,0,B|492:165|463:127|437:133|407:97|418:50,1,180,2|0,0:3|0:0,0:0:0:0:
313,35,91792,2,0,B|280:66|280:66|284:111|284:111|247:149,2,135.000005149841,4|4|4,0:3|0:3|0:3,0:0:0:0:
334,58,93027,1,4,0:3:0:0:
355,81,93204,5,2,0:3:0:0:
370,189,93557,2,0,B|381:232|352:270|326:264|296:300|307:347,1,180,0|2,0:0|0:3,0:0:0:0:
205,315,94616,2,0,B|160:323|160:323|131:356|131:356|87:364,2,135.000005149841,4|4|0,0:3|0:3|0:0,0:0:0:0:
241,215,96027,5,4,0:3:0:0:
153,150,96380,2,0,P|70:173|47:256,1,180.000006866455,2|0,0:3|0:0,0:0:0:0:
132,326,97439,2,0,B|222:339|222:339|256:374,2,135.000005149841,4|4|4,0:3|0:3|0:3,0:0:0:0:
119,296,98675,1,4,0:3:0:0:
106,267,98851,22,0,P|116:182|242:241,1,270.000010299683,2|2,0:3|0:3,0:0:0:0:
269,341,100263,54,0,B|300:328|334:332|357:350|357:350|367:322|367:322|397:329|427:318|445:298,1,207.000003948212,4|0,0:1|0:0,0:0:0:0:
459,259,100969,22,0,P|395:267|344:239,1,120,4|0,0:0|0:0,0:0:0:0:
416,165,101675,5,4,0:0:0:0:
409,123,101851,1,4,0:0:0:0:
430,87,102027,1,4,0:0:0:0:
423,45,102203,1,4,0:0:0:0:
304,11,102557,6,0,L|321:79,1,60,4|0,0:3|1:0,0:0:0:0:
310,110,102910,1,4,0:3:0:0:
302,151,103086,2,0,B|277:113|229:108|216:131|169:128|143:88,1,180,4|0,0:3|0:0,0:0:0:0:
156,48,103792,2,0,B|105:18|105:18|45:39,1,120,4|4,0:0|0:0,0:0:0:0:
56,79,104322,1,0,1:0:0:0:
64,119,104498,21,0,1:0:0:0:
17,221,104851,2,0,L|84:231,1,60,4|0,0:0|1:0,0:0:0:0:
192,221,105380,2,0,L|182:288,1,60,4|0,0:0|1:0,0:0:0:0:
151,307,105733,1,4,0:0:0:0:
119,334,105910,2,0,P|180:336|222:374,1,120,4|0,0:0|1:0,0:0:0:0:
256,350,106439,1,4,0:0:0:0:
291,326,106616,2,0,B|339:362|339:362|402:351,1,120,2|2,0:3|0:3,0:0:0:0:
467,255,107322,6,0,B|409:241|409:241|373:193|373:193|314:178,1,180,4|4,0:0|0:0,0:0:0:0:
201,260,108204,2,0,L|268:255,1,60,4|0,0:0|1:0,0:0:0:0:
295,279,108557,1,0,1:0:0:0:
329,302,108733,2,0,P|388:285|416:237,1,120,4|0,0:0|1:0,0:0:0:0:
484,115,109439,2,0,B|424:120|424:120|371:77,1,120,4|4,0:0|0:0,0:0:0:0:
269,33,110145,5,0,1:0:0:0:
281,147,110498,2,0,L|214:141,1,60,4|0,0:0|1:0,0:0:0:0:
130,80,111027,2,0,L|70:85,1,60,4|0,0:0|1:0,0:0:0:0:
47,120,111380,1,4,0:0:0:0:
24,154,111557,2,0,P|80:169|111:219,1,120,4|0,0:0|1:0,0:0:0:0:
151,231,112086,2,0,P|99:259|82:315,1,120,0|0,0:0|1:0,0:0:0:0:
99,354,112616,1,0,1:0:0:0:
216,334,112969,5,4,0:0:0:0:
251,355,113145,1,4,0:0:0:0:
292,349,113322,1,4,0:0:0:0:
327,370,113498,1,4,0:0:0:0:
416,264,113851,22,0,L|357:272,1,60,4|0,0:0|1:0,0:0:0:0:
319,252,114204,1,4,0:0:0:0:
281,232,114380,2,0,B|236:222|198:253|206:278|170:309|124:299,1,180,4|0,0:3|0:0,0:0:0:0:
88,278,115086,2,0,B|77:220|77:220|25:184,1,120,4|4,0:0|0:0,0:0:0:0:
11,145,115616,1,0,1:0:0:0:
27,106,115792,5,0,1:0:0:0:
147,62,116145,2,0,L|139:126,1,60,4|0,0:0|1:0,0:0:0:0:
277,154,116675,2,0,L|269:94,1,60,4|0,0:0|1:0,0:0:0:0:
300,66,117027,1,4,0:0:0:0:
331,38,117204,2,0,P|392:35|435:71,1,120,4|0,0:0|1:0,0:0:0:0:
476,64,117733,2,0,P|463:123|417:155,1,120,4|0,0:0|1:0,0:0:0:0:
375,164,118263,1,0,1:0:0:0:
350,197,118439,1,0,1:0:0:0:
308,205,118616,6,0,B|367:216|367:216|407:261|407:261|467:273,1,180,4|4,0:0|0:0,0:0:0:0:
377,359,119498,2,0,L|305:367,1,60,4|0,0:0|1:0,0:0:0:0:
279,346,119851,1,0,1:0:0:0:
241,327,120027,2,0,L|120:338,1,120,4|0,0:0|1:0,0:0:0:0:
32,273,120733,2,0,B|71:226|71:226|129:230,1,120,4|4,0:0|0:0,0:0:0:0:
245,211,121439,5,0,1:0:0:0:
168,114,121792,2,0,L|108:100,1,60,4|0,0:0|1:0,0:0:0:0:
243,32,122322,2,0,L|303:46,1,60,4|0,0:0|1:0,0:0:0:0:
342,36,122675,1,4,0:0:0:0:
383,27,122851,2,0,B|440:43|440:43|466:97,1,120,4|0,0:0|1:0,0:0:0:0:
383,180,123557,2,0,P|343:159|298:159,2,90,2|2|0,0:0|0:0|0:0,0:0:0:0:
402,217,124263,21,4,0:0:0:0:
