osu file format v14

[General]
AudioFilename: audio.mp3
AudioLeadIn: 0
PreviewTime: 65888
Countdown: 0
SampleSet: Soft
StackLeniency: 0.3
Mode: 0
LetterboxInBreaks: 0
WidescreenStoryboard: 1

[Editor]
Bookmarks: 15093,29638,44184,58729,66002,81457,96002,110547,125092,139638,147820,162365,169638,184183,195092,209638
DistanceSpacing: 0.7
BeatDivisor: 4
GridSize: 32
TimelineZoom: 2.1

[Metadata]
Title:N
TitleUnicode:エヌ
Artist:subeteanatanoseidesu.
ArtistUnicode:全てあなたの所為です。
Creator:wafer
Version:sbhh
Source:
Tags:japanese shiny braixen pop electronic CXIII goopert kami no kotoba UTAU 唄音ウタ Utane Uta デフォ子 Defoko デフォルト Default SubeAna
BeatmapID:4033976
BeatmapSetID:1909071

[Difficulty]
HPDrainRate:5
CircleSize:4
OverallDifficulty:6
ApproachRate:6
SliderMultiplier:1.2
SliderTickRate:1

[Events]
//Background and Video events
0,0,"nanann.png",0,0
//Break Periods
//Storyboard Layer 0 (Background)
//Storyboard Layer 1 (Fail)
//Storyboard Layer 2 (Pass)
//Storyboard Layer 3 (Foreground)
//Storyboard Layer 4 (Overlay)
//Storyboard Sound Samples

[TimingPoints]
548,454.545454545455,4,2,0,50,1,0
548,-200,4,2,0,50,0,0
7820,-200,4,2,0,60,0,0
14638,-111.111111111111,4,2,0,60,0,0
15093,-125,4,2,0,70,0,0
29638,-111.111111111111,4,2,0,70,0,0
44184,-142.857142857143,4,2,0,60,0,0
62366,-142.857142857143,4,2,0,55,0,0
64184,-142.857142857143,4,2,0,65,0,0
66002,-100,4,2,0,80,0,0
79638,-100,4,2,0,60,0,0
80093,-100,4,2,0,65,0,0
81229,-100,4,2,0,70,0,0
81457,454.545454545455,4,2,0,75,1,0
81457,-90.9090909090909,4,2,0,75,0,0
96002,-125,4,2,0,70,0,0
110547,-125,4,2,0,70,0,0
125092,-142.857142857143,4,2,0,60,0,0
143274,-142.857142857143,4,2,0,55,0,0
145092,-142.857142857143,4,2,0,65,0,0
146910,-142.857142857143,4,2,0,40,0,0
147820,454.545454545455,4,2,0,80,1,0
147820,-100,4,2,0,80,0,0
161456,-100,4,2,0,60,0,0
162365,-1000,4,2,0,40,0,0
169638,-500,4,2,0,50,0,0
184183,-200,4,2,0,55,0,0
190547,-125,4,2,0,55,0,0
191683,-125,4,2,0,35,0,0
192706,-125,4,2,0,50,0,0
195092,-100,4,2,0,90,0,0
209638,-100,4,2,0,90,0,0
224183,-100,4,2,0,70,0,0
225547,-100,4,2,0,40,0,0
225888,-100,4,2,0,10,0,0

[Colours]
Combo1 : 230,202,202
Combo2 : 95,95,95
Combo3 : 127,127,127
Combo4 : 159,159,159
Combo5 : 191,191,191
Combo6 : 200,232,205

[HitObjects]
10,291,548,86,0,B|39:282|92:273|65:209|111:203|168:216|195:209,1,210,4|2,1:0|0:0,0:0:0:0:
280,185,2366,2,0,B|340:158|330:95|380:93|426:100|451:89|447:48|467:36,1,240,2|4,0:1|1:0,0:0:0:0:
463,39,5093,6,0,P|473:22|489:13,2,30,2|2|2,0:0|0:0|0:0,0:0:0:0:
442,138,6002,1,2,0:1:0:0:
256,192,6911,12,4,7820,1:0:0:0:
256,192,8275,5,10,0:0:0:0:
256,192,8502,1,2,0:0:0:0:
168,211,8729,2,0,P|138:221|126:251,2,60,4|10|4,1:0|0:0|1:0,0:0:0:0:
465,42,10548,2,0,B|478:20|495:32|507:2,2,60,2|10|6,1:2|0:0|1:1,0:0:0:0:
170,249,12366,1,2,1:0:0:0:
33,365,12820,1,10,0:0:0:0:
130,205,13275,5,6,1:0:0:0:
0,310,13729,1,14,1:0:0:0:
165,313,14184,1,0,1:0:0:0:
274,192,14638,2,0,L|299:175,3,26.9999991760254,8|8|8|8,0:0|0:0|0:0|0:0,0:0:0:0:
331,154,15093,22,0,B|352:128|371:103|366:65|386:48|425:30,1,144,4|2,1:0|0:0,0:0:0:0:
458,102,16002,2,0,P|419:89|316:140,1,144,6|2,1:2|0:3,0:0:0:0:
279,190,16911,1,4,1:0:0:0:
199,172,17138,1,2,0:0:0:0:
203,176,17252,1,0,0:0:0:0:
207,180,17366,2,0,B|171:188|159:188|150:206,1,48,10|2,1:2|0:3,0:0:0:0:
119,263,17820,2,0,B|91:237|47:248|47:248|21:232,2,96,6|10|4,1:2|0:0|1:0,0:0:0:0:
67,326,18957,1,0,0:0:0:0:
67,326,19070,1,0,0:0:0:0:
67,326,19184,22,0,B|95:305|104:258|132:243,1,96,10|6,0:0|1:2,0:0:0:0:
166,179,19866,1,0,0:0:0:0:
166,179,19979,1,2,0:0:0:0:
166,179,20093,2,0,B|195:174|195:174|214:150,1,48,10|2,0:0|0:0,0:0:0:0:
273,112,20548,5,4,1:2:0:0:
273,112,20775,1,2,0:0:0:0:
353,127,21002,1,10,0:2:0:0:
353,127,21229,1,2,0:0:0:0:
362,45,21457,2,0,P|393:18|418:24,1,48,6|0,1:2|0:0,0:0:0:0:
441,17,21798,1,0,0:0:0:0:
441,17,21911,2,0,B|465:49|465:49|459:74,1,48,8|0,0:0|1:0,0:0:0:0:
439,135,22366,6,0,B|405:144|372:128|341:125|325:139,1,96,4|10,1:0|0:0,0:0:0:0:
276,177,23048,1,2,0:0:0:0:
276,177,23275,2,0,P|241:181|215:166,1,48,6|0,1:2|0:0,0:0:0:0:
148,173,23729,1,6,1:2:0:0:
148,173,23957,1,0,0:0:0:0:
117,248,24184,2,0,P|86:278|71:280,1,48,6|2,1:2|0:0,0:0:0:0:
35,344,24638,2,0,P|4:314|-11:312,1,48,10|2,0:0|0:0,0:0:0:0:
5,231,25093,2,0,B|43:209|63:251|107:237,1,96,6|10,1:2|0:0,0:0:0:0:
178,259,25775,1,0,0:0:0:0:
225,193,26002,5,4,1:0:0:0:
225,193,26229,2,0,B|194:182|173:188|165:178,2,48,2|10|2,3:0|0:0|0:0,0:0:0:0:
303,217,26911,2,0,P|339:204|356:178,1,48,4|0,1:2|0:0,0:0:0:0:
387,127,27366,1,10,0:0:0:0:
387,127,27593,1,0,1:0:0:0:
403,47,27820,37,6,1:2:0:0:
477,12,28048,1,6,0:2:0:0:
504,88,28275,2,0,B|503:102|477:111|459:131,1,48,6|6,1:2|0:2,0:0:0:0:
405,170,28729,5,4,1:0:0:0:
384,163,28843,1,8,0:0:0:0:
363,157,28957,1,0,1:0:0:0:
342,151,29070,1,8,0:0:0:0:
320,146,29184,2,8,B|315:133|320:125|319:117,3,24
317,170,29638,54,0,B|298:183|281:166|254:187,1,53.9999983520508,4|0,1:0|0:0,0:0:0:0:
151,277,30320,1,2,0:0:0:0:
151,277,30548,2,0,B|117:272|117:272|91:283,1,53.9999983520508,6|0,1:2|0:0,0:0:0:0:
24,384,31229,1,2,0:3:0:0:
24,384,31457,2,0,B|12:338|12:338|0:324|0:324|1:280,1,107.999996704102,4|10,1:0|1:2,0:0:0:0:
55,221,32138,1,2,0:0:0:0:
103,286,32366,1,6,1:0:0:0:
259,246,32820,1,10,0:0:0:0:
350,111,33275,5,4,1:0:0:0:
512,101,33729,2,0,B|515:80|506:61|499:44|483:49,1,53.9999983520508,10|2,0:2|0:0,0:0:0:0:
427,7,34184,2,0,B|404:11|411:61|412:73|402:86|384:106,1,107.999996704102,6|10,1:2|1:2,0:0:0:0:
312,126,34866,1,2,0:0:0:0:
312,126,35093,6,0,B|289:121|269:150|247:146,2,53.9999983520508,6|2|8,1:0|0:0|0:0,0:0:0:0:
374,178,35775,1,2,0:0:0:0:
447,143,36002,1,4,1:2:0:0:
506,4,36457,1,10,0:0:0:0:
379,90,36911,6,4,B|336:110|317:139|313:165|287:197|207:196|181:206,1,215.999993408203,0|6,1:0|1:2,0:0:0:0:
127,214,38048,1,2,0:2:0:0:
127,214,38275,2,0,B|107:226|95:246|76:257,1,53.9999983520508,14|2,1:2|0:2,0:0:0:0:
6,263,38729,1,4,1:0:0:0:
174,285,39184,1,10,0:0:0:0:
174,285,39411,1,2,0:0:0:0:
174,285,39638,1,4,1:2:0:0:
27,355,40093,1,10,0:0:0:0:
141,239,40548,6,0,B|186:210|211:208|232:214|254:201|284:182|293:160,1,161.999995056153,4|2,1:0|0:0,0:0:0:0:
323,99,41457,2,0,B|350:113|367:136|381:161|397:166|420:162,2,107.999996704102,6|10|6,1:2|0:0|1:2,0:0:0:0:
458,10,42820,1,6,1:2:0:0:
404,163,43275,1,2,0:0:0:0:
243,143,43729,2,0,B|221:140|212:146|205:140,3,26.9999991760254,0|0|0|0,1:0|1:0|1:0|0:0,0:0:0:0:
272,152,44184,6,0,B|266:170|239:183|197:204,1,83.9999974365235,4|2,1:0|0:0,0:0:0:0:
129,204,44866,1,10,0:0:0:0:
129,204,45093,2,0,B|95:221|68:234|62:252,1,83.9999974365235,2|2,0:1|0:0,0:0:0:0:
66,336,45775,1,2,0:0:0:0:
66,336,46002,2,0,B|96:339|106:287|177:266,1,125.999996154785,6|8,1:2|0:0,0:0:0:0:
241,233,46911,2,0,B|226:208|203:198|200:160,1,83.9999974365235,2|10,0:0|0:0,0:0:0:0:
268,119,47593,1,2,0:0:0:0:
268,119,47820,22,0,B|306:89|306:89|352:80,1,83.9999974365235,6|2,1:2|0:0,0:0:0:0:
415,53,48502,1,10,0:0:0:0:
415,53,48729,2,0,B|455:16|455:16|493:16,1,83.9999974365235,6|2,0:2|0:0,0:0:0:0:
500,98,49411,1,2,0:0:0:0:
500,98,49638,2,0,B|488:118|488:118|443:126|430:158,2,83.9999974365235,4|4|4,1:2|1:2|1:2,0:0:0:0:
485,19,50775,1,0,0:0:0:0:
485,19,51002,2,0,P|457:18|439:29,1,41.9999987182618,2|10,0:0|0:2,0:0:0:0:
426,101,51457,6,0,B|440:124|440:124|419:143|394:173,1,83.9999974365235,6|10,1:1|0:0,0:0:0:0:
329,139,52138,1,2,0:0:0:0:
329,139,52366,2,0,B|337:108|363:95|363:49,2,83.9999974365235,6|10|6,1:2|0:0|1:2,0:0:0:0:
258,176,53502,1,0,0:0:0:0:
258,176,53616,1,0,0:0:0:0:
258,176,53729,6,0,B|235:231|197:213|171:273,1,125.999996154785,8|2,0:0|3:0,0:0:0:0:
113,319,54638,2,0,P|71:340|66:340,1,41.9999987182618,10|2,0:0|0:0,0:0:0:0:
0,315,55093,6,0,B|2:273|31:244|65:268,1,83.9999974365235,6|10,1:0|0:0,0:0:0:0:
127,234,55775,1,2,0:0:0:0:
127,234,56002,2,0,B|148:216|151:192|182:195|192:179,1,83.9999974365235,6|10,1:0|0:0,0:0:0:0:
266,208,56684,1,0,0:0:0:0:
266,208,56911,2,0,B|260:234|260:234|262:253,2,41.9999987182618,6|2|14,1:0|0:0|1:2,0:0:0:0:
334,166,57593,1,2,0:0:0:0:
334,166,57820,2,0,P|354:149|385:146,1,41.9999987182618,6|2,1:2|1:2,0:0:0:0:
448,150,58275,2,0,B|451:159|447:169|441:171|440:176|440:184,3,20.9999993591309,6|0|8|8,0:0|0:0|0:0|0:0,0:0:0:0:
461,111,58729,6,0,B|470:17|529:79|516:10|501:-10|432:-4|399:42,1,209.999993591309,6|0,1:0|1:0,0:0:0:0:
377,108,60093,2,0,P|360:126|334:124,1,41.9999987182618,2|2,0:0|0:0,0:0:0:0:
275,168,60548,2,0,B|293:190|306:210|339:196|357:217,2,83.9999974365235,2|2|6,1:0|0:0|0:0,0:0:0:0:
195,174,61684,1,0,0:0:0:0:
195,174,61911,2,0,B|170:185|154:203|143:246,1,83.9999974365235,8|4,0:0|1:2,0:0:0:0:
78,337,62707,21,2,3:0:0:0:
78,337,62820,2,0,P|47:346|32:343,1,41.9999987182618,2|2,0:0|3:2,0:0:0:0:
2,272,63275,2,0,B|30:271|61:251|56:220|72:230,1,83.9999974365235,2|2,3:2|1:2,0:0:0:0:
147,210,63957,1,0,1:2:0:0:
147,210,64184,1,6,1:0:0:0:
198,270,64411,5,6,1:0:0:0:
267,231,64638,2,0,B|281:225|285:217|296:215,2,20.9999993591309,6|0|6,1:0|0:0|1:0,0:0:0:0:
217,167,65093,2,0,B|219:138|259:128,1,41.9999987182618,6|0,1:0|0:0,0:0:0:0:
316,110,65548,1,2,1:0:0:0:
330,113,65661,1,0,1:0:0:0:
344,116,65775,1,2,1:0:0:0:
358,119,65888,1,0,1:0:0:0:
374,123,66002,54,4,P|413:130|442:140,1,60,4|0,1:0|0:0,0:0:0:0:
505,107,66457,1,8,1:2:0:0:
350,124,66911,2,0,B|328:131|314:142|306:158|281:166,1,60,6|2,1:2|0:0,0:0:0:0:
267,227,67366,2,0,B|245:220|231:209|223:193|198:185,1,60,10|2,1:2|0:0,0:0:0:0:
139,197,67820,1,6,1:2:0:0:
139,197,68048,1,2,0:0:0:0:
139,197,68275,2,0,B|112:215|111:216|93:233|93:246,1,60,10|2,0:0|0:0,0:0:0:0:
70,310,68729,1,6,1:0:0:0:
218,260,69184,1,10,0:0:0:0:
218,260,69411,1,2,0:0:0:0:
218,260,69638,6,0,B|226:229|250:208|256:189|256:188|254:166|252:153|266:142,1,120,6|10,1:2|0:0,0:0:0:0:
322,102,70320,2,0,P|361:86|394:82,1,60,2|2,0:0|1:2,0:0:0:0:
512,0,71002,1,8,0:2:0:0:
449,145,71457,5,4,1:0:0:0:
449,145,71684,2,0,B|445:102|457:91|457:91|456:64,2,60,0|2|2,0:0|1:2|0:2,0:0:0:0:
383,187,72366,1,2,1:2:0:0:
231,151,72820,2,0,B|243:133|260:131|261:118,3,30,2|0|2|0,1:2|0:0|1:2|0:0,0:0:0:0:
290,117,73275,5,4,1:0:0:0:
210,251,73729,1,8,1:2:0:0:
210,251,73957,1,2,0:0:0:0:
210,251,74184,2,0,B|182:260|159:254|134:229|111:233|90:235,1,120,6|10,1:2|0:0,0:0:0:0:
8,365,75093,1,6,1:2:0:0:
8,365,75320,1,2,0:0:0:0:
8,365,75548,2,0,B|39:359|41:336|59:337,1,60,10|2,0:0|0:0,0:0:0:0:
129,304,76002,1,6,1:2:0:0:
129,304,76457,2,0,B|117:281|99:273|80:271|66:268,1,60,10|2,0:0|0:0,0:0:0:0:
5,265,76911,6,0,B|44:257|67:254|76:206|110:203|117:202,1,120,6|10,1:2|0:0,0:0:0:0:
183,215,77593,1,2,0:0:0:0:
254,183,77820,1,2,1:2:0:0:
407,155,78275,1,8,0:2:0:0:
442,3,78729,2,0,B|477:-20|505:20|505:20|505:29|505:29|545:54|516:99|462:79,1,180,4|2,1:0|1:2,0:0:0:0:
399,67,79638,6,0,B|394:91|398:108|399:109|401:119|397:138,1,60,2|0,1:2|3:0,0:0:0:0:
334,172,80093,2,0,B|331:147|322:132|321:132|316:123|313:103,1,60,2|0,1:2|3:0,0:0:0:0:
237,123,80548,1,2,1:0:0:0:
237,123,80775,1,2,3:0:0:0:
263,196,81002,21,2,1:0:0:0:
254,212,81116,1,0,1:0:0:0:
245,227,81229,1,2,1:1:0:0:
237,243,81343,1,2,1:1:0:0:
228,257,81457,6,0,B|201:252|179:228|158:217|142:219|116:239|116:239|50:290|34:194|-14:278|-17:294,1,264.000008056641,4|4,1:0|1:0,0:0:0:0:
12,359,82593,1,2,0:1:0:0:
99,344,82820,1,0,1:0:0:0:
99,344,82934,2,0,P|129:328|152:292,1,66.0000020141602,2|0,3:0|0:0,0:0:0:0:
156,261,83275,2,0,B|149:247|149:238|140:227,2,33.0000010070801,2|0|0,1:1|0:0|0:0,0:0:0:0:
121,193,83616,2,0,B|162:171|187:164|192:157,1,66.0000020141602,2|0,0:0|0:0,0:0:0:0:
220,147,83957,2,0,B|263:135|279:140|304:155|320:169|352:169|372:160|390:142|400:124|426:116,1,198.000006042481,2|8,0:1|0:0,0:0:0:0:
421,42,84866,1,0,0:0:0:0:
497,0,85093,6,0,B|509:41|505:66|490:86|481:101|482:120|494:145,2,132.00000402832,6|14|6,1:0|1:2|1:0,0:0:0:0:
424,45,86229,1,2,0:0:0:0:
424,45,86343,1,2,0:0:0:0:
424,45,86457,2,2,B|405:51|385:70|376:100,1,66.0000020141602,14|2,1:2|0:1,0:1:0:0:
408,171,86911,2,0,B|379:187|379:187|339:162,1,66.0000020141602,6|0,1:0|0:0,0:0:0:0:
286,113,87366,1,6,1:0:0:0:
286,113,87593,1,0,0:0:0:0:
229,177,87820,6,0,B|219:197|219:213|222:222|212:250,1,66.0000020141602,6|8,1:0|0:0,0:0:0:0:
214,241,88161,1,8,0:0:0:0:
214,241,88275,1,0,1:0:0:0:
151,298,88502,1,0,1:0:0:0:
109,218,88729,38,0,B|134:170|183:191|208:194|236:176|244:163,2,132.00000402832,6|10|2,1:0|0:0|1:0,0:0:0:0:
27,244,89866,1,2,0:0:0:0:
0,321,90093,2,0,P|15:352|58:369,1,66.0000020141602,10|2,0:0|0:0,0:0:0:0:
110,315,90548,2,0,B|155:303|171:278|185:261|208:256|242:258,2,132.00000402832,2|10|0,1:0|0:0|1:0,0:0:0:0:
199,168,91911,2,0,P|244:162|271:174,1,66.0000020141602,10|2,0:0|0:0,0:0:0:0:
340,204,92366,2,0,B|352:174|375:173|394:137,1,66.0000020141602,4|0,1:0|0:0,0:0:0:0:
383,154,92707,1,2,0:0:0:0:
383,154,92820,1,10,0:0:0:0:
453,104,93048,6,0,B|464:77|464:77|460:33|460:33|477:-3,2,99.0000030212403,2|2|10,0:0|0:1|0:0,0:0:0:0:
375,65,93957,1,0,0:0:0:0:
375,65,94070,1,2,0:0:0:0:
375,65,94184,2,0,B|352:75|352:75|322:118,1,66.0000020141602,4|4,1:0|1:0,0:0:0:0:
286,183,94638,2,0,L|289:218,2,33.0000010070801,4|0|4,1:0|0:0|1:0,0:0:0:0:
203,208,95093,2,0,B|197:196|194:180|199:164|191:153,3,33.0000010070801,8|8|8|8,1:2|1:2|1:2|1:2,0:0:0:0:
200,159,95548,1,6,1:0:0:0:
200,159,96002,54,0,B|184:163|165:178|171:241|136:232|117:226|94:221|74:225|57:206|-7:234|-38:278|-12:317|26:312|-1:330|43:304|78:296|88:256|141:289,1,384,4|4,1:0|1:0,0:1:0:0:
127,281,98274,6,0,P|170:288|190:280,1,48,10|2,0:0|0:0,0:0:0:0:
230,235,98729,1,6,1:2:0:0:
376,188,99183,1,10,0:2:0:0:
421,41,99638,2,0,B|450:13|475:15|492:22|502:27|502:27|520:8,2,96,4|10|6,1:0|0:0|1:2,0:0:0:0:
295,129,101002,1,10,0:0:0:0:
295,129,101229,1,2,0:0:0:0:
295,129,101456,2,0,B|321:136|336:149|356:152,1,48,4|2,1:2|0:0,0:0:0:0:
414,164,101911,2,0,B|417:165|432:152|458:145,1,48,8|2,0:0|0:0,0:0:0:0:
471,70,102365,2,0,B|427:67|399:81|377:87|361:81,1,96,6|8,1:2|0:0,0:0:0:0:
281,204,103274,6,0,B|219:249|219:249|201:222,1,96,4|10,1:0|0:0,0:0:0:0:
208,232,104183,2,0,B|174:220|174:220|140:221,1,48,6|0,1:2|0:0,0:0:0:0:
92,254,104638,1,6,1:2:0:0:
8,382,105092,1,6,1:2:0:0:
8,382,105320,1,2,0:0:0:0:
8,382,105547,2,0,B|31:361|43:353|49:342,1,48,10|2,0:0|0:0,0:0:0:0:
1,283,106002,2,0,B|30:266|39:265|63:268|77:265|88:257|96:250,1,96,6|12,1:0|0:0,0:0:0:0:
216,164,106911,6,0,B|246:166|261:178|268:183,1,48,4|2,1:0|3:0,0:0:0:0:
319,228,107365,1,10,0:0:0:0:
375,85,107820,1,6,1:2:0:0:
375,85,108047,1,0,1:0:0:0:
375,85,108274,2,0,B|390:73|390:73|408:70|408:70|427:55,1,48,10|0,0:0|1:0,0:0:0:0:
466,4,108729,1,6,1:2:0:0:
470,157,109183,1,6,1:2:0:0:
319,123,109638,1,10,0:0:0:0:
231,248,110092,2,8,B|218:261|217:278|210:283,3,24
239,230,110547,22,0,B|251:209|231:178|220:160|187:173|179:192,1,96,4|8,1:0|0:0,0:0:0:0:
130,236,111229,1,2,0:0:0:0:
130,236,111456,2,0,B|117:256|137:287|148:305|181:292|189:273,1,96,6|8,1:2|0:0,0:0:0:0:
241,235,112138,1,2,0:3:0:0:
241,235,112365,2,0,B|267:220|277:220|288:207,2,48,4|2|10,1:0|0:0|1:2,0:0:0:0:
181,186,113047,1,2,0:0:0:0:
124,237,113274,2,0,B|81:255|77:258|70:283|30:304,1,96,6|10,1:2|0:0,1:0:0:0:
25,366,113956,1,2,0:3:0:0:
99,348,114183,22,0,B|108:316|105:292|105:269|107:247|115:240,1,96,4|10,1:0|0:2,0:0:0:0:
47,206,114865,1,2,0:0:0:0:
31,282,115092,2,0,B|28:276|44:291|59:309|72:329|99:348,1,96,6|10,1:2|1:2,0:0:0:0:
154,294,115774,1,2,0:0:0:0:
154,294,115888,1,0,0:0:0:0:
154,294,116002,2,0,P|157:260|159:238,1,48,6|2,1:0|0:0,0:0:0:0:
217,197,116456,2,0,P|227:218|238:240,1,48,10|2,0:0|0:0,0:0:0:0:
311,217,116911,1,4,1:2:0:0:
352,152,117138,1,0,0:0:0:0:
352,152,117252,1,0,0:0:0:0:
352,152,117365,2,0,P|393:142|415:143,1,48,10|0,0:0|0:0,0:0:0:0:
467,106,117820,6,4,B|492:75|494:46|492:29|481:17|471:9,1,96,0|10,1:0|0:0,0:0:0:0:
406,24,118502,1,2,0:0:0:0:
394,99,118729,2,0,B|365:100|352:88|352:88|335:106|298:117,1,96,6|14,1:2|1:2,0:0:0:0:
246,162,119411,1,2,0:2:0:0:
246,162,119638,2,0,B|266:180|270:193|283:205,2,48,4|2|10,1:0|0:0|0:0,0:0:0:0:
170,177,120320,1,2,0:0:0:0:
101,210,120547,2,0,P|117:231|151:251,1,48,4|0,1:2|0:0,0:0:0:0:
135,243,120888,1,0,0:0:0:0:
135,243,121002,1,10,0:0:0:0:
225,248,121229,1,0,0:0:0:0:
225,248,121456,6,0,B|193:250|169:262|157:273|137:292|119:300|101:303|82:304,1,144,4|2,1:0|0:0,0:0:0:0:
30,346,122365,1,6,1:2:0:0:
30,346,122592,1,2,0:0:0:0:
3,273,122820,2,0,P|24:237|46:225,1,48,10|2,0:0|0:0,0:0:0:0:
105,224,123274,5,6,1:2:0:0:
158,279,123502,1,6,0:2:0:0:
221,236,123729,2,0,B|226:218|236:208|239:177,1,48,6|6,1:2|0:2,0:0:0:0:
273,123,124183,1,2,0:0:0:0:
292,125,124297,1,0,1:0:0:0:
311,127,124411,1,8,0:0:0:0:
329,129,124524,1,8,0:0:0:0:
348,131,124638,2,0,B|369:133|379:137|383:137,3,24,0|0|0|0,1:0|1:0|1:0|0:0,0:0:0:0:
389,137,125092,21,4,1:0:0:0:
486,21,125547,1,2,0:0:0:0:
486,21,125774,1,10,0:0:0:0:
486,21,126002,1,2,0:1:0:0:
349,86,126456,1,2,0:0:0:0:
349,86,126683,1,2,0:0:0:0:
349,86,126911,2,0,B|372:81|408:72|431:78|438:83|444:97|421:107|398:103|381:114|358:121|385:160,1,167.999994873047,6|2,1:2|0:0,0:0:0:0:
266,247,128274,1,10,0:0:0:0:
266,247,128502,1,2,0:0:0:0:
266,247,128729,5,6,1:2:0:0:
125,222,129183,1,2,0:0:0:0:
125,222,129411,1,10,0:0:0:0:
125,222,129638,1,6,0:2:0:0:
69,366,130092,1,2,0:0:0:0:
69,366,130320,1,2,0:0:0:0:
69,366,130547,2,0,B|46:375|14:391|-9:391|-17:387|-26:375|-6:360|17:360|31:344|51:333|17:301,1,167.999994873047,4|4,1:2|1:2,0:0:0:0:
26,312,131911,2,0,B|14:297|12:287|3:284,3,20.9999993591309,10|10|10|10,0:0|0:0|0:2|0:2,0:0:0:0:
5,275,132365,5,6,1:1:0:0:
5,275,132820,2,0,B|29:255|29:255|47:251,1,41.9999987182618,10|2,0:0|0:0,0:0:0:0:
114,258,133274,1,6,1:2:0:0:
224,155,133729,1,10,0:0:0:0:
140,280,134183,2,0,B|164:259|191:263|206:261|225:252|233:232|248:214|300:208,1,167.999994873047,6|0,1:2|1:0,0:0:0:0:
430,153,135547,1,2,1:0:0:0:
430,153,135774,1,2,0:0:0:0:
430,153,136002,5,6,1:0:0:0:
280,133,136456,1,10,0:0:0:0:
280,133,136683,1,2,0:0:0:0:
280,133,136911,2,0,B|315:113|334:114|359:100|369:86,1,83.9999974365235,6|10,1:0|0:0,0:0:0:0:
488,24,137820,2,0,B|504:2|512:-1|517:-10,2,41.9999987182618,6|2|14,1:0|0:0|1:2,0:0:0:0:
422,62,138502,1,2,0:0:0:0:
422,62,138729,2,0,P|440:76|474:84,1,41.9999987182618,6|2,1:2|1:2,0:0:0:0:
493,149,139183,2,0,P|465:157|444:156,1,41.9999987182618,6|8,0:0|0:0,0:0:0:0:
381,130,139638,6,0,B|354:140|349:151|338:166|315:182|294:189|267:172|247:176|228:198|227:213,1,167.999994873047,6|2,1:0|1:2,0:0:0:0:
84,229,141002,2,0,B|66:238|59:253|50:266,1,41.9999987182618,2|2,0:0|0:0,0:0:0:0:
33,331,141456,1,2,1:0:0:0:
33,331,141911,2,0,P|57:337|83:328,1,41.9999987182618,2|10,1:2|0:0,0:0:0:0:
136,291,142365,2,0,B|156:266|172:262|192:262|214:246|212:241,1,83.9999974365235,6|8,0:0|0:0,0:0:0:0:
246,183,143047,1,2,1:2:0:0:
246,183,143502,2,0,P|248:166|249:149,2,20.9999993591309,2|2|2,1:2|3:0|0:0,0:0:0:0:
318,217,143956,1,10,0:2:0:0:
318,217,144183,2,0,B|327:196|325:180|324:158|334:138|344:122,1,83.9999974365235,2|2,3:2|1:2,0:0:0:0:
448,33,145092,37,6,1:0:0:0:
407,178,145547,1,6,1:0:0:0:
255,181,146002,1,6,1:0:0:0:
363,76,146456,2,0,B|368:66|381:58|386:47,4,20.9999993591309,2|0|2|0|0,1:0|1:0|1:0|1:0|0:0,0:0:0:0:
363,76,147820,54,4,B|349:95|319:106|312:121|314:143|307:182,1,120,4|8,1:0|0:0,0:0:0:0:
392,161,148501,1,2,0:0:0:0:
392,161,148615,1,0,0:0:0:0:
392,161,148729,2,0,B|419:149|434:126|452:127,2,60,6|2|10,1:2|0:0|1:2,0:0:0:0:
314,133,149410,1,2,0:0:0:0:
246,172,149638,2,0,B|226:195|214:197|198:197|183:212,1,60,6|2,1:2|0:0,0:0:0:0:
118,211,150092,2,0,B|115:216|99:216|87:218|67:241,1,60,10|2,0:0|0:0,0:0:0:0:
27,308,150547,2,0,B|20:345|42:355|60:359|83:352|98:334|103:317|123:302,1,120,6|10,1:0|0:0,0:0:0:0:
181,304,151229,1,2,0:0:0:0:
219,236,151456,22,0,B|239:199|248:186|276:183|286:158|285:128|293:122,1,120,6|10,1:2|0:0,0:0:0:0:
342,83,152138,1,2,0:0:0:0:
416,105,152365,2,0,B|457:107|475:70|475:43|475:43|513:22,2,120,2|8|4,1:2|0:2|1:0,0:0:0:0:
365,164,153501,1,0,0:0:0:0:
346,88,153729,1,2,1:2:0:0:
346,88,153956,1,2,0:2:0:0:
292,144,154183,2,0,B|268:161|268:161|222:160,1,60,2|2,1:2|3:2,0:0:0:0:
237,160,154524,1,2,3:2:0:0:
237,160,154638,1,2,1:2:0:0:
190,222,154865,1,2,1:2:0:0:
115,198,155092,6,4,B|77:217|65:224|48:240|38:261|15:270|10:271,1,120,4|8,1:0|1:2,0:0:0:0:
0,344,155774,1,2,0:0:0:0:
77,329,156001,2,0,B|105:297|115:288|135:276|158:272|173:252|176:248,1,120,6|10,1:2|0:0,0:0:0:0:
197,181,156683,1,2,0:0:0:0:
197,181,156797,1,0,0:0:0:0:
197,181,156910,2,0,B|227:180|241:188|256:191|264:191,1,60,6|2,1:2|0:0,0:0:0:0:
332,206,157365,2,0,B|343:196|351:182|377:167,1,60,10|2,0:0|0:0,0:0:0:0:
353,93,157820,2,0,B|397:77|413:48|441:35|477:42,1,120,6|10,1:2|0:0,0:0:0:0:
503,104,158501,1,2,0:0:0:0:
450,162,158729,6,0,B|408:170|408:170|368:157|312:180,1,120,6|10,1:2|0:0,0:0:0:0:
275,226,159410,1,2,0:0:0:0:
220,170,159638,2,0,B|229:147|252:131|272:131|280:116,1,60,2|0,1:2|0:0,0:0:0:0:
263,130,159979,1,0,0:0:0:0:
263,130,160092,1,8,0:2:0:0:
333,97,160320,1,0,1:3:0:0:
409,112,160547,6,0,B|417:82|417:75|422:68|425:48,1,60,4|0,1:0|0:0,0:0:0:0:
497,28,161001,2,0,L|490:-4,2,30,2|0|2,1:2|0:0|1:2,0:0:0:0:
504,105,161456,2,0,B|462:102|439:115|423:126|410:141|394:154|372:159|352:156|320:161,1,180,4|0,1:0|0:0,0:0:0:0:
260,159,162365,22,0,B|251:145|249:136|249:136,7,24,6|2|2|2|2|2|2|2,0:0|0:0|0:0|0:0|0:0|0:0|0:0|0:0,0:0:0:0:
249,137,169638,6,0,B|263:152|261:166|271:180,1,48,4|10,1:2|0:0,0:0:0:0:
206,225,171456,2,0,B|191:209|194:196|184:182,1,48,2|2,1:0|0:0,0:0:0:0:
270,179,173274,2,0,B|284:194|282:208|292:222,1,48,2|2,1:0|0:0,0:0:0:0:
227,267,175092,2,0,B|212:251|215:238|205:224,1,48,6|2,1:2|1:2,0:0:0:0:
270,179,176910,6,0,B|285:164|299:167|313:157,1,48,6|2,1:2|1:2,0:0:0:0:
205,224,178729,2,0,B|189:238|176:236|162:246,1,48,4|2,1:2|1:2,0:0:0:0:
312,157,180547,2,0,B|327:142|341:145|355:135,1,48,6|4,1:2|1:2,0:0:0:0:
162,245,182365,2,2,B|146:259|133:257|119:267,1,48,6|0,1:2|0:0,0:1:0:0:
354,135,184183,6,0,B|378:137|394:143|415:107|441:107,2,90,4|2|4,1:2|3:2|1:2,1:2:0:0:
214,204,186001,2,0,B|184:211|176:219|168:229|161:235|149:245|128:246,1,90,4|2,1:2|1:2,1:2:0:0:
57,236,186910,1,4,0:0:0:0:
1,373,187365,1,4,1:2:0:0:
51,225,187820,6,0,B|49:250|40:269|45:294|57:300|63:318,1,90,6|0,0:0|1:0,0:0:0:0:
138,304,188729,2,0,B|136:286|140:272|134:256|125:253|119:242,1,60,2|0,0:0|1:0,0:0:0:0:
168,178,189410,1,0,1:0:0:0:
168,178,189638,2,0,B|182:165|187:163|194:152,2,30,6|6|6,1:0|1:0|1:0,0:0:0:0:
210,255,190320,1,6,1:0:0:0:
210,255,190547,2,0,B|222:221|266:200|311:180|355:155|350:128|305:160,1,192,6|0,1:0|0:0,0:0:0:0:
463,34,192706,37,2,1:0:0:0:
463,34,192820,2,0,B|464:16|469:11|477:7|475:-7,2,24,2|0|2,1:0|0:0|1:0,0:0:0:0:
8,329,194183,2,0,B|1:338|3:349|-2:363,3,24,2|2|2|2,0:0|3:0|3:0|0:0,0:0:0:0:
15,355,194638,5,2,1:0:0:0:
21,334,194751,1,0,0:0:0:0:
27,313,194865,1,8,0:0:0:0:
33,292,194979,1,8,0:0:0:0:
39,269,195092,38,2,B|70:256|77:256|94:261|108:268|132:268|175:244,1,120,4|8,1:0|0:2,0:1:0:0:
240,246,195774,1,2,0:0:0:0:
240,246,195888,1,0,0:0:0:0:
240,246,196001,2,0,B|253:217|254:209|253:198|259:178,1,60,6|2,1:2|0:0,0:0:0:0:
263,153,196342,1,0,0:0:0:0:
263,153,196456,2,0,B|290:129|290:129|325:125,1,60,0|2,1:2|0:0,0:0:0:0:
385,155,196910,1,4,1:0:0:0:
385,155,197138,1,2,0:0:0:0:
428,90,197365,2,0,B|456:76|473:76|486:71|491:57,1,60,14|2,0:0|0:0,0:1:0:0:
435,6,197820,2,0,B|407:20|390:20|377:25|372:39,1,60,6|0,1:2|0:0,0:1:0:0:
356,102,198274,1,8,0:0:0:0:
303,159,198501,1,2,0:0:0:0:
379,175,198729,22,0,B|339:171|315:172|293:188|279:196|240:188,1,120,4|10,1:0|0:0,0:0:0:0:
186,168,199410,1,2,0:0:0:0:
126,218,199638,2,0,B|166:214|190:215|212:231|226:239|265:231,1,120,4|10,1:2|0:0,0:0:0:0:
287,168,200320,2,0,B|313:133|314:128|329:107,1,60,0|6,0:0|1:2,0:0:0:0:
401,134,200774,5,2,0:2:0:0:
401,134,201001,1,6,1:2:0:0:
419,57,201229,1,2,0:2:0:0:
496,63,201456,2,0,B|495:81|486:97|483:111|485:130,1,60,6|2,1:2|0:2,0:0:0:0:
484,121,201797,1,2,0:0:0:0:
484,121,201910,1,0,1:0:0:0:
414,157,202138,2,0,B|363:157|352:145|336:136,1,60,0|4,1:0|1:0,0:0:0:0:
279,163,202592,6,0,B|275:147|278:121|290:118|297:95,2,60,0|8|2,0:0|1:2|0:0,0:0:0:0:
239,230,203274,1,6,1:2:0:0:
161,227,203501,2,0,B|157:243|160:269|172:272|179:295,2,60,0|10|2,0:0|0:0|0:0,0:0:0:0:
82,221,204183,1,6,1:2:0:0:
82,221,204410,1,2,0:0:0:0:
25,274,204638,2,0,B|6:288|1:311|1:322|-6:341,1,60,10|2,0:0|0:0,0:0:0:0:
51,383,205092,2,0,P|69:348|72:320,1,60,6|0,1:2|0:0,0:0:0:0:
72,328,205433,1,0,3:0:0:0:
72,328,205547,1,10,0:0:0:0:
140,290,205774,1,2,0:0:0:0:
90,229,206001,6,0,B|135:207|177:211|223:217|261:216|281:196,1,180,4|2,1:0|0:0,0:0:0:0:
297,133,206910,1,4,1:0:0:0:
382,133,207138,1,0,0:0:0:0:
382,133,207251,1,0,0:0:0:0:
382,133,207365,2,0,B|406:119|424:119|455:108,1,60,10|0,0:0|1:0,0:0:0:0:
489,53,207820,1,4,1:0:0:0:
489,53,208047,37,2,0:0:0:0:
416,23,208274,2,0,B|409:8|409:4|405:-6,2,30,2|2|2,0:0|0:0|1:2,0:0:0:0:
353,69,208729,1,2,1:2:0:0:
350,80,208842,1,0,0:0:0:0:
347,91,208956,1,2,0:0:0:0:
344,102,209070,1,2,0:2:0:0:
341,113,209183,2,0,B|336:138|331:149|332:161,3,30,10|0|10|8,0:0|0:0|0:0|0:0,0:0:0:0:
352,177,209638,54,2,B|296:178|290:180|246:206|236:221|215:203,2,120,4|8|6,1:0|0:2|1:2,0:1:0:0:
407,122,210774,1,2,0:0:0:0:
407,122,210888,1,0,0:0:0:0:
407,122,211001,2,0,P|367:105|342:103,1,60,0|2,1:2|0:0,0:0:0:0:
294,157,211456,2,0,B|246:186|240:188|189:190|172:183|164:209,2,120,4|14|6,1:0|0:0|1:2,0:1:0:0:
323,84,212592,1,0,0:0:0:0:
323,84,212706,1,0,0:0:0:0:
323,84,212820,1,8,0:0:0:0:
400,92,213047,1,2,0:0:0:0:
442,26,213274,22,0,B|449:5|474:7|474:7|473:44|501:82,1,120,4|10,1:0|0:0,0:0:0:0:
476,154,213956,1,2,0:0:0:0:
400,174,214183,2,0,B|393:195|368:193|368:193|369:156|341:118,1,120,4|10,1:2|0:0,0:0:0:0:
264,132,214865,1,0,0:0:0:0:
227,200,215092,2,0,B|258:203|267:206|295:205,2,60,6|2|6,1:2|0:2|1:2,0:0:0:0:
166,249,215774,1,2,0:2:0:0:
91,225,216001,2,0,B|70:228|64:239|42:247,3,30,6|0|10|10,1:2|0:0|0:2|0:0,0:0:0:0:
46,276,216456,2,0,B|44:273|42:286|24:296,3,30,0|0|0|0,1:0|0:0|1:0|0:0,0:0:0:0:
0,270,216910,6,4,B|45:280|71:289|85:305|116:287|120:290,1,120,4|8,1:0|1:2,0:0:0:0:
182,247,217592,1,2,0:0:0:0:
140,180,217820,2,4,B|175:202|186:206|217:196|247:188|257:197|257:223,1,120,4|10,1:2|0:0,0:0:0:0:
319,165,218501,1,2,0:0:0:0:
319,165,218615,1,0,0:0:0:0:
319,165,218729,1,6,1:2:0:0:
387,128,218956,2,0,B|398:136|406:152|401:167|413:182,2,60,2|10|2,0:0|0:0|0:0,0:0:0:0:
317,93,219638,2,0,B|357:84|383:88|395:65|401:37|416:25|424:25,1,120,6|10,1:2|0:0,0:0:0:0:
488,12,220320,1,0,1:0:0:0:
505,87,220547,6,0,B|509:108|488:135|488:135|456:159|426:137|416:144|406:168,1,120,4|10,1:0|0:0,0:0:0:0:
353,182,221229,1,2,0:0:0:0:
301,123,221456,2,0,B|265:122|252:117|234:127|225:133,1,60,4|0,1:0|0:0,0:0:0:0:
241,124,221797,1,0,0:0:0:0:
241,124,221910,1,10,0:0:0:0:
199,190,222138,1,0,0:0:0:0:
121,193,222365,1,4,1:0:0:0:
70,252,222592,5,2,0:0:0:0:
147,259,222820,2,0,B|157:252|185:258|199:251,2,30,2|0|2,0:2|0:0|1:2,0:0:0:0:
103,326,223274,2,0,B|88:335|75:338|73:355|55:362|52:352,1,60,4|2,1:2|3:2,0:0:0:0:
0,302,223729,1,8,0:0:0:0:
10,291,223842,1,8,0:0:0:0:
20,280,223956,1,8,0:0:0:0:
29,268,224070,1,8,0:0:0:0:
40,258,224183,21,4,1:0:0:0:
258,194,224865,5,4,1:0:0:0:
258,194,225092,1,4,1:0:0:0:
471,124,225945,69,0,0:0:0:0:
