osu file format v14

[General]
AudioFilename: audio.mp3
AudioLeadIn: 0
PreviewTime: 65888
Countdown: 0
SampleSet: Soft
StackLeniency: 0
Mode: 0
LetterboxInBreaks: 0
WidescreenStoryboard: 0

[Editor]
Bookmarks: 15093,29638,44184,58729,66002,81457,96002,110547,125092,139638,147820,162365,169638,184183,195092,209638
DistanceSpacing: 0.7
BeatDivisor: 8
GridSize: 32
TimelineZoom: 2.1

[Metadata]
Title:N
TitleUnicode:エヌ
Artist:subeteanatanoseidesu.
ArtistUnicode:全てあなたの所為です。
Creator:wafer
Version:ii
Source:
Tags:japanese shiny braixen pop electronic CXIII goopert kami no kotoba UTAU 唄音ウタ Utane Uta デフォ子 Defoko デフォルト Default SubeAna
BeatmapID:3937516
BeatmapSetID:1909071

[Difficulty]
HPDrainRate:6
CircleSize:4.5
OverallDifficulty:7
ApproachRate:7
SliderMultiplier:1.4
SliderTickRate:1

[Events]
//Background and Video events
0,0,"nanann.png",0,0
//Break Periods
//Storyboard Layer 0 (Background)
//Storyboard Layer 1 (Fail)
//Storyboard Layer 2 (Pass)
//Storyboard Layer 3 (Foreground)
//Storyboard Layer 4 (Overlay)
//Storyboard Sound Samples

[TimingPoints]
548,454.545454545455,4,2,0,60,1,0
548,-200,4,2,0,50,0,0
7820,-133.333333333333,4,2,0,60,0,0
8729,-105.263157894737,4,2,0,60,0,0
9638,-133.333333333333,4,2,0,60,0,0
15093,-66.6666666666667,4,2,0,70,0,0
23729,-62.5,4,2,0,70,0,0
25093,-66.6666666666667,4,2,0,70,0,0
29638,-66.6666666666667,4,2,0,70,0,0
44184,-100,4,2,0,60,0,0
49638,-83.3333333333333,4,2,0,60,0,0
51457,-76.9230769230769,4,2,0,60,0,0
61457,-200,4,2,0,60,0,0
62366,-200,4,2,0,55,0,0
64184,-83.3333333333333,4,2,0,65,0,0
66002,-58.8235294117647,4,2,0,80,0,0
67366,-71.4285714285714,4,2,0,80,0,0
67820,-66.6666666666667,4,2,0,80,0,0
73275,-62.5,4,2,0,80,0,0
78729,-71.4285714285714,4,2,0,80,0,0
79638,-71.4285714285714,4,2,0,60,0,0
80093,-71.4285714285714,4,2,0,65,0,0
81229,-71.4285714285714,4,2,0,70,0,0
81457,454.545454545455,4,2,0,75,1,0
81457,-71.4285714285714,4,2,0,75,0,0
86002,-66.6666666666667,4,2,0,75,0,0
88729,-83.3333333333333,4,2,0,75,0,0
94184,-71.4285714285714,4,2,0,75,0,0
96002,-66.6666666666667,4,2,0,70,0,0
104638,-62.5,4,2,0,70,0,0
106002,-66.6666666666667,4,2,0,70,0,0
110547,-66.6666666666667,4,2,0,70,0,0
125092,-100,4,2,0,60,0,0
130546,-83.3333333333333,4,2,0,60,0,0
132365,-76.9230769230769,4,2,0,60,0,0
142365,-200,4,2,0,60,0,0
143274,-200,4,2,0,55,0,0
145092,-83.3333333333333,4,2,0,65,0,0
146910,-58.8235294117647,4,2,0,40,0,0
147820,454.545454545455,4,2,0,75,1,0
147820,-58.8235294117647,4,2,0,80,0,0
149184,-71.4285714285714,4,2,0,80,0,0
149638,-66.6666666666667,4,2,0,80,0,0
155093,-62.5,4,2,0,80,0,0
160547,-71.4285714285714,4,2,0,80,0,0
161456,-142.857142857143,4,2,0,60,0,0
162365,-71.4285714285714,4,2,0,40,0,0
169638,-71.4285714285714,4,2,0,50,0,0
184183,-133.333333333333,4,2,0,55,0,0
189638,-66.6666666666667,4,2,0,55,0,0
191683,-66.6666666666667,4,2,0,35,0,0
192706,-66.6666666666667,4,2,0,50,0,0
195092,-58.8235294117647,4,2,0,90,0,0
224183,-58.8235294117647,4,2,0,70,0,0
225433,-58.8235294117647,4,2,0,20,0,0
225888,-58.8235294117647,4,2,0,10,0,0

[Colours]
Combo1 : 191,191,191
Combo2 : 95,95,95
Combo3 : 127,127,127
Combo4 : 159,159,159

[HitObjects]
26,125,548,6,0,L|151:115,1,105,4|0,1:0|0:0,0:0:0:0:
210,106,1457,5,2,0:0:0:0:
136,88,1684,1,2,0:0:0:0:
182,129,1911,1,2,0:0:0:0:
177,55,2138,1,2,0:0:0:0:
26,125,2366,6,0,L|151:115,1,105,2|0,0:1|0:0,0:0:0:0:
208,146,3275,5,2,0:0:0:0:
134,164,3502,1,2,0:0:0:0:
180,123,3729,1,2,0:0:0:0:
175,145,3956,1,2,0:0:0:0:
40,7,4184,6,0,L|49:126,1,105,4|0,1:0|0:0,0:0:0:0:
58,186,5093,5,2,0:0:0:0:
76,112,5320,1,2,0:0:0:0:
12,149,5547,1,2,0:0:0:0:
64,160,5774,1,2,0:0:0:0:
40,7,6002,6,0,L|50:132,1,105,2|0,0:1|0:0,0:0:0:0:
19,184,6911,5,2,0:1:0:0:
1,110,7138,1,2,0:1:0:0:
42,156,7366,1,2,0:1:0:0:
20,151,7593,1,2,0:3:0:0:
141,65,7820,6,0,L|227:77,1,78.7500030040742,4|0,1:0|0:0,0:0:0:0:
237,84,8275,1,10,0:0:0:0:
139,67,8729,6,0,L|243:82,1,99.7499973363877,4|0,1:0|0:0,0:0:0:0:
256,0,9184,5,10,0:0:0:0:
227,163,9638,6,0,L|124:148,1,105.000004005432,4|8,1:0|0:0,0:0:0:0:
229,161,10548,6,0,L|142:149,1,78.7500030040742,2|0,1:2|0:0,0:0:0:0:
92,84,11002,1,10,0:0:0:0:
11,158,11457,5,6,1:1:0:0:
71,105,11684,1,2,0:0:0:0:
54,158,12138,1,2,0:0:0:0:
54,158,12252,1,2,0:0:0:0:
10,100,12366,6,0,L|22:13,1,78.7500030040742,2|0,1:0|0:0,0:0:0:0:
8,102,12820,2,0,L|20:16,1,78.7500030040742,10|0,0:0|0:0,0:0:0:0:
241,170,13275,5,6,1:0:0:0:
154,12,13502,5,2,1:0:0:0:
250,175,13729,5,14,1:0:0:0:
256,32,13957,5,2,1:0:0:0:
256,192,14184,6,2,P|256:153|255:104,1,78.7500030040742,0|4,1:0|3:0,0:1:0:0:
227,99,14638,1,8,0:0:0:0:
188,106,14751,1,8,0:0:0:0:
154,127,14865,1,8,0:0:0:0:
129,157,14978,1,8,0:0:0:0:
199,231,15093,6,0,B|95:271|131:216|-24:270,1,210.000008010865,4|8,1:0|0:0,0:0:0:0:
219,235,15775,1,2,0:0:0:0:
0,253,16002,2,0,P|61:271|208:291,1,210.000008010865,6|8,1:2|0:0,0:0:0:0:
14,271,16684,1,2,0:3:0:0:
229,227,16911,6,0,P|191:249|164:254,1,52.5000020027161,4|0,1:0|0:0,0:0:0:0:
194,263,17138,2,0,P|150:256|126:241,1,52.5000020027161,2|0,0:0|0:0,0:0:0:0:
74,293,17366,2,0,P|42:262|31:237,1,52.5000020027161,10|0,1:2|0:0,0:0:0:0:
18,284,17593,2,0,P|2:242|2:215,1,52.5000020027161,2|0,0:3|0:0,0:0:0:0:
214,284,17820,2,0,P|149:296|7:380,1,210.000008010865,6|10,1:2|0:0,0:0:0:0:
236,257,18729,5,4,1:0:0:0:
0,297,19184,1,10,0:0:0:0:
69,322,19412,1,2,0:3:0:0:
248,228,19638,5,6,1:2:0:0:
7,206,19979,1,2,0:0:0:0:
7,206,20093,6,0,L|20:297,1,52.5000020027161,10|0,0:0|0:0,0:0:0:0:
81,296,20320,2,0,L|94:205,1,52.5000020027161,2|0,0:0|0:0,0:0:0:0:
214,220,20548,6,0,L|228:324,1,105.000004005432,4|2,1:2|0:0,0:0:0:0:
177,342,20888,1,2,0:0:0:0:
177,342,21002,2,0,L|191:237,1,105.000004005432,10|2,0:2|0:0,0:0:0:0:
0,383,21457,6,0,P|58:342|208:345,1,210.000008010865,6|8,1:2|0:0,0:0:0:0:
217,285,22138,1,0,1:0:0:0:
224,243,22366,6,0,B|159:274|154:241|55:283,1,157.500006008148,4|0,1:0|0:0,0:0:0:0:
119,273,22820,2,0,B|89:263|84:274|34:253,1,52.5000020027161,10|0,0:0|0:0,0:0:0:0:
46,287,23048,2,0,B|31:258|20:262|0:213,1,52.5000020027161,2|0,0:0|0:0,0:0:0:0:
0,324,23275,6,0,L|197:349,1,157.500006008148,6|0,1:2|0:0,0:0:0:0:
256,270,23729,2,0,L|86:318,1,168,6|0,1:2|0:0,0:0:0:0:
0,307,24184,5,6,1:2:0:0:
114,298,24411,1,2,0:0:0:0:
230,311,24638,1,10,0:0:0:0:
116,311,24866,1,2,0:0:0:0:
13,283,25093,6,0,L|259:294,2,210.000008010865,6|10|4,1:2|0:0|1:0,0:0:0:0:
91,307,26229,1,2,3:0:0:0:
118,318,26343,1,6,3:0:0:0:
156,293,26457,1,10,0:0:0:0:
229,314,26684,1,2,0:0:0:0:
6,255,26911,6,0,L|221:233,1,210.000008010865,4|10,1:2|0:0,0:0:0:0:
239,297,27593,1,0,1:0:0:0:
0,192,27820,6,0,L|5:249,1,52.5000020027161,6|0,1:2|0:0,0:0:0:0:
72,269,28048,2,0,L|67:326,1,52.5000020027161,6|0,0:2|0:0,0:0:0:0:
128,192,28275,6,0,L|123:249,1,52.5000020027161,6|0,1:2|0:0,0:0:0:0:
162,314,28503,2,0,L|167:371,1,52.5000020027161,6|0,0:2|0:0,0:0:0:0:
218,375,28729,5,4,1:0:0:0:
229,323,28843,1,8,0:0:0:0:
238,271,28957,1,0,1:0:0:0:
247,219,29070,1,8,0:0:0:0:
256,192,29184,2,8,L|256:160,7,26.2500010013581
307,244,29638,6,0,B|411:284|530:283,1,210.000008010865,4|8,1:0|0:0,0:0:0:0:
512,282,30320,1,2,0:0:0:0:
491,220,30547,2,0,B|409:256|384:216|289:291,1,210.000008010865,6|8,1:2|0:0,0:0:0:0:
295,286,31229,1,2,0:3:0:0:
293,355,31457,6,0,P|331:377|358:382,1,52.5000020027161,4|0,1:0|0:0,0:0:0:0:
380,358,31684,2,0,P|424:351|448:336,1,52.5000020027161,2|0,0:0|0:0,0:0:0:0:
491,299,31912,2,0,P|510:258|512:231,1,52.5000020027161,10|0,1:2|0:0,0:0:0:0:
446,227,32138,1,2,0:0:0:0:
286,242,32366,5,6,1:0:0:0:
475,365,32820,1,10,0:0:0:0:
486,294,33048,1,2,0:3:0:0:
338,234,33275,6,0,L|247:247,1,52.5000020027161,4|0,1:0|0:0,0:0:0:0:
280,269,33730,2,0,L|384:283,1,105.000004005432,10|2,0:2|0:0,0:0:0:0:
455,364,34070,1,2,0:0:0:0:
455,364,34184,2,0,L|517:351,1,52.5000020027161,6|2,1:2|0:0,0:0:0:0:
500,282,34639,6,0,P|461:247|410:239,1,105.000004005432,10|2,1:2|0:0,0:0:0:0:
326,212,35093,5,6,1:0:0:0:
280,262,35320,1,2,0:0:0:0:
283,267,35434,1,2,0:0:0:0:
286,271,35548,2,0,L|297:383,1,105.000004005432,8|2,0:0|0:0,0:0:0:0:
468,367,36002,2,0,P|496:319|388:231,1,210.000008010865,4|10,1:2|0:0,0:0:0:0:
403,226,36911,6,4,P|334:241|294:342,1,157.500006008148,0|0,1:0|0:0,0:0:0:0:
285,342,37366,1,10,0:0:0:0:
395,384,37593,1,2,0:0:0:0:
492,320,37820,6,0,P|492:286|493:252,1,52.5000020027161,6|0,1:2|0:0,0:0:0:0:
453,227,38048,2,0,P|453:261|452:295,1,52.5000020027161,2|2,0:2|0:3,0:0:0:0:
355,221,38275,6,0,P|355:255|356:289,1,52.5000020027161,14|0,1:2|0:0,0:0:0:0:
290,292,38503,2,0,P|290:258|289:224,1,52.5000020027161,2|0,0:2|0:3,0:0:0:0:
287,308,38729,6,0,P|311:358|368:365,1,105.000004005432,4|2,1:0|0:0,0:0:0:0:
431,342,39070,1,2,0:3:0:0:
471,338,39184,1,10,0:0:0:0:
509,269,39411,1,2,0:0:0:0:
385,225,39638,2,0,P|318:240|293:374,1,210.000008010865,4|10,1:2|0:0,0:0:0:0:
286,363,40548,5,4,1:0:0:0:
356,349,40775,1,2,0:0:0:0:
465,319,41002,1,10,0:0:0:0:
415,243,41229,1,2,0:0:0:0:
289,225,41457,6,0,L|296:289,1,52.5000020027161,6|0,1:2|0:0,0:0:0:0:
290,290,41684,1,2,0:0:0:0:
420,358,41911,1,10,0:0:0:0:
505,251,42138,1,2,0:0:0:0:
352,192,42366,6,0,L|347:249,1,52.5000020027161,6|0,1:2|0:0,0:0:0:0:
333,255,42594,2,0,L|338:312,1,52.5000020027161,6|0,0:2|0:0,0:0:0:0:
288,192,42821,6,0,L|293:249,1,52.5000020027161,6|0,1:2|0:0,0:0:0:0:
256,256,43049,2,0,L|272:367,1,105.000004005432,6|2,0:2|0:0,0:0:0:0:
296,369,43388,1,0,1:0:0:0:
323,347,43502,2,8,L|361:338,2,26.2500010013581
418,365,43729,5,0,1:0:0:0:
433,314,43843,1,0,1:0:0:0:
404,269,43957,1,0,1:0:0:0:
292,149,44184,6,0,L|446:110,1,140,4|2,1:0|0:0,0:0:0:0:
475,140,44866,1,10,0:0:0:0:
456,53,45093,2,0,L|446:128,1,70,2|0,0:1|1:0,0:0:0:0:
414,51,45548,1,2,0:0:0:0:
426,101,45775,1,2,0:0:0:0:
289,80,46002,6,0,P|331:132|466:115,1,210,6|8,1:2|0:0,0:0:0:0:
309,99,46911,2,0,P|358:88|391:79,1,70,2|0,0:0|1:0,0:0:0:0:
287,110,47366,1,10,0:0:0:0:
340,128,47593,1,2,0:0:0:0:
476,37,47820,6,0,P|451:55|385:94,1,105,6|0,1:2|1:0,0:0:0:0:
381,104,48275,1,2,0:0:0:0:
501,52,48502,1,10,0:0:0:0:
404,27,48729,2,0,P|445:50|483:77,1,70,6|0,0:2|1:0,0:0:0:0:
368,23,49184,1,2,0:0:0:0:
506,83,49411,1,2,0:0:0:0:
329,105,49638,6,0,L|470:80,1,125.999996154785,4|0,1:2|0:0,0:0:0:0:
325,70,50093,6,0,P|386:87|449:88,1,125.999996154785,4|0,1:2|0:0,0:0:0:0:
432,30,50548,6,0,B|411:29|411:29|363:46|363:46|314:48,1,83.9999974365235,4|0,1:2|0:0,0:0:0:0:
340,61,50888,1,0,1:0:0:0:
327,47,51002,5,2,0:0:0:0:
293,0,51229,1,10,0:2:0:0:
352,79,51457,6,0,P|339:118|287:147,1,90.9999958343508,6|0,1:1|0:0,0:0:0:0:
294,124,51798,1,2,3:0:0:0:
316,138,51911,2,0,P|343:145|395:150,1,45.4999979171754,10|0,0:0|0:0,0:0:0:0:
410,129,52138,2,0,P|437:122|489:117,1,45.4999979171754,2|0,0:0|0:0,0:0:0:0:
467,34,52366,6,0,P|506:88|496:154,1,136.499993751526,6|0,1:2|0:0,0:0:0:0:
487,154,52820,2,0,P|485:100|501:22,1,90.9999958343508,10|0,0:0|0:0,0:0:0:0:
294,134,53275,6,0,B|382:122|350:85|488:41,2,181.999991668702,6|8|0,1:2|0:0|1:0,0:0:0:0:
357,62,54411,1,2,3:0:0:0:
357,62,54525,1,2,3:0:0:0:
357,62,54638,2,0,P|321:22|289:21,1,45.4999979171754,10|0,0:0|0:0,0:0:0:0:
330,0,54866,2,0,P|284:28|277:59,1,45.4999979171754,2|0,0:0|0:0,0:0:0:0:
276,73,55093,5,6,1:0:0:0:
276,73,55548,1,10,0:0:0:0:
329,86,55775,1,2,0:0:0:0:
468,129,56002,6,0,L|356:96,1,90.9999958343508,6|0,1:0|0:0,0:0:0:0:
412,87,56343,1,2,3:0:0:0:
412,87,56457,2,0,L|452:153,1,45.4999979171754,10|0,0:0|0:0,0:0:0:0:
435,125,56911,6,0,B|440:99|440:99|435:66|435:66|449:19,1,90.9999958343508,6|2,1:0|0:0,0:0:0:0:
393,37,57252,1,2,3:0:0:0:
393,37,57366,2,0,B|388:63|388:63|393:96|393:96|379:143,1,90.9999958343508,14|2,1:2|0:0,0:0:0:0:
327,145,57707,1,2,3:0:0:0:
327,145,57821,2,0,B|322:128|322:128|333:111|333:111|321:69,1,45.4999979171754,6|0,1:2|0:0,0:0:0:0:
306,16,58048,2,0,B|304:24|304:24|315:41|315:41|310:58,1,45.4999979171754,2|0,1:2|0:0,0:0:0:0:
264,98,58275,5,6,0:0:0:0:
319,120,58502,1,8,0:0:0:0:
298,160,58616,1,8,0:0:0:0:
256,192,58729,5,6,1:0:0:0:
256,192,59070,1,0,1:0:0:0:
256,192,59411,1,8,0:0:0:0:
256,0,59638,5,2,0:0:0:0:
256,352,60093,5,2,0:0:0:0:
256,288,60320,1,2,0:0:0:0:
256,96,60548,5,2,1:0:0:0:
256,96,61002,5,2,0:0:0:0:
256,128,61229,1,10,0:0:0:0:
256,256,61457,6,0,L|256:169,1,70,6|8,0:0|0:0,0:0:0:0:
256,186,62138,1,2,1:2:0:0:
0,192,62366,5,4,1:2:0:0:
64,192,62593,2,0,L|96:192,1,17.5,2|2,0:0|3:0,0:0:0:0:
96,192,62820,1,2,0:0:0:0:
192,192,63048,1,2,3:2:0:0:
320,192,63275,1,2,3:2:0:0:
512,192,63729,1,2,1:2:0:0:
512,192,63957,1,0,1:2:0:0:
64,192,64184,6,0,L|7:196,1,41.9999987182618,6|0,1:0|0:0,0:0:0:0:
201,194,64411,2,0,L|160:192,1,41.9999987182618,6|0,1:0|0:0,0:0:0:0:
352,192,64638,6,0,L|295:196,1,41.9999987182618,6|0,1:0|0:0,0:0:0:0:
512,192,64865,2,0,L|470:189,1,41.9999987182618,6|0,1:0|0:0,0:0:0:0:
256,128,65093,6,0,L|256:44,1,83.9999974365235,6|0,1:0|0:0,0:0:0:0:
256,44,65434,1,8,0:0:0:0:
256,128,65548,1,2,1:0:0:0:
257,148,65661,1,0,1:0:0:0:
258,169,65775,1,2,1:0:0:0:
259,190,65888,1,0,1:0:0:0:
258,210,66002,6,4,B|155:238|214:251|73:313,1,178.500003404617,4|0,1:0|0:0,0:0:0:0:
16,248,66457,1,8,1:2:0:0:
16,248,66684,2,0,L|75:258,1,59.5000011348725,2|0,0:0|0:0,0:0:0:0:
226,319,66911,6,0,P|196:310|172:290,1,59.5000011348725,6|0,1:2|0:0,0:0:0:0:
81,331,67138,2,0,P|51:340|27:359,1,59.5000011348725,2|0,0:0|0:0,0:0:0:0:
227,353,67366,2,0,P|273:338|346:327,1,97.9999970092774,10|2,1:2|0:0,0:0:0:0:
473,364,67820,6,0,P|462:300|455:271,1,52.5000020027161,6|0,1:2|0:0,0:0:0:0:
488,243,68048,1,2,0:0:0:0:
484,228,68161,1,2,0:0:0:0:
466,223,68275,1,10,0:0:0:0:
352,192,68502,1,2,0:0:0:0:
279,364,68729,6,0,P|353:364|416:266,1,157.500006008148,6|2,1:0|0:0,0:0:0:0:
420,307,69184,1,10,0:0:0:0:
459,242,69411,1,2,0:0:0:0:
296,11,69638,6,0,L|308:171,1,157.500006008148,6|0,1:2|0:0,0:0:0:0:
339,48,70093,2,0,L|333:131,1,52.5000020027161,10|0,0:0|0:0,0:0:0:0:
319,142,70320,1,2,0:0:0:0:
351,0,70548,2,0,L|359:112,1,105.000004005432,2|0,1:2|0:0,0:0:0:0:
405,180,71002,2,0,L|411:90,1,52.5000020027161,8|0,0:2|0:0,0:0:0:0:
414,121,71229,1,2,0:3:0:0:
195,147,71457,6,0,L|34:127,1,157.500006008148,4|0,1:0|0:0,0:0:0:0:
0,2,71911,1,2,1:2:0:0:
84,63,72138,1,2,0:2:0:0:
18,81,72366,1,2,1:2:0:0:
44,37,72593,1,2,3:2:0:0:
44,37,72707,1,2,3:2:0:0:
44,37,72820,1,2,1:2:0:0:
48,62,73048,1,2,1:2:0:0:
0,233,73275,6,4,B|102:251|44:274|189:289,1,168,4|0,1:0|0:0,0:0:0:0:
222,244,73730,1,8,1:2:0:0:
78,288,73957,2,0,L|19:298,1,56,2|0,0:0|0:0,0:0:0:0:
224,372,74184,6,0,P|169:356|141:283,1,112,6|0,1:2|0:0,0:0:0:0:
0,377,74638,5,10,0:0:0:0:
210,299,74866,1,2,0:0:0:0:
11,151,75093,6,0,P|22:87|29:58,1,56,6|0,1:2|0:0,0:0:0:0:
0,8,75321,1,2,0:0:0:0:
67,41,75548,1,10,0:0:0:0:
14,58,75775,1,2,0:0:0:0:
14,153,76002,6,0,P|30:57|41:13,1,112,6|0,1:2|0:0,0:0:0:0:
150,13,76457,1,10,0:0:0:0:
111,78,76684,1,2,0:0:0:0:
293,28,76911,6,0,L|481:46,1,168,6|0,1:2|0:0,0:0:0:0:
395,60,77366,2,0,L|312:66,1,56,10|0,0:0|0:0,0:0:0:0:
304,91,77593,1,2,0:0:0:0:
429,134,77821,6,0,L|308:125,1,112,2|0,1:2|0:0,0:0:0:0:
439,136,78275,2,0,L|535:141,1,56,8|0,0:2|0:0,0:0:0:0:
434,144,78502,1,0,1:3:0:0:
491,241,78730,6,0,L|353:261,1,97.9999970092774,4|2,1:0|0:0,0:0:0:0:
347,242,79070,1,0,1:2:0:0:
299,254,79184,1,2,1:2:0:0:
268,325,79411,1,2,1:2:0:0:
375,372,79638,5,2,1:2:0:0:
439,333,79866,1,0,3:0:0:0:
453,330,79979,1,0,3:0:0:0:
488,317,80093,5,2,1:2:0:0:
432,247,80321,1,0,3:0:0:0:
415,243,80434,1,0,3:0:0:0:
365,233,80548,5,2,1:0:0:0:
275,331,80775,1,2,3:0:0:0:
297,336,80888,1,2,3:0:0:0:
349,347,81002,1,2,1:0:0:0:
502,250,81229,6,0,L|494:208,3,24.4999992523194,2|0|2|0,1:1|0:0|1:1|0:0,0:0:0:0:
256,192,81457,12,4,82366,1:0:0:0:
211,75,82593,6,0,L|146:87,1,48.9999985046387,2|0,0:1|0:0,0:0:0:0:
100,53,82820,1,0,1:0:0:0:
100,53,82934,1,2,3:0:0:0:
161,79,83048,2,0,L|226:91,1,48.9999985046387,2|0,0:0|0:0,0:0:0:0:
217,73,83275,6,0,L|71:99,1,146.999995513916,2|0,1:1|0:0,0:0:0:0:
29,160,83729,1,10,0:0:0:0:
92,4,83957,2,0,L|104:84,1,48.9999985046387,2|0,0:1|0:0,0:0:0:0:
256,192,84184,12,0,84866,0:0:0:0:
208,247,85093,6,0,L|49:269,1,146.999995513916,6|0,1:0|0:0,0:0:0:0:
0,230,85548,1,14,1:2:0:0:
68,248,85775,1,2,0:0:0:0:
235,293,86002,6,2,L|76:271,1,157.500006008148,6|0,1:0|0:0,0:1:0:0:
0,341,86457,6,2,L|79:330,1,52.5000020027161,14|0,1:2|0:0,0:1:0:0:
256,384,86684,1,2,0:1:0:0:
11,298,86911,6,0,P|107:282|182:257,1,157.500006008148,6|0,1:0|0:0,0:0:0:0:
230,221,87366,2,0,P|134:237|59:262,1,157.500006008148,6|0,1:0|0:0,0:0:0:0:
0,208,87820,5,6,1:0:0:0:
256,192,87934,12,0,88616,0:0:0:0:
298,233,88729,6,0,L|303:288,1,41.9999987182618,6|0,1:0|0:0,0:0:0:0:
352,355,89070,1,2,3:0:0:0:
352,355,89184,2,0,L|497:340,1,125.999996154785,10|0,0:0|0:0,0:0:0:0:
499,321,89638,2,0,L|504:266,1,41.9999987182618,2|0,1:0|0:0,0:0:0:0:
502,279,90093,5,10,0:0:0:0:
447,232,90320,1,2,0:0:0:0:
423,223,90434,1,2,0:0:0:0:
397,223,90548,2,0,P|344:234|288:311,1,125.999996154785,2|0,1:0|0:0,0:0:0:0:
284,356,91002,6,0,L|336:348,1,41.9999987182618,10|0,0:0|0:0,0:0:0:0:
483,367,91229,1,2,0:0:0:0:
256,192,91457,12,2,92138,0:0:0:0:
490,37,92366,6,0,P|436:43|409:79,1,83.9999974365235,4|0,1:0|0:0,0:0:0:0:
512,52,92707,1,2,0:0:0:0:
512,52,92820,2,0,L|494:1,1,41.9999987182618,10|0,0:0|0:0,0:0:0:0:
489,101,93048,1,2,0:0:0:0:
458,145,93275,5,0,1:0:0:0:
458,145,93388,2,0,L|351:131,1,83.9999974365235,2|0,0:1|0:0,0:0:0:0:
300,150,93729,6,0,L|358:146,2,41.9999987182618,10|0|0,0:0|0:0|0:0,0:0:0:0:
366,108,94070,1,2,0:0:0:0:
324,34,94184,6,0,L|320:93,1,48.9999985046387,4|0,1:0|0:0,0:0:0:0:
367,0,94411,2,0,L|377:80,1,48.9999985046387,4|0,1:0|0:0,0:0:0:0:
425,142,94638,6,0,L|421:83,1,48.9999985046387,4|0,1:0|0:0,0:0:0:0:
480,160,94865,2,0,L|490:80,1,48.9999985046387,4|0,1:0|0:0,0:0:0:0:
442,89,95093,5,8,1:2:0:0:
442,89,95207,1,8,1:2:0:0:
442,89,95320,1,8,1:2:0:0:
442,89,95434,1,8,1:2:0:0:
275,156,95548,6,2,L|413:106,1,146.999995513916,6|2,1:0|3:0,0:1:0:0:
199,153,96002,6,0,B|95:113|131:168|-24:114,1,210.000008010865,4|8,1:0|0:0,0:1:0:0:
0,45,96684,1,2,0:0:0:0:
205,152,96911,6,2,B|101:112|137:167|-18:113,1,210.000008010865,6|8,1:0|0:0,0:1:0:0:
31,57,97593,1,2,0:3:0:0:
186,74,97820,6,0,P|208:36|213:9,1,52.5000020027161,4|0,1:0|0:0,0:0:0:0:
136,1,98047,2,0,P|129:45|114:69,1,52.5000020027161,2|0,0:0|0:0,0:0:0:0:
188,76,98274,6,0,P|210:38|215:11,1,52.5000020027161,10|0,0:0|0:0,0:0:0:0:
134,0,98501,2,0,P|127:44|112:68,1,52.5000020027161,2|0,0:0|0:0,0:0:0:0:
5,67,98729,6,0,P|70:79|116:113,1,105.000004005432,6|2,1:2|0:0,0:0:0:0:
3,65,99183,2,0,P|68:77|114:111,1,105.000004005432,10|2,0:2|0:0,0:0:0:0:
215,159,99638,5,4,1:0:0:0:
147,122,100093,1,10,0:0:0:0:
211,110,100321,1,2,0:3:0:0:
184,147,100547,5,6,1:2:0:0:
36,151,100888,1,2,0:0:0:0:
36,151,101002,6,0,L|127:164,1,52.5000020027161,10|0,0:0|0:0,0:0:0:0:
34,149,101229,2,0,L|125:162,1,52.5000020027161,2|0,0:0|0:0,0:0:0:0:
216,107,101457,6,0,L|202:3,1,105.000004005432,4|2,1:2|0:0,0:0:0:0:
132,32,101797,1,2,0:0:0:0:
132,32,101911,1,8,0:0:0:0:
193,0,102138,1,2,0:0:0:0:
218,109,102365,2,0,L|204:5,1,105.000004005432,6|2,1:2|0:0,0:0:0:0:
126,40,102707,1,2,0:0:0:0:
126,40,102820,1,8,0:0:0:0:
172,45,103047,1,0,1:0:0:0:
223,109,103275,6,0,B|158:140|153:107|54:149,1,157.500006008148,4|0,1:0|0:0,0:0:0:0:
70,115,103729,2,0,B|40:125|35:114|-15:135,1,52.5000020027161,10|0,0:0|0:0,0:0:0:0:
73,109,103956,2,0,B|43:119|38:108|-12:129,1,52.5000020027161,2|0,0:0|0:0,0:0:0:0:
227,114,104183,6,0,B|162:145|157:112|58:154,1,157.500006008148,6|0,1:2|0:0,0:0:0:0:
6,12,104638,2,0,L|176:60,1,168,6|0,1:2|0:0,0:0:0:0:
243,26,105093,5,6,1:2:0:0:
191,75,105320,1,2,0:0:0:0:
200,29,105547,1,10,0:0:0:0:
222,66,105775,1,2,0:0:0:0:
4,10,106002,6,0,L|215:71,2,210.000008010865,6|12|4,1:0|0:0|1:0,0:0:0:0:
78,82,107138,1,2,3:0:0:0:
114,58,107252,1,6,3:0:0:0:
106,26,107366,1,10,0:0:0:0:
31,47,107593,1,2,0:0:0:0:
128,148,107820,5,6,1:2:0:0:
221,90,108047,1,0,1:0:0:0:
157,88,108274,1,10,0:0:0:0:
211,138,108502,1,0,1:0:0:0:
0,192,108729,6,0,L|5:135,1,52.5000020027161,6|0,1:2|0:0,0:0:0:0:
86,70,108957,2,0,L|81:13,1,52.5000020027161,6|0,0:2|0:0,0:0:0:0:
2,191,109184,6,0,L|7:134,1,52.5000020027161,6|0,1:2|0:0,0:0:0:0:
88,72,109412,2,0,L|83:15,1,52.5000020027161,6|0,0:2|0:0,0:0:0:0:
191,114,109638,1,10,0:0:0:0:
211,138,109751,1,8,0:0:0:0:
221,108,109865,1,8,1:2:0:0:
203,133,109979,1,8,1:2:0:0:
256,192,110093,2,8,L|256:224,7,26.2500010013581
307,140,110547,6,0,B|411:100|530:101,1,210.000008010865,4|8,1:0|0:0,0:0:0:0:
379,146,111229,1,2,0:0:0:0:
512,110,111456,2,0,P|417:95|339:-13,1,210.000008010865,6|8,1:2|0:0,0:0:0:0:
405,59,112138,1,2,0:3:0:0:
317,78,112366,6,0,P|355:56|382:51,1,52.5000020027161,4|0,1:0|0:0,0:0:0:0:
267,23,112593,2,0,P|311:30|335:45,1,52.5000020027161,2|0,0:0|0:0,0:0:0:0:
360,0,112821,2,0,P|344:42|326:62,1,52.5000020027161,10|0,1:2|0:0,0:0:0:0:
300,72,113047,1,2,0:0:0:0:
511,56,113274,6,0,L|279:97,1,210.000008010865,6|10,1:2|0:0,1:0:0:0:
304,92,113957,1,2,0:3:0:0:
304,92,114184,6,0,L|355:99,1,52.5000020027161,4|0,1:0|0:0,0:0:0:0:
355,99,114639,2,0,L|459:85,1,105.000004005432,10|2,0:2|0:0,0:0:0:0:
459,84,115093,6,0,B|409:88|409:88|376:25,1,105.000004005432,6|2,1:2|0:0,0:0:0:0:
292,148,115548,2,0,P|331:113|382:105,1,105.000004005432,10|2,1:2|0:0,0:0:0:0:
293,156,116002,5,6,1:0:0:0:
278,102,116229,1,2,0:0:0:0:
305,151,116456,1,10,0:0:0:0:
306,116,116683,1,2,0:0:0:0:
512,129,116911,2,0,L|301:79,1,210.000008010865,4|10,1:2|0:0,0:0:0:0:
307,80,117820,6,4,B|376:93|364:107|480:137,1,157.500006008148,0|0,1:0|0:0,0:0:0:0:
500,99,118275,1,10,0:0:0:0:
500,99,118502,1,2,0:0:0:0:
462,16,118729,6,0,P|462:50|463:84,1,52.5000020027161,6|0,1:2|0:0,0:0:0:0:
453,157,118957,2,0,P|453:123|452:89,1,52.5000020027161,2|2,0:2|0:3,0:0:0:0:
409,15,119184,6,0,P|409:49|410:83,1,52.5000020027161,14|0,1:2|0:0,0:0:0:0:
367,157,119412,2,0,P|367:123|366:89,1,52.5000020027161,2|0,0:2|0:3,0:0:0:0:
278,7,119638,6,0,P|320:34|327:91,1,105.000004005432,4|2,1:0|0:0,0:0:0:0:
289,96,119979,1,2,0:3:0:0:
276,139,120092,1,10,0:0:0:0:
285,90,120320,1,2,0:0:0:0:
483,140,120547,6,0,P|451:79|315:89,2,210.000008010865,4|10|4,1:2|0:0|1:0,0:0:0:0:
374,28,121683,2,0,L|435:16,1,52.5000020027161,2|0,0:0|0:0,0:0:0:0:
455,64,121911,1,10,0:0:0:0:
413,104,122138,1,2,0:0:0:0:
309,125,122366,6,0,L|361:130,1,52.5000020027161,6|0,1:2|0:0,0:0:0:0:
393,141,122593,1,2,0:0:0:0:
452,153,122820,1,10,0:0:0:0:
507,167,123047,1,2,0:0:0:0:
508,70,123275,6,0,L|513:127,1,52.5000020027161,6|0,1:2|0:0,0:0:0:0:
465,52,123503,2,0,L|470:-5,1,52.5000020027161,6|0,0:2|0:0,0:0:0:0:
411,78,123730,6,0,L|416:135,1,52.5000020027161,6|0,1:2|0:0,0:0:0:0:
355,51,123956,2,0,L|369:-48,1,52.5000020027161,6|2,0:2|0:0,0:0:0:0:
343,56,124183,1,2,0:0:0:0:
312,65,124297,1,0,1:0:0:0:
286,46,124411,2,8,L|295:8,2,26.2500010013581
312,65,124638,5,0,1:0:0:0:
327,116,124752,1,0,1:0:0:0:
298,161,124866,1,0,1:0:0:0:
507,264,125092,6,0,P|472:235|353:225,1,140,4|2,1:0|0:0,0:0:0:0:
282,301,125774,1,10,0:0:0:0:
331,360,126001,2,0,P|363:358|406:341,1,70,2|0,0:1|1:0,0:0:0:0:
500,334,126456,1,2,0:0:0:0:
507,264,126683,1,2,0:0:0:0:
381,217,126910,6,0,P|296:266|311:370,1,210,6|8,1:2|0:0,0:0:0:0:
375,370,127819,2,0,P|386:321|395:288,1,70,2|0,0:0|1:0,0:0:0:0:
510,299,128274,1,10,0:0:0:0:
510,299,128501,1,2,0:0:0:0:
409,223,128728,6,0,P|384:241|318:280,1,105,6|0,1:2|1:0,0:0:0:0:
291,251,129183,1,2,0:0:0:0:
313,350,129410,1,10,0:0:0:0:
501,362,129637,2,0,P|478:321|451:283,1,70,6|0,0:2|1:0,0:0:0:0:
505,237,130092,1,2,0:0:0:0:
434,226,130319,1,2,0:0:0:0:
320,231,130546,6,0,L|295:372,1,125.999996154785,4|0,1:2|0:0,0:0:0:0:
285,356,131001,6,0,L|409:374,1,125.999996154785,4|0,1:2|0:0,0:0:0:0:
477,349,131456,6,0,L|505:224,1,125.999996154785,4|0,1:2|1:0,0:0:0:0:
479,222,131910,1,10,0:0:0:0:
453,225,132024,1,10,0:0:0:0:
430,236,132138,1,10,0:2:0:0:
410,255,132252,1,10,0:2:0:0:
368,231,132365,6,0,P|355:270|303:299,1,90.9999958343508,6|0,1:1|0:0,0:0:0:0:
279,363,132706,1,2,3:0:0:0:
301,349,132819,2,0,P|328:342|380:337,1,45.4999979171754,10|0,0:0|0:0,0:0:0:0:
409,362,133046,2,0,P|436:369|488:374,1,45.4999979171754,2|0,0:0|0:0,0:0:0:0:
512,317,133274,6,0,P|458:278|392:288,1,136.499993751526,6|0,1:2|0:0,0:0:0:0:
346,234,133728,2,0,P|302:254|279:325,1,90.9999958343508,10|0,0:0|0:0,0:0:0:0:
347,384,134183,6,0,B|435:372|403:335|519:269,3,181.999991668702,6|10|0|2,1:2|1:0|1:0|1:0,0:0:0:0:
494,284,135774,2,0,P|448:256|441:225,1,45.4999979171754,2|0,0:0|0:0,0:0:0:0:
396,223,136001,5,6,1:0:0:0:
283,252,136456,1,10,0:0:0:0:
296,321,136683,1,2,0:0:0:0:
422,366,136910,6,0,L|534:333,1,90.9999958343508,6|0,1:0|0:0,0:0:0:0:
466,282,137251,1,2,3:0:0:0:
466,282,137365,2,0,L|506:216,1,45.4999979171754,10|0,0:0|0:0,0:0:0:0:
385,212,137819,6,0,B|359:217|359:217|326:212|326:212|279:226,1,90.9999958343508,6|2,1:0|0:0,0:0:0:0:
278,291,138160,1,2,3:0:0:0:
278,291,138274,2,0,B|304:296|304:296|337:291|337:291|384:305,1,90.9999958343508,14|2,1:2|0:0,0:0:0:0:
297,369,138615,1,2,3:0:0:0:
297,369,138729,2,0,B|314:374|314:374|331:363|331:363|373:375,1,45.4999979171754,6|0,1:2|0:0,0:0:0:0:
409,356,138956,2,0,B|417:354|417:354|434:365|434:365|451:360,1,45.4999979171754,2|0,1:2|0:0,0:0:0:0:
502,315,139183,5,6,0:0:0:0:
334,231,139410,1,8,0:0:0:0:
293,213,139524,1,8,0:0:0:0:
256,192,139638,5,6,1:0:0:0:
256,192,139979,1,0,1:0:0:0:
256,192,140320,1,8,0:0:0:0:
256,384,140547,5,2,1:2:0:0:
256,32,141002,5,2,0:0:0:0:
256,96,141229,1,2,0:0:0:0:
256,288,141457,5,2,1:0:0:0:
256,288,141911,5,2,1:2:0:0:
256,256,142138,1,10,0:0:0:0:
256,128,142366,6,0,L|256:215,1,70,6|8,0:0|0:0,0:0:0:0:
256,198,143047,1,2,1:2:0:0:
512,192,143275,5,4,1:2:0:0:
448,192,143502,2,0,L|416:192,1,17.5,2|2,1:2|3:0,0:0:0:0:
416,192,143729,1,2,0:0:0:0:
320,192,143957,1,10,0:2:0:0:
192,192,144184,1,2,3:2:0:0:
0,192,144638,1,2,1:2:0:0:
0,192,144866,1,0,1:2:0:0:
448,192,145093,6,0,L|505:188,1,41.9999987182618,6|0,1:0|0:0,0:0:0:0:
311,190,145320,2,0,L|352:192,1,41.9999987182618,6|0,1:0|0:0,0:0:0:0:
160,192,145547,6,0,L|217:188,1,41.9999987182618,6|0,1:0|0:0,0:0:0:0:
0,192,145774,2,0,L|42:195,1,41.9999987182618,6|0,1:0|0:0,0:0:0:0:
256,288,146002,6,0,L|256:372,1,83.9999974365235,6|0,1:0|0:0,0:0:0:0:
256,372,146343,1,8,0:0:0:0:
256,288,146457,1,2,1:0:0:0:
255,268,146570,1,0,1:0:0:0:
254,247,146684,1,2,1:0:0:0:
253,226,146797,1,0,1:0:0:0:
253,226,147252,5,0,3:0:0:0:
256,192,147365,1,2,3:0:0:0:
256,0,147592,5,2,3:0:0:0:
256,0,147820,6,4,P|294:57|495:72,1,238.00000453949,4|8,1:0|0:0,0:0:0:0:
335,44,148502,2,0,L|283:83,1,59.5000011348725,2|0,0:0|0:0,0:0:0:0:
357,29,148729,6,0,P|387:20|411:0,1,59.5000011348725,6|0,1:2|0:0,0:0:0:0:
360,64,148956,2,0,P|390:73|414:92,1,59.5000011348725,2|0,0:0|0:0,0:0:0:0:
510,73,149184,2,0,P|464:58|391:47,1,97.9999970092774,10|2,1:2|0:0,0:0:0:0:
179,34,149638,6,0,L|197:127,1,52.5000020027161,6|0,1:2|0:0,0:0:0:0:
24,141,149866,1,2,0:0:0:0:
55,153,149979,1,2,0:0:0:0:
87,128,150093,1,10,0:0:0:0:
22,99,150320,1,2,0:0:0:0:
184,31,150547,6,0,L|202:124,1,52.5000020027161,6|0,1:0|0:0,0:0:0:0:
252,156,150774,1,2,3:0:0:0:
271,102,151002,1,10,0:0:0:0:
284,137,151229,1,2,0:0:0:0:
98,15,151456,6,0,L|86:175,1,157.500006008148,6|0,1:2|0:0,0:0:0:0:
200,234,151911,2,0,L|117:240,1,52.5000020027161,10|0,0:0|0:0,0:0:0:0:
27,261,152138,1,2,0:0:0:0:
98,15,152366,2,0,L|90:127,1,105.000004005432,2|0,1:2|0:0,0:0:0:0:
23,306,152820,2,0,L|17:396,1,52.5000020027161,8|0,0:2|0:0,0:0:0:0:
49,380,153047,1,2,0:3:0:0:
232,295,153275,6,0,L|67:260,1,157.500006008148,4|0,1:0|0:0,0:0:0:0:
0,234,153729,1,2,1:2:0:0:
105,265,153956,1,2,0:2:0:0:
198,294,154184,1,2,1:2:0:0:
37,360,154411,1,2,3:2:0:0:
37,360,154525,1,2,3:2:0:0:
37,360,154638,1,2,1:2:0:0:
135,350,154866,1,2,1:2:0:0:
298,233,155093,6,4,P|331:345|377:363,1,168,4|0,1:0|0:0,0:0:0:0:
505,296,155548,1,8,1:2:0:0:
401,240,155775,2,0,L|456:249,1,56,2|0,0:0|0:0,0:0:0:0:
336,220,156002,6,0,P|289:253|288:332,1,112,6|0,1:2|0:0,0:0:0:0:
279,304,156456,5,10,0:0:0:0:
329,354,156684,1,2,0:0:0:0:
486,348,156911,6,0,P|475:284|468:255,1,56,6|0,1:2|0:0,0:0:0:0:
497,205,157139,1,2,0:0:0:0:
360,202,157366,1,10,0:0:0:0:
297,229,157593,1,2,0:0:0:0:
436,149,157820,6,0,P|452:53|463:9,1,112,6|0,1:2|0:0,0:0:0:0:
500,22,158160,1,2,3:0:0:0:
500,22,158274,2,0,P|475:71|467:90,1,56,10|0,0:0|0:0,0:0:0:0:
500,106,158502,1,2,0:0:0:0:
417,0,158729,6,0,L|472:178,1,168,6|0,1:2|0:0,0:0:0:0:
403,111,159184,2,0,L|320:105,1,56,10|0,0:0|0:0,0:0:0:0:
303,67,159411,1,2,0:0:0:0:
303,67,159639,6,0,L|424:58,1,112,2|0,1:2|0:0,0:0:0:0:
278,79,160093,2,0,L|182:84,1,56,8|0,0:2|0:0,0:0:0:0:
294,89,160320,1,0,1:3:0:0:
256,0,160547,6,0,L|150:5,1,97.9999970092774,4|0,1:0|0:0,0:0:0:0:
92,35,160888,1,0,1:2:0:0:
122,85,161002,1,2,1:2:0:0:
75,66,161229,1,2,1:2:0:0:
256,0,161456,6,0,L|150:5,2,97.9999970092774,4|0|6,1:0|0:0|0:0,0:0:0:0:
256,0,163274,1,2,0:0:0:0:
256,0,163729,1,2,0:0:0:0:
256,0,164183,5,2,0:0:0:0:
256,0,165092,1,2,0:0:0:0:
256,0,165547,1,0,0:0:0:0:
256,0,166001,5,2,0:0:0:0:
256,0,166910,1,2,0:0:0:0:
256,0,167820,5,2,0:0:0:0:
256,0,168729,1,2,0:0:0:0:
256,192,168842,12,0,169524,0:0:0:0:
0,192,169638,5,4,1:2:0:0:
0,192,169979,1,0,1:2:0:0:
59,152,170092,1,2,0:0:0:0:
160,192,170547,1,10,0:0:0:0:
160,192,170774,1,0,1:2:0:0:
256,128,171001,1,6,0:0:0:0:
352,192,171456,1,2,1:0:0:0:
352,192,171797,1,0,1:2:0:0:
411,152,171910,1,2,0:0:0:0:
512,192,172365,1,2,0:0:0:0:
512,192,172820,5,10,0:0:0:0:
512,192,173047,1,2,0:0:0:0:
416,192,173274,5,2,1:0:0:0:
416,192,173615,1,0,1:2:0:0:
357,151,173728,1,2,0:0:0:0:
256,192,174183,1,2,0:0:0:0:
256,192,174410,1,0,1:2:0:0:
160,160,174638,1,10,0:0:0:0:
0,192,175092,5,6,1:2:0:0:
512,192,175547,1,2,1:2:0:0:
96,192,176001,5,2,1:2:0:0:
320,192,176229,1,0,1:0:0:0:
320,192,176342,1,0,1:0:0:0:
320,192,176456,1,2,1:2:0:0:
256,192,176683,1,0,1:0:0:0:
256,192,176797,1,0,1:0:0:0:
256,192,176910,5,6,1:2:0:0:
256,64,177251,1,0,1:2:0:0:
288,0,177365,1,2,0:0:0:0:
256,192,177820,1,2,1:2:0:0:
256,192,178160,1,0,1:2:0:0:
224,256,178274,1,10,0:0:0:0:
224,256,178501,1,2,0:0:0:0:
256,384,178729,5,4,1:2:0:0:
256,384,179070,1,0,1:2:0:0:
288,320,179184,1,2,0:0:0:0:
288,320,179410,1,0,1:2:0:0:
256,192,179639,1,2,1:2:0:0:
256,0,180093,1,10,0:0:0:0:
256,0,180320,1,0,1:0:0:0:
256,64,180547,5,6,1:2:0:0:
256,320,181001,5,6,0:2:0:0:
256,0,181456,5,4,1:2:0:0:
256,384,181910,5,4,0:2:0:0:
256,192,182365,12,2,183729,1:2:0:0:
0,192,184183,6,0,L|76:192,1,52.5000020027161,4|0,1:2|3:2,1:2:0:0:
128,192,184524,1,0,1:0:0:0:
0,192,184865,2,0,L|76:192,1,52.5000020027161,2|4,3:2|1:2,1:2:0:0:
320,192,185433,1,0,1:0:0:0:
384,192,185547,2,0,L|480:192,1,78.7500030040742,4|0,1:2|0:2,1:2:0:0:
512,192,186001,6,0,L|435:192,1,52.5000020027161,4|0,1:2|3:2,1:2:0:0:
384,192,186342,1,0,1:0:0:0:
512,192,186683,1,2,1:2:0:0:
320,192,186910,1,4,0:0:0:0:
96,192,187365,2,0,L|17:192,1,78.7500030040742,4|0,1:2|0:2,1:2:0:0:
17,192,187820,5,6,0:0:0:0:
192,192,188047,1,0,1:0:0:0:
192,192,188160,1,2,3:0:0:0:
264,192,188501,1,0,1:0:0:0:
264,192,188729,2,0,L|368:192,1,78.7500030040742,2|0,0:0|1:0,0:0:0:0:
416,192,189183,1,0,1:0:0:0:
416,192,189410,1,0,1:0:0:0:
64,192,189638,6,0,L|7:196,1,52.5000020027161,6|0,1:0|0:0,0:0:0:0:
160,192,189865,2,0,L|119:190,1,26.2500010013581,6|0,1:0|0:0,0:0:0:0:
448,192,190092,6,0,L|505:196,1,52.5000020027161,6|0,1:0|0:0,0:0:0:0:
311,194,190320,2,0,L|352:192,1,26.2500010013581,6|0,1:0|0:0,0:0:0:0:
255,127,190547,6,0,B|254:99|254:99|255:32|255:32|258:99|258:99|255:351|255:351|254:406,1,420.000016021729,6|0,1:0|0:0,0:0:0:0:
255,357,191683,5,2,0:0:0:0:
256,288,191910,5,2,0:0:0:0:
256,288,191986,5,2,0:0:0:0:
256,288,192062,5,2,0:0:0:0:
256,288,192138,5,2,0:0:0:0:
256,192,192365,5,2,0:0:0:0:
257,123,192592,5,2,0:0:0:0:
256,32,192706,5,2,1:0:0:0:
256,0,192820,1,2,1:0:0:0:
256,0,193047,1,2,1:0:0:0:
255,357,193501,5,2,0:0:0:0:
256,288,193728,5,2,0:0:0:0:
256,288,193804,5,2,0:0:0:0:
256,288,193880,5,2,0:0:0:0:
256,288,193956,5,2,0:0:0:0:
256,192,194183,5,2,0:0:0:0:
280,172,194297,1,2,3:0:0:0:
261,146,194410,1,2,3:0:0:0:
256,64,194524,5,2,0:0:0:0:
256,32,194638,1,2,1:0:0:0:
256,320,194865,5,8,0:0:0:0:
256,352,194979,1,8,0:0:0:0:
332,339,195092,6,2,P|372:363|508:323,1,178.500003404617,4|0,1:0|0:0,0:1:0:0:
499,258,195547,1,8,0:2:0:0:
295,172,195774,2,0,P|245:191|222:214,1,59.5000011348725,2|0,0:0|0:0,0:0:0:0:
190,252,196001,5,6,1:2:0:0:
32,231,196229,1,2,0:0:0:0:
255,298,196456,1,0,1:2:0:0:
0,337,196684,1,2,0:0:0:0:
257,376,196910,6,0,L|245:292,1,59.5000011348725,4|0,1:0|0:0,0:1:0:0:
212,138,197138,1,2,0:0:0:0:
123,377,197365,6,0,L|111:293,1,59.5000011348725,14|0,0:0|0:0,0:1:0:0:
162,93,197593,1,2,0:0:0:0:
0,384,197820,6,0,L|19:249,1,119.000002269745,6|0,1:2|0:0,0:1:0:0:
205,98,198274,1,8,0:0:0:0:
205,98,198388,1,0,3:0:0:0:
184,121,198501,1,2,0:0:0:0:
0,41,198729,6,0,P|88:40|163:85,1,178.500003404617,4|0,1:0|0:0,0:0:0:0:
266,49,199183,2,0,P|297:47|320:28,1,59.5000011348725,10|0,0:0|0:0,0:0:0:0:
377,84,199410,2,0,P|353:67|324:66,1,59.5000011348725,2|0,0:0|0:0,0:0:0:0:
0,40,199638,6,0,P|88:39|163:84,1,178.500003404617,4|0,1:2|0:0,0:0:0:0:
287,95,200092,6,0,P|341:104|410:110,1,119.000002269745,10|0,0:0|0:0,0:0:0:0:
421,120,200433,1,0,3:0:0:0:
448,37,200547,6,0,P|425:60|414:104,1,59.5000011348725,6|0,1:2|0:0,0:0:0:0:
434,127,200774,1,2,0:2:0:0:
348,74,201001,6,0,P|371:97|415:108,1,59.5000011348725,6|0,1:2|0:0,0:0:0:0:
416,129,201228,1,2,0:2:0:0:
330,155,201456,6,0,P|361:148|395:118,1,59.5000011348725,6|0,1:2|0:0,0:0:0:0:
401,123,201683,1,2,0:2:0:0:
397,82,201797,1,2,0:0:0:0:
373,9,201910,6,0,L|358:138,1,119.000002269745,0|0,1:0|1:0,0:0:0:0:
512,233,202365,6,4,B|410:251|468:274|312:296,1,178.500003404617,4|0,1:0|0:0,0:0:0:0:
275,217,202820,1,8,1:2:0:0:
300,372,203047,2,0,L|310:313,1,59.5000011348725,2|0,0:0|0:0,0:0:0:0:
412,375,203274,6,0,P|467:359|507:223,1,178.500003404617,6|0,1:2|0:0,0:0:0:0:
457,222,203728,5,10,0:0:0:0:
208,302,203956,1,2,0:0:0:0:
379,371,204183,6,0,P|443:382|472:389,1,59.5000011348725,6|0,1:2|0:0,0:0:0:0:
479,256,204411,1,2,0:0:0:0:
255,224,204638,6,0,L|190:235,1,59.5000011348725,10|0,0:0|0:0,0:0:0:0:
30,275,204865,1,2,0:0:0:0:
379,371,205092,6,0,P|436:359|477:323,1,59.5000011348725,6|0,1:2|0:0,0:0:0:0:
508,241,205433,1,0,3:0:0:0:
508,241,205547,1,10,0:0:0:0:
440,199,205774,1,2,0:0:0:0:
207,153,206001,6,0,P|187:106|190:-31,1,178.500003404617,4|0,1:0|0:0,0:0:0:0:
229,31,206456,2,0,P|197:52|153:65,1,59.5000011348725,10|0,0:0|0:0,0:0:0:0:
117,29,206683,1,2,0:0:0:0:
207,153,206910,6,0,P|187:106|190:-31,1,178.500003404617,4|0,1:0|0:0,0:0:0:0:
231,33,207365,2,0,P|199:54|155:67,1,59.5000011348725,10|0,0:0|0:0,0:0:0:0:
131,72,207592,1,0,1:0:0:0:
6,242,207820,5,4,1:0:0:0:
165,277,208047,1,2,0:0:0:0:
196,261,208160,1,2,1:2:0:0:
279,245,208274,5,2,0:0:0:0:
289,303,208388,1,2,0:0:0:0:
342,328,208501,1,2,1:2:0:0:
503,350,208729,5,2,1:2:0:0:
424,260,208956,1,2,0:0:0:0:
387,281,209070,1,2,0:2:0:0:
359,312,209183,1,10,0:0:0:0:
225,340,209410,1,10,0:0:0:0:
215,346,209524,1,8,0:0:0:0:
180,339,209638,6,2,L|-27:314,1,178.500003404617,4|0,1:0|0:0,0:1:0:0:
0,254,210093,1,8,0:2:0:0:
223,268,210320,2,0,P|173:249|150:226,1,59.5000011348725,2|0,0:0|0:0,0:0:0:0:
2,186,210547,5,6,1:2:0:0:
230,262,210775,1,2,0:0:0:0:
21,311,211002,1,0,1:2:0:0:
174,334,211230,1,2,0:0:0:0:
23,73,211456,6,0,L|35:157,1,59.5000011348725,4|0,1:0|0:0,0:1:0:0:
25,305,211684,1,2,0:0:0:0:
23,73,211911,6,0,L|35:157,1,59.5000011348725,14|0,0:0|0:0,0:1:0:0:
195,233,212139,1,2,0:0:0:0:
26,34,212366,6,0,L|7:169,1,119.000002269745,6|0,1:2|0:0,0:1:0:0:
28,329,212820,1,8,0:0:0:0:
63,350,212934,1,0,3:0:0:0:
104,349,213047,1,2,0:0:0:0:
290,138,213275,6,0,P|378:137|461:95,1,178.500003404617,4|0,1:0|0:0,0:0:0:0:
367,95,213729,2,0,P|336:93|313:74,1,59.5000011348725,10|0,0:0|0:0,0:0:0:0:
297,58,213956,2,0,P|298:28|315:5,1,59.5000011348725,2|0,0:0|0:0,0:0:0:0:
264,80,214184,6,0,P|255:169|308:243,1,178.500003404617,4|0,1:2|0:0,0:0:0:0:
301,370,214638,2,0,P|333:355|347:313,1,59.5000011348725,10|0,0:0|0:0,0:0:0:0:
512,285,214979,1,0,3:0:0:0:
512,285,215093,6,0,P|489:308|478:352,1,59.5000011348725,6|0,1:2|0:0,0:0:0:0:
484,219,215320,1,2,0:2:0:0:
355,201,215547,6,0,P|378:224|422:235,1,59.5000011348725,6|0,1:2|0:0,0:0:0:0:
326,215,215774,1,2,0:2:0:0:
295,370,216002,6,0,P|326:363|360:333,1,59.5000011348725,6|0,1:2|0:0,0:0:0:0:
368,328,216229,1,10,0:2:0:0:
397,327,216343,1,10,0:0:0:0:
394,323,216456,6,0,P|442:327|461:248,1,119.000002269745,0|0,1:0|1:0,0:0:0:0:
216,159,216911,6,4,P|129:137|26:42,1,178.500003404617,4|0,1:0|0:0,0:0:0:0:
87,0,217366,1,8,1:2:0:0:
113,103,217593,2,0,L|103:44,1,59.5000011348725,2|0,0:0|0:0,0:0:0:0:
216,159,217820,6,4,P|129:137|26:42,1,178.500003404617,4|0,1:2|0:0,0:0:0:0:
2,153,218274,5,10,0:0:0:0:
61,118,218502,1,2,0:0:0:0:
217,268,218729,6,0,P|186:262|156:258,1,59.5000011348725,6|0,1:2|0:0,0:0:0:0:
31,286,218957,1,2,0:0:0:0:
281,220,219184,6,0,L|292:285,1,59.5000011348725,10|0,0:0|0:0,0:0:0:0:
355,378,219411,1,2,0:0:0:0:
0,302,219638,6,0,P|57:314|98:350,1,59.5000011348725,6|0,1:2|0:0,0:0:0:0:
183,356,219979,1,0,3:0:0:0:
183,356,220093,1,10,0:0:0:0:
256,296,220320,1,0,1:0:0:0:
458,374,220547,6,0,P|478:327|475:190,1,178.500003404617,4|0,1:0|0:0,0:0:0:0:
393,128,221002,2,0,P|425:149|469:162,1,59.5000011348725,10|0,0:0|0:0,0:0:0:0:
490,116,221229,1,2,0:0:0:0:
329,89,221456,6,0,P|417:96|501:68,1,178.500003404617,4|0,1:0|0:0,0:0:0:0:
484,22,221911,2,0,P|452:43|408:56,1,59.5000011348725,10|0,0:0|0:0,0:0:0:0:
209,20,222365,6,0,L|73:33,1,119.000002269745,4|2,1:0|0:0,0:0:0:0:
15,77,222706,1,2,1:2:0:0:
77,125,222820,5,2,0:2:0:0:
77,125,222895,5,2,0:2:0:0:
77,125,222971,5,2,0:0:0:0:
77,125,223047,5,2,1:2:0:0:
208,20,223274,6,0,L|113:29,1,59.5000011348725,4|2,1:2|0:0,0:0:0:0:
65,83,223501,1,2,3:2:0:0:
172,96,223729,1,8,0:0:0:0:
211,108,223842,1,8,0:0:0:0:
234,142,223956,1,8,0:0:0:0:
252,179,224070,1,8,0:0:0:0:
256,256,224183,5,4,1:0:0:0:
256,256,224865,1,4,1:0:0:0:
256,64,225092,1,4,1:0:0:0:
256,64,225490,5,0,0:0:0:0:
256,352,225944,5,0,0:0:0:0:
