osu file format v14

[General]
AudioFilename: audio.mp3
AudioLeadIn: 0
PreviewTime: -1
Countdown: 1
SampleSet: None
StackLeniency: 0.7
Mode: 0
LetterboxInBreaks: 0
WidescreenStoryboard: 0

[Editor]
DistanceSpacing: 1
BeatDivisor: 4
GridSize: 4
TimelineZoom: 1

[Metadata]
Title:undertale
TitleUnicode:undertale
Artist:stroge tha you sans and chara
ArtistUnicode:stroge tha you sans and chara
Creator:Juabob121
Version:Normal
Source:soul
Tags:team
BeatmapID:962785
BeatmapSetID:448614

[Difficulty]
HPDrainRate:5
CircleSize:5
OverallDifficulty:5
ApproachRate:5
SliderMultiplier:1.4
SliderTickRate:1

[Events]
//Background and Video events
0,0,"chara_vs_sans_by_cutiepachimelody-d9jyf73.png",0,0
//Break Periods
2,66322,81047
//Storyboard Layer 0 (Background)
//Storyboard Layer 1 (Fail)
//Storyboard Layer 2 (Pass)
//Storyboard Layer 3 (Foreground)
//Storyboard Sound Samples

[TimingPoints]
-3,500,4,1,0,100,1,0

[HitObjects]
120,124,747,5,0,0:0:0:0:
440,128,1872,1,0,0:0:0:0:
232,172,4122,1,0,0:0:0:0:
232,172,5122,1,0,0:0:0:0:
232,172,5622,1,0,0:0:0:0:
232,128,6747,1,0,0:0:0:0:
232,128,7372,1,0,0:0:0:0:
232,128,7622,1,0,0:0:0:0:
192,152,10122,1,0,0:0:0:0:
264,104,11372,1,0,0:0:0:0:
264,188,12622,1,0,0:0:0:0:
196,128,13872,1,0,0:0:0:0:
192,196,15247,1,0,0:0:0:0:
296,136,17122,1,0,0:0:0:0:
296,136,17247,1,0,0:0:0:0:
192,136,18872,1,0,0:0:0:0:
188,196,20122,1,0,0:0:0:0:
248,152,21497,1,0,0:0:0:0:
248,152,21747,1,0,0:0:0:0:
200,156,22872,1,0,0:0:0:0:
208,120,23997,1,0,0:0:0:0:
408,348,25122,1,0,0:0:0:0:
272,208,25872,1,0,0:0:0:0:
256,192,26997,12,0,28622,0:0:0:0:
216,176,29622,5,0,0:0:0:0:
408,80,30372,1,0,0:0:0:0:
244,164,30997,1,0,0:0:0:0:
192,120,32122,1,0,0:0:0:0:
88,224,32622,1,0,0:0:0:0:
340,132,33622,1,0,0:0:0:0:
128,204,34372,1,0,0:0:0:0:
200,16,35122,1,0,0:0:0:0:
184,208,35872,1,0,0:0:0:0:
216,176,37247,1,0,0:0:0:0:
216,176,37497,1,0,0:0:0:0:
216,176,37872,1,0,0:0:0:0:
384,152,38497,1,0,0:0:0:0:
208,184,39122,1,0,0:0:0:0:
220,160,40372,1,0,0:0:0:0:
184,160,41372,1,0,0:0:0:0:
368,248,42122,1,0,0:0:0:0:
236,184,42622,1,0,0:0:0:0:
52,260,43372,1,0,0:0:0:0:
216,200,43997,1,0,0:0:0:0:
216,200,44747,1,0,0:0:0:0:
172,160,45997,1,0,0:0:0:0:
332,184,46622,1,0,0:0:0:0:
176,180,47247,1,0,0:0:0:0:
256,192,48747,12,0,51497,0:0:0:0:
136,180,52122,5,0,0:0:0:0:
136,180,52497,1,0,0:0:0:0:
136,180,52747,1,0,0:0:0:0:
136,180,53122,1,0,0:0:0:0:
136,180,53622,1,0,0:0:0:0:
136,180,54622,1,0,0:0:0:0:
136,180,54997,1,0,0:0:0:0:
136,180,55372,1,0,0:0:0:0:
372,188,56247,1,0,0:0:0:0:
296,188,56497,1,0,0:0:0:0:
308,172,58997,1,0,0:0:0:0:
308,172,59372,1,0,0:0:0:0:
308,172,59497,1,0,0:0:0:0:
308,172,59747,1,0,0:0:0:0:
308,172,59997,1,0,0:0:0:0:
200,184,61872,1,0,0:0:0:0:
200,184,62122,1,0,0:0:0:0:
200,184,62372,1,0,0:0:0:0:
200,184,62622,1,0,0:0:0:0:
288,28,63247,1,0,0:0:0:0:
208,168,63872,1,0,0:0:0:0:
224,136,64622,1,0,0:0:0:0:
224,136,65122,1,0,0:0:0:0:
224,136,65247,1,0,0:0:0:0:
224,136,65622,1,0,0:0:0:0:
224,136,66122,1,0,0:0:0:0:
256,192,82247,12,14,85372,0:0:0:0:
192,180,88247,5,0,0:0:0:0:
192,180,88497,1,0,0:0:0:0:
192,180,88872,1,0,0:0:0:0:
192,180,89122,1,0,0:0:0:0:
316,188,90622,1,0,0:0:0:0:
316,188,90997,1,0,0:0:0:0:
316,188,91247,1,0,0:0:0:0:
316,188,91497,1,0,0:0:0:0:
316,188,91747,1,0,0:0:0:0:
296,116,92872,1,0,0:0:0:0:
296,116,93122,1,0,0:0:0:0:
296,116,93497,1,0,0:0:0:0:
140,180,94122,1,0,0:0:0:0:
288,128,94747,1,0,0:0:0:0:
136,188,95372,1,0,0:0:0:0:
108,92,96372,1,0,0:0:0:0:
180,216,97997,1,0,0:0:0:0:
176,164,99247,1,0,0:0:0:0:
420,352,100372,1,0,0:0:0:0:
268,224,101122,1,0,0:0:0:0:
220,148,102372,1,0,0:0:0:0:
220,148,102872,1,0,0:0:0:0:
220,148,103247,1,0,0:0:0:0:
220,148,103497,1,0,0:0:0:0:
100,360,104372,1,0,0:0:0:0:
196,192,105122,1,0,0:0:0:0:
372,96,105872,1,0,0:0:0:0:
176,96,107622,1,0,0:0:0:0:
176,96,108247,1,0,0:0:0:0:
176,96,108872,1,0,0:0:0:0:
436,216,109872,1,0,0:0:0:0:
320,140,111747,1,8,0:0:0:0:
128,136,112497,1,8,0:0:0:0:
252,136,112997,1,8,0:0:0:0:
252,136,113372,1,8,0:0:0:0:
252,136,113997,1,8,0:0:0:0:
288,136,116122,1,10,0:0:0:0:
288,136,116747,1,10,0:0:0:0:
108,152,117372,1,10,0:0:0:0:
268,136,117997,1,10,0:0:0:0:
216,120,119497,1,10,0:0:0:0:
216,120,119997,1,10,0:0:0:0:
216,120,120247,1,10,0:0:0:0:
216,120,120497,1,10,0:0:0:0:
216,120,120872,1,10,0:0:0:0:
220,180,122247,1,10,0:0:0:0:
220,180,122622,1,10,0:0:0:0:
220,180,122872,1,10,0:0:0:0:
300,88,123372,1,10,0:0:0:0:
264,128,123622,1,10,0:0:0:0:
232,164,123747,1,10,0:0:0:0:
264,128,124622,1,10,0:0:0:0:
264,128,124872,1,10,0:0:0:0:
264,128,125122,1,10,0:0:0:0:
264,128,125372,1,10,0:0:0:0:
256,192,126622,12,10,128497,0:0:0:0:
248,164,129372,5,0,0:0:0:0:
248,164,129622,1,0,0:0:0:0:
248,164,129997,1,0,0:0:0:0:
248,164,130747,1,0,0:0:0:0:
248,164,131122,1,0,0:0:0:0:
248,164,131372,1,0,0:0:0:0:
248,164,131622,1,0,0:0:0:0:
248,164,131872,1,0,0:0:0:0:
248,164,132997,1,0,0:0:0:0:
248,164,133247,1,0,0:0:0:0:
248,164,133497,1,0,0:0:0:0:
248,164,133747,1,0,0:0:0:0:
248,164,134372,1,0,0:0:0:0:
248,164,134622,1,0,0:0:0:0:
248,164,134872,1,0,0:0:0:0:
248,164,135122,1,0,0:0:0:0:
248,164,135997,1,0,0:0:0:0:
248,164,136247,1,0,0:0:0:0:
248,164,136622,1,0,0:0:0:0:
248,164,136872,1,0,0:0:0:0:
248,164,137122,1,0,0:0:0:0:
248,164,137997,1,0,0:0:0:0:
212,136,139247,1,0,0:0:0:0:
324,136,140622,1,0,0:0:0:0:
228,156,141872,1,0,0:0:0:0:
244,180,143247,1,0,0:0:0:0:
244,180,143872,1,0,0:0:0:0:
244,180,144122,1,0,0:0:0:0:
232,128,145622,1,0,0:0:0:0:
492,192,146622,1,0,0:0:0:0:
232,136,147622,1,0,0:0:0:0:
232,136,148122,1,0,0:0:0:0:
232,136,148372,1,0,0:0:0:0:
232,136,148622,1,0,0:0:0:0:
232,136,149372,1,0,0:0:0:0:
272,152,150747,1,0,0:0:0:0:
208,148,152372,1,0,0:0:0:0:
360,152,152872,1,0,0:0:0:0:
132,152,153747,1,0,0:0:0:0:
296,152,154372,1,0,0:0:0:0:
236,152,155872,1,0,0:0:0:0:
236,152,156122,1,0,0:0:0:0:
236,152,156372,1,0,0:0:0:0:
280,136,157997,1,0,0:0:0:0:
280,136,158247,1,0,0:0:0:0:
280,136,158622,1,0,0:0:0:0:
280,136,158872,1,0,0:0:0:0:
256,192,160372,12,0,164372,0:0:0:0:
