osu file format v14

[General]
AudioFilename: audio.mp3
AudioLeadIn: 0
PreviewTime: 113134
Countdown: 0
SampleSet: Soft
StackLeniency: 0.2
Mode: 0
LetterboxInBreaks: 0
WidescreenStoryboard: 0

[Editor]
Bookmarks: 135868,219139
DistanceSpacing: 1
BeatDivisor: 4
GridSize: 16
TimelineZoom: 0.4999998

[Metadata]
Title:fade to black
TitleUnicode:░░▒▒▓▓██████
Artist:str grl
ArtistUnicode:str grl †
Creator:rock time
Version:completely gone
Source:
Tags:
BeatmapID:1718492
BeatmapSetID:819628

[Difficulty]
HPDrainRate:6
CircleSize:2.2
OverallDifficulty:9
ApproachRate:10
SliderMultiplier:1.79999990463257
SliderTickRate:1

[Events]
//Background and Video events
0,0,"1507501727674.png",0,0
//Break Periods
//Storyboard Layer 0 (Background)
//Storyboard Layer 1 (Fail)
//Storyboard Layer 2 (Pass)
//Storyboard Layer 3 (Foreground)
//Storyboard Sound Samples

[TimingPoints]
244,409.276944065484,4,2,0,45,1,0
26438,409.556313993174,4,2,0,45,1,0
26438,-1000,4,2,0,45,0,0
32888,-1000,4,3,0,5,0,0
32990,-1000,4,2,0,45,0,0
39441,-1000,4,3,0,5,0,0
39543,-1000,4,2,0,45,0,0
45994,-1000,4,3,0,5,0,0
46096,-1000,4,2,0,45,0,0
50704,420.462508759636,4,2,0,45,1,0
54083,409.556313993174,4,2,0,45,1,0
54083,-500,4,2,0,45,0,0
55209,-500,4,3,0,5,0,0
55311,-500,4,2,0,45,0,0
60635,-333.333333333333,4,2,0,45,0,0
73639,-333.333333333333,4,3,0,5,0,0
73741,-333.333333333333,4,2,0,45,0,0
79116,409.556313993174,4,2,0,45,1,0
79116,-333.333333333333,4,2,0,45,0,0
80242,-333.333333333333,4,3,0,5,0,0
80344,-333.333333333333,4,2,0,45,0,0
80651,-333.333333333333,4,3,0,5,0,0
80753,-333.333333333333,4,2,0,45,0,0
81061,-333.333333333333,4,3,0,5,0,0
81163,-333.333333333333,4,2,0,45,0,0
81880,-333.333333333333,4,3,0,5,0,0
81982,-333.333333333333,4,2,0,45,0,0
85054,-333.333333333333,4,3,0,5,0,0
85209,375,4,2,0,45,1,0
85209,-333.333333333333,4,2,0,45,0,0
85490,-333.333333333333,4,3,0,5,0,0
85584,-333.333333333333,4,2,0,45,0,0
85865,-333.333333333333,4,3,0,5,0,0
85959,-333.333333333333,4,2,0,45,0,0
86615,-333.333333333333,4,3,0,5,0,0
86709,-333.333333333333,4,2,0,45,0,0
87365,-333.333333333333,4,3,0,5,0,0
87459,-333.333333333333,4,2,0,45,0,0
87740,-333.333333333333,4,3,0,5,0,0
87834,-333.333333333333,4,2,0,45,0,0
88115,-333.333333333333,4,3,0,5,0,0
88209,-333.333333333333,4,2,0,45,0,0
88959,-666.666666666667,4,2,0,45,0,0
92052,375,4,2,0,45,1,0
92052,-1000,4,2,0,45,0,0
93458,-1000,4,3,0,5,0,0
93552,375,4,2,0,45,1,0
93552,-66.6666666666667,4,2,0,45,0,0
93833,-66.6666666666667,4,3,0,5,0,0
93927,-66.6666666666667,4,2,0,45,0,0
94208,-66.6666666666667,4,3,0,5,0,0
94302,-66.6666666666667,4,2,0,45,0,0
94583,-66.6666666666667,4,3,0,5,0,0
94677,-66.6666666666667,4,2,0,45,0,0
94958,-66.6666666666667,4,3,0,5,0,0
95052,-1000,4,2,0,45,0,0
95802,-50,4,2,0,45,0,0
96552,365.853658536585,4,2,0,45,1,0
98020,382.165605095541,4,2,0,45,1,0
98020,-33.3333333333333,4,2,0,45,0,1
98306,-33.3333333333333,4,3,0,5,0,1
98402,-333.333333333333,4,2,0,45,0,1
98688,-33.3333333333333,4,3,0,5,0,1
98784,-33.3333333333333,4,2,0,45,0,1
99070,-33.3333333333333,4,3,0,5,0,1
99166,-333.333333333333,4,2,0,45,0,1
99453,-33.3333333333333,4,3,0,5,0,1
99548,-33.3333333333333,4,2,0,45,0,1
100217,-33.3333333333333,4,3,0,5,0,1
100312,-33.3333333333333,4,2,0,45,0,1
100981,-33.3333333333333,4,3,0,5,0,1
101077,-333.333333333333,4,2,0,45,0,1
102128,-333.333333333333,4,3,0,5,0,1
102223,-33.3333333333333,4,2,0,45,0,1
102892,-33.3333333333333,4,3,0,5,0,1
102988,-33.3333333333333,4,2,0,45,0,1
103274,-33.3333333333333,4,3,0,5,0,1
103370,-33.3333333333333,4,2,0,45,0,1
103656,-33.3333333333333,4,3,0,5,0,1
103752,-33.3333333333333,4,2,0,45,0,1
104039,-33.3333333333333,4,3,0,5,0,1
104134,375,4,2,0,45,1,1
104134,-333.333333333333,4,2,0,45,0,1
104415,-333.333333333333,4,3,0,5,0,1
104509,-33.3333333333333,4,2,0,45,0,1
104790,-33.3333333333333,4,3,0,5,0,1
104886,-33.3333333333333,4,2,0,45,0,1
105165,-33.3333333333333,4,3,0,5,0,1
105261,-33.3333333333333,4,2,0,45,0,1
105540,-33.3333333333333,4,3,0,5,0,1
105634,-333.333333333333,4,2,0,45,0,1
106290,-333.333333333333,4,3,0,5,0,1
106384,-33.3333333333333,4,2,0,45,0,1
106665,-33.3333333333333,4,3,0,5,0,1
106759,-33.3333333333333,4,2,0,45,0,1
107040,-33.3333333333333,4,3,0,5,0,1
107134,-333.333333333333,4,2,0,45,0,1
107790,-333.333333333333,4,3,0,5,0,1
107884,-33.3333333333333,4,2,0,45,0,1
108165,-33.3333333333333,4,3,0,5,0,1
108259,-33.3333333333333,4,2,0,45,0,1
108540,-33.3333333333333,4,3,0,5,0,1
108634,-333.333333333333,4,2,0,45,0,1
108915,-333.333333333333,4,3,0,5,0,1
109009,-33.3333333333333,4,2,0,45,0,1
109290,-33.3333333333333,4,3,0,5,0,1
109384,-33.3333333333333,4,2,0,45,0,1
109665,-33.3333333333333,4,3,0,5,0,1
109759,-33.3333333333333,4,2,0,45,0,1
110040,-33.3333333333333,4,3,0,5,0,1
110134,-333.333333333333,4,2,0,45,0,1
110415,-333.333333333333,4,3,0,5,0,1
110509,-33.3333333333333,4,2,0,45,0,1
110790,-33.3333333333333,4,3,0,5,0,1
110884,-33.3333333333333,4,2,0,45,0,1
111540,-33.3333333333333,4,3,0,5,0,1
111634,-33.3333333333333,4,2,0,45,0,1
111915,-33.3333333333333,4,3,0,5,0,1
112009,-33.3333333333333,4,2,0,45,0,1
112290,-33.3333333333333,4,3,0,5,0,1
112384,-33.3333333333333,4,2,0,45,0,1
112665,-33.3333333333333,4,3,0,5,0,1
112759,-33.3333333333333,4,2,0,45,0,1
113040,-33.3333333333333,4,3,0,5,0,1
113134,383.386581469649,4,2,0,45,1,0
116201,-333.333333333333,4,2,0,45,0,0
116488,-333.333333333333,4,3,0,5,0,0
116584,-33.3333333333333,4,2,0,45,0,0
116872,-33.3333333333333,4,3,0,5,0,0
116966,-33.3333333333333,4,2,0,45,0,1
117638,-33.3333333333333,4,3,0,5,0,1
117734,-33.3333333333333,4,2,0,45,0,1
118022,-33.3333333333333,4,3,0,5,0,1
118118,-33.3333333333333,4,2,0,45,0,1
118405,-33.3333333333333,4,3,0,5,0,1
118501,-33.3333333333333,4,2,0,45,0,1
118788,-33.3333333333333,4,3,0,5,0,1
118884,-33.3333333333333,4,2,0,45,0,1
119172,-33.3333333333333,4,3,0,5,0,1
119268,375,4,2,0,45,1,0
120018,-333.333333333333,4,2,0,45,0,0
120299,-333.333333333333,4,3,0,5,0,0
120393,-33.3333333333333,4,2,0,45,0,1
120674,-33.3333333333333,4,3,0,5,0,1
120770,-33.3333333333333,4,2,0,45,0,1
121049,-33.3333333333333,4,3,0,5,0,1
121143,-33.3333333333333,4,2,0,45,0,1
121424,-33.3333333333333,4,3,0,5,0,1
121518,-333.333333333333,4,2,0,45,0,1
121799,-333.333333333333,4,3,0,5,0,1
121893,-33.3333333333333,4,2,0,45,0,1
122174,-33.3333333333333,4,3,0,5,0,1
122268,-33.3333333333333,4,2,0,45,0,1
122549,-33.3333333333333,4,3,0,5,0,1
122643,-33.3333333333333,4,2,0,45,0,1
122924,-33.3333333333333,4,3,0,5,0,1
123018,-333.333333333333,4,2,0,45,0,1
123674,-333.333333333333,4,3,0,5,0,1
123768,-333.333333333333,4,2,0,45,0,1
124424,-333.333333333333,4,3,0,5,0,1
124518,-33.3333333333333,4,2,0,45,0,1
124799,-33.3333333333333,4,3,0,5,0,1
124893,-33.3333333333333,4,2,0,45,0,1
125174,-33.3333333333333,4,3,0,5,0,1
125268,-333.333333333333,4,2,0,45,0,1
125924,-333.333333333333,4,3,0,5,0,1
126018,-333.333333333333,4,2,0,45,0,1
126299,-333.333333333333,4,3,0,5,0,1
126393,-33.3333333333333,4,2,0,45,0,1
127049,-33.3333333333333,4,3,0,5,0,1
127143,-33.3333333333333,4,2,0,45,0,1
127424,-33.3333333333333,4,3,0,5,0,1
127518,-33.3333333333333,4,2,0,45,0,1
127799,-33.3333333333333,4,3,0,5,0,1
127893,-33.3333333333333,4,2,0,45,0,1
128174,-33.3333333333333,4,3,0,5,0,1
128268,-333.333333333333,4,2,0,45,0,1
128549,-333.333333333333,4,3,0,5,0,1
128643,-33.3333333333333,4,2,0,45,0,1
128924,-33.3333333333333,4,3,0,5,0,1
129018,-33.3333333333333,4,2,0,45,0,1
129299,-33.3333333333333,4,3,0,5,0,1
129393,-33.3333333333333,4,2,0,45,0,1
129674,-33.3333333333333,4,3,0,5,0,1
129768,-33.3333333333333,4,2,0,45,0,1
130049,-33.3333333333333,4,3,0,5,0,1
130143,-33.3333333333333,4,2,0,45,0,1
130424,-33.3333333333333,4,3,0,5,0,1
130518,-33.3333333333333,4,2,0,45,0,1
131174,-33.3333333333333,4,3,0,5,0,1
131268,383.386581469649,4,2,0,45,1,1
131268,-333.333333333333,4,2,0,45,0,1
131938,-333.333333333333,4,3,0,5,0,1
132034,-33.3333333333333,4,2,0,45,0,1
132322,-33.3333333333333,4,3,0,5,0,1
132416,-33.3333333333333,4,2,0,45,0,1
133089,-33.3333333333333,4,3,0,5,0,1
133183,-33.3333333333333,4,2,0,45,0,1
133472,-33.3333333333333,4,3,0,5,0,1
133568,-33.3333333333333,4,2,0,45,0,1
133855,-33.3333333333333,4,3,0,5,0,1
133951,-33.3333333333333,4,2,0,45,0,1
134239,-33.3333333333333,4,3,0,5,0,1
134335,-333.333333333333,4,2,0,45,0,0
135006,-333.333333333333,4,3,0,5,0,0
135101,-333.333333333333,4,2,0,45,0,0
135389,-333.333333333333,4,3,0,5,0,0
135485,-333.333333333333,4,2,0,45,0,0
135772,-333.333333333333,4,3,0,5,0,0
135868,377.358490566038,4,2,0,45,1,0
135868,-333.333333333333,4,2,0,45,0,0
135868,-333.333333333333,4,2,0,45,0,0
136151,-333.333333333333,4,3,0,5,0,0
136245,-25,4,2,0,45,0,1
136528,-25,4,3,0,5,0,1
136622,-25,4,2,0,45,0,1
136905,-25,4,3,0,5,0,1
136999,-25,4,2,0,45,0,1
137283,-25,4,3,0,5,0,1
137377,-1000,4,2,0,45,0,1
137660,-1000,4,3,0,5,0,1
137754,-25,4,2,0,45,0,1
138037,-25,4,3,0,5,0,1
138131,-25,4,2,0,45,0,1
138415,-25,4,3,0,5,0,1
138509,-25,4,2,0,45,0,1
138792,-25,4,3,0,5,0,1
138886,-1000,4,2,0,45,0,1
139169,-1000,4,3,0,5,0,1
139263,-25,4,2,0,45,0,1
139547,-25,4,3,0,5,0,1
139641,-25,4,2,0,45,0,1
139925,-25,4,3,0,5,0,1
140019,-25,4,2,0,45,0,1
140302,-25,4,3,0,5,0,1
140396,-1000,4,2,0,45,0,1
140679,-1000,4,3,0,5,0,1
140773,-25,4,2,0,45,0,1
141056,-25,4,3,0,5,0,1
141150,-25,4,2,0,45,0,1
141434,-25,4,3,0,5,0,1
141528,-25,4,2,0,45,0,1
141811,-25,4,3,0,5,0,1
141905,-25,4,2,0,45,0,1
142188,-25,4,3,0,5,0,1
142283,-25,4,2,0,45,0,1
142566,-25,4,3,0,5,0,1
142660,-25,4,2,0,45,0,1
142944,-25,4,3,0,5,0,1
143038,-25,4,2,0,45,0,1
143321,-25,4,3,0,5,0,1
143415,-1000,4,2,0,45,0,1
143698,-1000,4,3,0,5,0,1
143792,-25,4,2,0,45,0,1
144075,-25,4,3,0,5,0,1
144169,-25,4,2,0,45,0,1
144453,-25,4,3,0,5,0,1
144547,-25,4,2,0,45,0,1
144830,-25,4,3,0,5,0,1
144924,-1000,4,2,0,45,0,1
145207,-1000,4,3,0,5,0,1
145301,-25,4,2,0,45,0,1
145584,-25,4,3,0,5,0,1
145678,-25,4,2,0,45,0,1
145962,-25,4,3,0,5,0,1
146056,-25,4,2,0,45,0,1
146339,-25,4,3,0,5,0,1
146434,-1000,4,2,0,45,0,1
146716,-1000,4,3,0,5,0,1
146811,-25,4,2,0,45,0,1
147094,-25,4,3,0,5,0,1
147188,-25,4,2,0,45,0,1
147472,-25,4,3,0,5,0,1
147566,-25,4,2,0,45,0,1
147849,-25,4,3,0,5,0,1
147943,-25,4,2,0,45,0,1
148226,-25,4,3,0,5,0,1
148320,-25,4,2,0,45,0,1
148603,-25,4,3,0,5,0,1
148697,-25,4,2,0,45,0,1
148981,-25,4,3,0,5,0,1
149075,-25,4,2,0,45,0,1
149358,-25,4,3,0,5,0,1
149452,-1000,4,2,0,45,0,1
149735,-1000,4,3,0,5,0,1
149829,-25,4,2,0,45,0,1
150113,-25,4,3,0,5,0,1
150207,-25,4,2,0,45,0,1
150491,-25,4,3,0,5,0,1
150585,-25,4,2,0,45,0,1
150868,-25,4,3,0,5,0,1
150962,-1000,4,2,0,45,0,1
151245,-1000,4,3,0,5,0,1
151339,-25,4,2,0,45,0,1
151622,-25,4,3,0,5,0,1
151716,-25,4,2,0,45,0,1
152000,-25,4,3,0,5,0,1
152094,-25,4,2,0,45,0,1
152377,-25,4,3,0,5,0,1
152471,-1000,4,2,0,45,0,1
152943,-1000,4,3,0,5,0,1
153084,521.739130434783,4,2,0,45,1,0
153084,-25,4,2,0,45,0,0
153475,-25,4,3,0,5,0,0
153605,-25,4,2,0,45,0,0
153866,-25,4,3,0,5,0,0
153981,377.358490566038,4,2,0,45,1,0
153981,-25,4,2,0,45,0,1
154641,-25,4,3,0,5,0,1
154735,-25,4,2,0,45,0,1
155019,-25,4,3,0,5,0,1
155113,-25,4,2,0,45,0,1
155396,-25,4,3,0,5,0,1
155490,-1000,4,2,0,45,0,1
155773,-1000,4,3,0,5,0,1
155867,-25,4,2,0,45,0,1
156150,-25,4,3,0,5,0,1
156244,-25,4,2,0,45,0,1
156528,-25,4,3,0,5,0,1
156622,-25,4,2,0,45,0,1
156905,-25,4,3,0,5,0,1
156999,-1000,4,2,0,45,0,1
157282,-1000,4,3,0,5,0,1
157376,-25,4,2,0,45,0,1
157660,-25,4,3,0,5,0,1
157754,-25,4,2,0,45,0,1
158038,-25,4,3,0,5,0,1
158132,-25,4,2,0,45,0,1
158415,-25,4,3,0,5,0,1
158509,-1000,4,2,0,45,0,1
158792,-1000,4,3,0,5,0,1
158886,-25,4,2,0,45,0,1
159169,-25,4,3,0,5,0,1
159264,-1000,4,2,0,45,0,1
159547,-1000,4,3,0,5,0,1
159641,-25,4,2,0,45,0,1
159924,-25,4,3,0,5,0,1
160018,-25,4,2,0,45,0,1
160301,-25,4,3,0,5,0,1
160396,-25,4,2,0,45,0,1
160679,-25,4,3,0,5,0,1
160773,-25,4,2,0,45,0,1
161057,-25,4,3,0,5,0,1
161151,-25,4,2,0,45,0,1
161434,-25,4,3,0,5,0,1
161528,-1000,4,2,0,45,0,1
161811,-1000,4,3,0,5,0,1
161905,-25,4,2,0,45,0,1
162188,-25,4,3,0,5,0,1
162282,-25,4,2,0,45,0,1
162566,-25,4,3,0,5,0,1
162660,-25,4,2,0,45,0,1
162943,-25,4,3,0,5,0,1
163037,-1000,4,2,0,45,0,1
163320,-1000,4,3,0,5,0,1
163414,-25,4,2,0,45,0,1
163697,-25,4,3,0,5,0,1
163791,-25,4,2,0,45,0,1
164075,-25,4,3,0,5,0,1
164169,-25,4,2,0,45,0,1
164452,-25,4,3,0,5,0,1
164547,-1000,4,2,0,45,0,1
164829,-1000,4,3,0,5,0,1
164924,-25,4,2,0,45,0,1
165207,-25,4,3,0,5,0,1
165301,-25,4,2,0,45,0,1
165584,-25,4,3,0,5,0,1
165679,-25,4,2,0,45,0,1
165962,-25,4,3,0,5,0,1
166056,-25,4,2,0,45,0,1
166339,-25,4,3,0,5,0,1
166433,-25,4,2,0,45,0,1
166716,-25,4,3,0,5,0,1
166810,-25,4,2,0,45,0,1
167094,-25,4,3,0,5,0,1
167188,-25,4,2,0,45,0,1
167471,-25,4,3,0,5,0,1
167565,-1000,4,2,0,45,0,1
167848,-1000,4,3,0,5,0,1
167942,-25,4,2,0,45,0,1
168226,-25,4,3,0,5,0,1
168320,-25,4,2,0,45,0,1
168604,-25,4,3,0,5,0,1
168698,-25,4,2,0,45,0,1
168981,-25,4,3,0,5,0,1
169075,-1000,4,2,0,45,0,1
169358,-1000,4,3,0,5,0,1
169452,-25,4,2,0,45,0,1
169735,-25,4,3,0,5,0,1
169829,-25,4,2,0,45,0,1
170113,-25,4,3,0,5,0,1
170207,-25,4,2,0,45,0,1
170490,-25,4,3,0,5,0,1
170584,-1000,4,2,0,45,0,1
170867,-1000,4,3,0,5,0,1
170961,-25,4,2,0,45,0,1
171245,-25,4,3,0,5,0,1
171339,-25,4,2,0,45,0,1
171622,-25,4,3,0,5,0,1
171716,-25,4,2,0,45,0,1
171999,-25,4,3,0,5,0,1
172094,-25,4,2,0,45,0,1
172377,-25,4,3,0,5,0,1
172471,-25,4,2,0,45,0,1
172754,-25,4,3,0,5,0,1
172848,-25,4,2,0,45,0,1
173132,-25,4,3,0,5,0,1
173226,-25,4,2,0,45,0,1
173509,-25,4,3,0,5,0,1
173603,-1000,4,2,0,45,0,1
173886,-1000,4,3,0,5,0,1
173980,-25,4,2,0,45,0,1
174264,-25,4,3,0,5,0,1
174358,-25,4,2,0,45,0,1
174642,-25,4,3,0,5,0,1
174736,-25,4,2,0,45,0,1
175019,-25,4,3,0,5,0,1
175113,-1000,4,2,0,45,0,1
175396,-1000,4,3,0,5,0,1
175490,-25,4,2,0,45,0,1
175773,-25,4,3,0,5,0,1
175867,-25,4,2,0,45,0,1
176151,-25,4,3,0,5,0,1
176245,-25,4,2,0,45,0,1
176528,-25,4,3,0,5,0,1
176622,-1000,4,2,0,45,0,1
177094,-1000,4,3,0,5,0,1
177235,521.739130434783,4,2,0,45,1,0
177235,-25,4,2,0,45,0,0
177626,-25,4,3,0,5,0,0
177756,-25,4,2,0,45,0,0
178017,-25,4,3,0,5,0,0
178148,377.358490566038,4,2,0,45,1,0
178148,-25,4,2,0,45,0,1
178431,-25,4,3,0,5,0,1
178525,-25,4,2,0,45,0,1
178808,-25,4,3,0,5,0,1
178902,-25,4,2,0,45,0,1
179186,-25,4,3,0,5,0,1
179280,-25,4,2,0,45,0,1
179563,-25,4,3,0,5,0,1
179657,-1000,4,2,0,45,0,1
179940,-1000,4,3,0,5,0,1
180034,-25,4,2,0,45,0,1
180317,-25,4,3,0,5,0,1
180411,-25,4,2,0,45,0,1
180695,-25,4,3,0,5,0,1
180789,-25,4,2,0,45,0,1
181072,-25,4,3,0,5,0,1
181166,-1000,4,2,0,45,0,1
181449,-1000,4,3,0,5,0,1
181543,-25,4,2,0,45,0,1
181827,-25,4,3,0,5,0,1
181921,-25,4,2,0,45,0,1
182015,-25,4,3,0,5,0,1
182110,-25,4,2,0,45,0,1
182204,-25,4,3,0,5,0,1
182298,-25,4,2,0,45,0,1
182581,-25,4,3,0,5,0,1
182676,-1000,4,2,0,45,0,1
182959,-1000,4,3,0,5,0,1
183053,-25,4,2,0,45,0,1
183336,-25,4,3,0,5,0,1
183431,-1000,4,2,0,45,0,1
183714,-1000,4,3,0,5,0,1
183808,-25,4,2,0,45,0,1
184091,-25,4,3,0,5,0,1
184185,383.386581469649,4,2,0,45,1,0
190319,377.358490566038,4,2,0,45,1,0
203149,-100,4,2,0,25,0,0
203337,-100,4,2,0,30,0,0
203526,-100,4,2,0,35,0,0
203715,-100,4,2,0,40,0,0
203903,-100,4,2,0,45,0,0
208432,-322.58064516129,4,2,0,45,0,0
208526,-322.58064516129,4,3,0,5,0,0
219139,-322.58064516129,4,3,0,5,0,0

[Colours]
Combo1 : 255,128,0
Combo2 : 128,128,128
Combo3 : 128,128,128
Combo4 : 128,128,128
Combo5 : 128,128,128
Combo6 : 255,0,0
Combo7 : 255,255,0
Combo8 : 253,100,104

[HitObjects]
89,91,26438,6,0,P|116:102|150:99,1,62.9999966621398
441,46,28076,1,8,0:0:0:0:
441,46,31352,2,0,P|433:65|435:113,1,67.4999964237212,8|0,0:0|0:0,0:0:0:0:
468,340,32990,6,0,P|456:328|421:316,1,53.999997138977
479,226,34424,1,0,0:0:0:0:
66,296,34629,1,8,0:0:0:0:
66,296,37905,2,0,P|58:282|54:230,1,67.4999964237212,8|0,0:0|0:0,0:0:0:0:
462,49,39543,6,0,P|441:62|401:68,1,62.9999966621398
477,353,41182,1,8,0:0:0:0:
477,353,44458,2,0,P|467:348|409:340,1,67.4999964237212,8|0,0:0|0:0,0:0:0:0:
113,104,46096,6,0,P|119:114|158:134,1,53.999997138977
107,14,47530,1,0,0:0:0:0:
473,131,47734,1,8,0:0:0:0:
256,192,50704,12,8,52385,0:0:0:0:
177,156,53016,69,0,0:0:0:0:
329,206,53226,2,8,P|283:206|204:253,2,134.999992847443
79,346,54083,6,0,P|66:323|86:257,1,98.9999947547912
168,217,55311,2,0,P|180:220|197:220,1,26.9999985694885
30,168,55721,5,8,0:0:0:0:
416,39,58178,2,0,P|408:52|400:99,1,62.9999966621398
469,352,58997,1,8,0:0:0:0:
422,227,59407,6,0,P|406:240|388:242,2,35.9999980926513
40,41,60635,70,0,P|95:92|231:136,1,215.999981964112,4|8,0:0|0:0,0:0:0:0:
467,38,65550,1,8,0:0:0:0:
109,301,67188,6,0,P|121:253|103:138,1,161.999986473084
160,231,68622,1,0,0:0:0:0:
287,16,68827,1,8,0:0:0:0:
287,16,72103,6,0,P|284:32|411:116,1,202.499983091355,8|0,0:0|0:0,0:0:0:0:
137,54,73741,6,0,P|156:86|178:240,1,188.999984218598
476,348,75379,1,8,0:0:0:0:
476,348,78656,1,8,0:0:0:0:
476,348,79116,2,0,P|482:333|482:321,1,26.999997745514
493,207,79525,70,0,P|455:230|398:240,1,94.4999921092989
220,127,80344,6,0,P|204:132|184:148,1,40.4999966182709
311,82,80754,2,0,P|316:98|332:118,1,40.4999966182709
375,207,81163,2,0,P|359:212|322:277,1,94.4999921092989,4|0,0:0|0:0,0:0:0:0:
82,117,81982,6,0,P|100:127|191:146,1,107.999990982056,0|8,0:0|0:0,0:0:0:0:
184,146,83621,2,0,P|202:136|293:117,1,107.999990982056
286,116,84849,2,0,P|306:117|320:114,1,26.999997745514
451,51,85209,6,0,P|442:74|439:98,1,40.4999966182709
463,180,85584,2,0,P|471:198|476:218,1,40.4999966182709
120,69,85959,1,8,0:0:0:0:
369,150,86334,70,0,P|347:157|330:167,1,40.4999966182709
96,352,86709,1,8,0:0:0:0:
399,277,87084,2,0,P|392:254|382:240,1,40.499996618271
128,62,87459,6,0,P|127:80|118:108,1,40.4999966182709
247,117,87834,2,0,P|231:107|212:85,1,40.4999966182709
126,199,88209,2,0,P|142:190|180:187,1,53.9999954910279,8|0,0:0|0:0,0:0:0:0:
456,315,88959,2,0,P|439:306|402:303,1,53.9999954910279,0|4,0:0|0:0,0:0:0:0:
258,149,92052,6,0,P|260:183|254:218,1,67.4999964237214,6|2,0:0|0:0,0:0:0:0:
39,85,93552,6,0,P|88:52|261:35,1,202.499996995926
445,82,93927,2,0,P|389:101|217:72,1,202.499996995926
85,168,94302,2,0,P|123:123|286:62,1,202.499996995926
435,169,94677,2,0,P|376:173|217:101,1,202.499996995926
474,289,95052,70,0,P|475:297|470:308,1,17.9999990463257,8|0,0:0|0:0,0:0:0:0:
61,237,95802,5,12,0:0:0:0:
206,318,95989,2,0,P|230:216|106:7,1,359.999980926513,2|2,0:0|0:0,0:0:0:0:
183,172,96552,5,8,0:0:0:0:
260,37,96734,1,2,0:0:0:0:
84,129,96917,5,8,0:0:0:0:
307,164,97100,1,2,0:0:0:0:
121,271,97283,69,8,0:0:0:0:
146,46,97466,1,2,0:0:0:0:
247,276,97649,5,8,0:0:0:0:
49,163,97832,1,2,0:0:0:0:
412,46,98020,38,0,P|439:200|222:328,1,404.999993991852,4|0,0:0|0:0,0:0:0:0:
396,134,98402,2,0,P|399:155|393:181,1,40.499996618271,8|0,0:0|0:0,0:0:0:0:
450,301,98784,6,0,P|366:316|111:113,1,404.999993991852,4|0,0:0|0:0,0:0:0:0:
87,125,99166,2,0,P|104:112|129:112,1,40.499996618271,8|0,0:0|0:0,0:0:0:0:
49,278,99548,6,0,B|118:333|230:287|454:372|524:-31|374:-61|99:-12|52:100|154:266|297:249|302:267|343:249|353:257|389:251|415:261|449:281|500:365,1,944.999985980988,4|0,0:0|0:0,0:0:0:0:
502,215,100312,2,0,B|343:320|126:405|-13:186|69:-9|182:-60|312:-49|360:-3|418:17|458:137|412:213,1,944.999985980988,4|0,0:0|0:0,0:0:0:0:
470,42,101077,2,0,P|452:50|320:45,1,148.499987600327,8|0,0:0|0:0,0:0:0:0:
18,59,102223,6,0,B|76:40|134:42|197:86|220:152|267:367|119:378|-87:278|-106:106|34:94|103:86|137:50|161:66|191:47|211:33|228:33|236:35|251:27|244:42|211:83|228:134|244:173|277:154|309:139|350:142|376:143|394:172|426:164|444:157|460:145|465:122|461:102|445:85|439:73|420:78|393:88|371:120,1,944.999985980988,4|0,0:0|0:0,0:0:0:0:
170,359,102988,2,0,P|181:211|-15:-1,1,404.999993991852
81,328,103370,2,0,P|202:277|310:19,1,404.999993991852
71,193,103752,2,0,P|186:304|426:342,1,404.999993991852
219,43,104134,70,0,P|226:70|237:90,1,40.499996618271,8|0,0:0|0:0,0:0:0:0:
303,352,104509,6,0,B|432:263|450:200|347:180|146:253|160:347,1,404.999993991852
467,157,104884,2,0,P|330:227|179:33,1,404.999993991852
337,22,105259,2,0,P|286:160|65:333,1,404.999993991852
350,129,105634,6,0,P|375:118|441:123,1,94.499992109299,8|0,0:0|0:0,0:0:0:0:
31,190,106384,6,0,P|116:222|430:157,1,404.999993991852
31,235,106759,2,0,P|182:156|431:134,1,404.999993991852
31,351,107134,70,0,P|46:333|68:262,1,94.499992109299,8|0,0:0|0:0,0:0:0:0:
438,44,107884,6,0,P|308:108|49:12,1,404.999993991852
454,239,108259,2,0,P|252:160|119:-7,1,404.999993991852
400,343,108634,6,0,P|374:325|362:314,1,40.499996618271,8|0,0:0|0:0,0:0:0:0:
51,259,109009,6,0,P|196:321|448:243,1,404.999993991852
61,65,109384,70,0,B|202:109|237:177|22:358,1,404.999993991852
259,42,109759,2,0,B|327:172|304:245|24:221,1,404.999993991852
455,88,110134,6,0,P|462:108|466:129,1,40.499996618271,8|0,0:0|0:0,0:0:0:0:
430,336,110509,6,0,P|365:326|250:14,1,404.999993991852
456,250,110884,2,0,P|327:357|466:160,1,944.999985980988,4|0,0:0|0:0,0:0:0:0:
294,186,111634,6,0,B|209:188|108:170|215:43|103:0|70:89|318:99|118:265|32:288,1,404.999993991852
43,83,112009,2,0,B|128:81|229:99|122:226|234:269|267:180|19:170|219:4|305:-19,1,404.999993991852
440,216,112384,70,0,P|316:317|137:173,1,404.999993991852
375,41,112759,2,0,P|476:165|332:344,1,404.999993991852
142,11,113134,53,8,0:0:0:0:
473,71,116201,6,0,P|459:86|440:98,1,40.499996618271,8|0,0:0|0:0,0:0:0:0:
461,311,116584,6,0,P|334:237|236:-8,1,404.999993991852
497,181,116967,22,0,B|396:301|206:288|129:213|83:136|91:58|108:37|202:29|260:54|307:43|297:130|233:178|208:231|207:265|202:315|156:333|86:359|29:360,1,944.999985980988,4|0,0:0|0:0,0:0:0:0:
467,39,117734,6,0,P|316:86|31:52,1,404.999993991852
46,177,118118,2,0,P|201:138|457:134,1,404.999993991852
475,234,118501,2,0,P|317:249|64:181,1,404.999993991852
53,355,118884,2,0,P|192:298|482:264,1,404.999993991852
228,12,119268,37,8,0:0:0:0:
228,12,120018,6,0,P|222:40|224:62,1,40.499996618271,8|0,0:0|0:0,0:0:0:0:
260,365,120393,38,0,P|298:224|112:45,1,404.999993991852
85,265,120768,2,0,P|227:308|491:292,1,404.999993991852
416,187,121143,2,0,P|286:281|27:285,1,404.999993991852
51,44,121518,6,0,P|64:53|91:60,1,40.499996618271,8|0,0:0|0:0,0:0:0:0:
438,29,121893,6,0,P|391:203|98:283,1,404.999993991852
57,162,122268,2,0,P|181:76|387:257,1,404.999993991852
115,325,122643,2,0,P|153:185|409:75,1,404.999993991852
471,350,123018,6,0,P|451:353|374:338,1,94.499992109299,4|0,0:0|0:0,0:0:0:0:
275,37,123768,70,0,P|255:34|178:49,1,94.499992109299,4|0,0:0|0:0,0:0:0:0:
48,289,124518,6,0,B|95:350|270:325|480:207,1,404.999993991852
71,104,124893,2,0,P|182:218|448:174,1,404.999993991852
48,328,125268,6,0,B|90:313|127:318|152:323,1,94.499992109299,8|0,0:0|0:0,0:0:0:0:
388,367,126018,6,0,P|405:370|433:367,1,40.499996618271
278,306,126393,70,0,B|202:278|146:264|90:265|70:303|92:335|125:352|154:353|183:339|234:312|275:277|315:259|348:198|479:125|617:119|609:354|485:319|429:313|381:295|350:270|373:231|355:218|337:206|321:197|299:184|279:174|252:169|234:169|203:163|182:157|161:154|127:153|111:157|98:162|85:167|74:174|58:184|50:191,1,944.999985980988,4|0,0:0|0:0,0:0:0:0:
447,87,127143,6,0,P|284:142|44:55,1,404.999993991852
354,40,127518,2,0,P|224:143|3:247,1,404.999993991852
232,26,127893,2,0,P|187:198|27:368,1,404.999993991852
413,174,128268,6,0,P|431:166|458:161,1,40.499996618271,8|0,0:0|0:0,0:0:0:0:
456,323,128643,6,0,P|324:258|36:205,1,404.999993991852
410,28,129018,2,0,B|393:185|348:298|215:382,1,404.999993991852
204,78,129393,70,0,B|228:192|440:206|512:116|429:3,1,404.999993991852
105,39,129768,2,0,P|193:151|468:164,1,404.999993991852
55,194,130143,2,0,P|187:140|478:153,1,404.999993991852
42,298,130518,6,0,B|89:334|166:355|210:349|256:343|291:343|355:340|410:326|425:285|436:297|439:311|467:301|475:274|464:242|442:222|415:219|393:227|375:240|337:247|303:219|295:196|302:172|324:153|357:144|375:144|396:149|411:152|437:157|461:151|475:138|480:127|483:113|483:103|478:92|467:80|457:72|437:59|429:55|414:53|398:52|385:52|370:57|357:61|349:66|341:71|333:77|327:82|319:88|305:92|297:92|287:92|282:91|271:86|263:82|255:76|250:72|245:67|236:61|229:57|221:53|212:51|204:50|200:51|196:52|193:53|191:56,1,944.999985980988,4|0,0:0|0:0,0:0:0:0:
433,321,131268,6,0,P|447:305|434:234,1,94.499992109299,8|0,0:0|0:0,0:0:0:0:
67,34,132034,6,0,B|170:122|186:221|126:297|16:255|108:121|153:104|212:98,1,404.999993991852
296,53,132418,2,0,B|343:190|292:368|164:384|74:143|280:141|326:159|357:188|391:193|419:211|450:259|465:295|470:312|466:323|459:332|438:345|426:349|412:358|390:363|370:370|356:376|334:380|304:375|281:368|273:338|254:317|244:313|221:307|196:306|177:303|153:316|131:326|116:339|101:351|88:367,1,944.999985980988,4|0,0:0|0:0,0:0:0:0:
34,192,133184,70,0,P|152:279|475:257,1,404.999993991852
475,105,133568,2,0,P|368:211|103:238,1,404.999993991852
49,51,133951,2,0,P|166:139|439:118,1,404.999993991852
471,351,134335,54,0,P|454:340|441:268,1,94.499992109299,8|0,0:0|0:0,0:0:0:0:
485,12,135101,6,0,P|480:38|482:61,1,40.499996618271
486,151,135485,2,0,P|473:142|444:133,1,40.499996618271
422,348,135868,6,0,P|403:358|381:363,1,40.499996618271
245,186,136245,22,0,P|50:94|104:304,1,539.999971389771,6|0,0:0|0:0,0:0:0:0:
104,304,136622,2,0,P|23:127|243:212,1,539.999971389771,6|0,0:0|0:0,0:0:0:0:
245,186,137000,2,0,P|50:94|104:304,1,539.999971389771,6|0,0:0|0:0,0:0:0:0:
482,214,137377,6,0,P|475:211|467:211,1,13.4999992847443,8|0,0:0|0:0,0:0:0:0:
72,69,137754,6,0,B|79:141|119:229|209:314|250:324|312:225|302:189|227:152|177:156|122:181|71:225|76:280,1,539.999971389771,6|0,0:0|0:0,0:0:0:0:
83,288,138132,2,0,B|88:242|104:192|186:170|229:171|249:188|266:235|284:295|341:340|390:350|476:325|509:246,1,539.999971389771,6|0,0:0|0:0,0:0:0:0:
483,240,138509,2,0,B|458:287|408:323|339:298|305:266|267:213|265:145|242:62|284:26|308:8|289:169|124:170,1,539.999971389771,6|0,0:0|0:0,0:0:0:0:
414,81,138886,6,0,P|418:79|430:77,1,13.4999992847443,8|0,0:0|0:0,0:0:0:0:
371,183,139264,70,0,B|233:288|175:287|101:103|209:64|498:227,1,539.999971389771,6|0,0:0|0:0,0:0:0:0:
444,198,139641,2,0,B|216:83|101:103|173:286|233:288|374:182,1,539.999971389771,6|0,0:0|0:0,0:0:0:0:
371,183,140018,2,0,B|233:288|175:287|101:103|209:64|498:227,1,539.999971389771,6|0,0:0|0:0,0:0:0:0:
124,331,140396,6,0,P|117:328|114:321,1,13.4999992847443,8|0,0:0|0:0,0:0:0:0:
75,63,140773,6,0,P|289:66|453:358,1,539.999971389771,6|0,0:0|0:0,0:0:0:0:
432,337,141151,2,0,B|411:97|128:19|26:120,1,539.999971389771,6|0,0:0|0:0,0:0:0:0:
43,149,141528,2,0,B|106:108|146:77|225:60|434:223|403:387,1,539.999971389771,6|0,0:0|0:0,0:0:0:0:
80,289,141905,6,0,P|64:202|279:311,1,539.999971389771,8|0,0:0|0:0,0:0:0:0:
12,270,142283,70,0,P|188:132|499:147,1,539.999971389771,6|0,0:0|0:0,0:0:0:0:
494,178,142660,2,0,P|318:40|7:55,1,539.999971389771,6|0,0:0|0:0,0:0:0:0:
6,89,143037,2,0,P|182:227|493:212,1,539.999971389771,6|0,0:0|0:0,0:0:0:0:
166,46,143415,6,0,P|164:53|165:62,1,13.4999992847443,8|0,0:0|0:0,0:0:0:0:
350,341,143792,6,0,B|459:234|498:113|451:28|353:6|322:47|306:86|296:137|304:168|321:212|334:229,1,539.999971389771,6|0,0:0|0:0,0:0:0:0:
303,230,144169,2,0,B|279:150|188:78|137:137|164:215|208:253|230:288|262:306|311:323|346:326|382:328|426:321|462:298|491:268|494:247,1,539.999971389771,6|0,0:0|0:0,0:0:0:0:
478,248,144547,2,0,B|440:214|356:207|323:227|304:248|278:284|237:322|192:342|140:336|58:291|30:231|48:182|69:140|72:138,1,539.999971389771,6|0,0:0|0:0,0:0:0:0:
376,40,144924,6,0,P|369:49|364:51,1,13.4999992847443,8|0,0:0|0:0,0:0:0:0:
49,33,145301,70,0,P|296:133|473:334,1,539.999971389771,6|0,0:0|0:0,0:0:0:0:
473,334,145679,2,0,P|296:133|49:33,1,539.999971389771,6|0,0:0|0:0,0:0:0:0:
49,33,146056,2,0,P|296:133|473:334,1,539.999971389771,6|0,0:0|0:0,0:0:0:0:
66,327,146434,6,0,P|63:320|60:313,1,13.4999992847443,8|0,0:0|0:0,0:0:0:0:
448,29,146811,6,0,P|428:110|33:163,1,539.999971389771,6|0,0:0|0:0,0:0:0:0:
65,149,147188,2,0,B|89:187|116:219|162:231|228:210|265:201|287:185|304:166|308:153|307:131|300:115|274:93|267:90|251:90|231:93|211:108|187:140|184:155|186:164|197:176|203:192|210:209|215:221|220:233|226:252|227:269|226:286|223:300|218:313|210:325|202:334|195:343|180:351|168:358|157:361|151:363|136:362|124:357|111:349|100:341|99:340,1,539.999971389771,6|0,0:0|0:0,0:0:0:0:
243,321,147566,2,0,B|259:267|259:249|256:225|249:204|244:172|231:152|211:126|172:89|146:72|136:42|106:20|78:11|35:11|-6:70|83:146|127:64|199:31|255:59|317:136,1,539.999971389771,6|0,0:0|0:0,0:0:0:0:
502,20,147943,6,0,P|266:108|4:9,1,539.999971389771,8|0,0:0|0:0,0:0:0:0:
353,29,148320,70,0,B|367:98|399:180|477:232|494:262|481:305|441:334|373:347|326:295|337:235|383:195|436:182|488:195|505:237,1,539.999971389771,6|0,0:0|0:0,0:0:0:0:
494,257,148698,2,0,P|451:231|21:373,1,539.999971389771,6|0,0:0|0:0,0:0:0:0:
58,373,149075,2,0,B|99:324|99:323|106:313|113:298|114:284|112:272|106:255|102:243|94:227|84:217|75:206|63:191|51:177|42:163|40:153|39:143|38:122|41:100|44:87|56:66|69:52|81:44|101:36|123:33|142:32|171:41|185:47|201:61|208:79|210:98|209:115|201:133|190:144|185:148,1,539.999971389771,6|0,0:0|0:0,0:0:0:0:
368,339,149452,6,0,P|357:332|356:331,1,13.4999992847443,8|0,0:0|0:0,0:0:0:0:
171,159,149830,6,0,P|340:271|254:73,1,539.999971389771,6|0,0:0|0:0,0:0:0:0:
276,70,150207,2,0,P|349:264|171:159,1,539.999971389771,6|0,0:0|0:0,0:0:0:0:
171,159,150584,2,0,P|340:271|254:73,1,539.999971389771,6|0,0:0|0:0,0:0:0:0:
111,314,150962,6,0,P|111:322|112:328,1,13.4999992847443,8|0,0:0|0:0,0:0:0:0:
457,308,151339,70,0,B|412:209|253:65|42:25|32:32|19:57|33:78|66:94|101:96|124:77|136:63,1,539.999971389771,6|0,0:0|0:0,0:0:0:0:
71,117,151717,2,0,B|156:292|322:401|420:412|484:380|487:362|475:351|465:345|451:340|430:343,1,539.999971389771,6|0,0:0|0:0,0:0:0:0:
426,371,152094,2,0,B|235:230|186:148|120:115|143:-8|198:-15|253:5|249:49|238:87|203:97,1,539.999971389771,6|0,0:0|0:0,0:0:0:0:
467,191,152471,6,0,P|464:201|457:212,1,22.4999988079071,8|0,0:0|0:0,0:0:0:0:
54,104,153084,38,0,B|89:47|170:-1|285:26|359:101|352:177|320:249|286:290|203:283|105:202|160:114|203:110,1,539.999971389771
375,72,153605,6,0,B|430:169|397:275|317:361|159:357,1,359.999980926514
468,313,153981,38,0,P|346:346|392:61,1,539.999971389771,8|0,0:0|0:0,0:0:0:0:
43,57,154358,6,0,B|62:105|87:137|121:157|151:169|176:171|200:156|227:131|240:111|256:92|279:77|302:72|331:67|367:68|390:79|410:97|429:117|437:128|443:144|453:165|458:189|465:211|467:226,1,539.999971389771,6|0,0:0|0:0,0:0:0:0:
459,228,154735,2,0,B|425:263|377:286|327:259|304:251|257:230|253:195|254:159|256:132|233:95|219:42|193:24|171:12|119:3|51:2|28:57,1,539.999971389771,6|0,0:0|0:0,0:0:0:0:
48,46,155112,2,0,B|109:148|359:235|510:6,1,539.999971389771,6|0,0:0|0:0,0:0:0:0:
49,200,155490,6,0,P|48:207|50:216,1,13.4999992847443,8|0,0:0|0:0,0:0:0:0:
461,341,155867,6,0,B|426:264|284:250|140:251|49:391|-1:231|190:312|261:218,1,539.999971389771,6|0,0:0|0:0,0:0:0:0:
234,204,156245,2,0,B|332:175|454:95|442:41|375:24|316:12|276:37|273:79|293:117|337:173|385:202|406:238|398:290,1,539.999971389771,6|0,0:0|0:0,0:0:0:0:
377,289,156622,2,0,B|129:337|132:181|301:72|171:16|98:3|47:52|18:112|102:171|125:198|120:238|88:265,1,539.999971389771,6|0,0:0|0:0,0:0:0:0:
472,320,156999,70,0,P|475:313|477:308,1,13.4999992847443,8|0,0:0|0:0,0:0:0:0:
451,28,157377,6,0,P|390:54|38:376,1,539.999971389771,6|0,0:0|0:0,0:0:0:0:
79,372,157754,2,0,B|249:214|337:46|332:28|276:3|195:15|141:55,1,539.999971389771,6|0,0:0|0:0,0:0:0:0:
149,64,158131,2,0,B|184:195|362:346|466:350|493:325|502:291|500:263|480:228|451:216|426:218|400:219|382:228|372:239|366:252|363:267|362:278|358:289|361:300|366:308|371:315|377:322|380:326|391:336,1,539.999971389771,6|0,0:0|0:0,0:0:0:0:
499,52,158509,6,0,P|492:55|486:57,1,13.4999992847443,8|0,0:0|0:0,0:0:0:0:
36,34,158886,6,0,B|43:242|422:186|504:78|398:1,1,539.999971389771,6|0,0:0|0:0,0:0:0:0:
102,243,159264,70,0,P|103:249|106:256,1,13.4999992847443,8|0,0:0|0:0,0:0:0:0:
459,292,159641,6,0,B|428:259|268:228|105:320|0:243|60:117|120:87|169:126|176:162,1,539.999971389771,6|0,0:0|0:0,0:0:0:0:
103,324,160018,2,0,B|164:358|311:383|418:331|462:213|422:57|330:7|217:58|205:104,1,539.999971389771,6|0,0:0|0:0,0:0:0:0:
88,41,160396,6,0,P|171:221|513:173,1,539.999971389771,6|0,0:0|0:0,0:0:0:0:
477,213,160773,2,0,P|226:255|88:41,1,539.999971389771,6|0,0:0|0:0,0:0:0:0:
88,40,161150,2,0,P|226:255|477:213,1,539.999971389771,6|0,0:0|0:0,0:0:0:0:
88,312,161528,6,0,P|93:314|101:315,1,13.4999992847443,8|0,0:0|0:0,0:0:0:0:
464,71,161905,70,0,B|418:-39|-1:140|447:434|539:167|361:170,1,539.999971389771,6|0,0:0|0:0,0:0:0:0:
354,135,162282,2,0,B|291:182|123:212|38:115|68:36|129:40|161:79|161:108|151:144|133:187|100:223|73:249|68:281|73:300|81:316|101:335,1,539.999971389771,6|0,0:0|0:0,0:0:0:0:
124,311,162660,2,0,P|79:233|379:116,1,539.999971389771,6|0,0:0|0:0,0:0:0:0:
470,354,163037,6,0,P|462:356|456:354,1,13.4999992847443,8|0,0:0|0:0,0:0:0:0:
37,50,163414,6,0,P|35:127|473:201,1,539.999971389771,6|0,0:0|0:0,0:0:0:0:
383,252,163792,2,0,P|177:342|159:72,1,539.999971389771,6|0,0:0|0:0,0:0:0:0:
158,118,164169,2,0,P|279:304|502:132,1,539.999971389771,6|0,0:0|0:0,0:0:0:0:
236,20,164547,6,0,P|237:29|240:35,1,13.4999992847443,8|0,0:0|0:0,0:0:0:0:
199,346,164924,70,0,B|480:179|504:35|314:-62|121:149,1,539.999971389771,6|0,0:0|0:0,0:0:0:0:
244,87,165301,2,0,B|190:49|44:12|25:164|28:232|273:367,1,539.999971389771,6|0,0:0|0:0,0:0:0:0:
461,216,165679,6,0,P|436:248|68:68,1,539.999971389771,6|0,0:0|0:0,0:0:0:0:
71,76,166056,2,0,P|214:205|436:2,1,539.999971389771,6|0,0:0|0:0,0:0:0:0:
167,27,166433,6,0,B|200:42|552:168|162:337|51:348,1,539.999971389771,6|0,0:0|0:0,0:0:0:0:
60,313,166811,2,0,B|168:288|443:157|230:88|57:376|90:108|346:77,1,539.999971389771,6|0,0:0|0:0,0:0:0:0:
369,75,167188,2,0,P|228:153|487:301,1,539.999971389771,6|0,0:0|0:0,0:0:0:0:
485,56,167565,6,0,P|480:57|470:58,1,13.4999992847443,8|0,0:0|0:0,0:0:0:0:
28,40,167943,70,0,P|133:45|497:265,1,539.999971389771,6|0,0:0|0:0,0:0:0:0:
495,263,168320,2,0,P|290:92|27:40,1,539.999971389771,6|0,0:0|0:0,0:0:0:0:
28,40,168697,2,0,P|133:45|497:265,1,539.999971389771,6|0,0:0|0:0,0:0:0:0:
60,351,169075,6,0,P|56:344|54:336,1,13.4999992847443,8|0,0:0|0:0,0:0:0:0:
434,63,169452,6,0,B|379:142|356:267|396:357|442:327|460:244|398:192|298:123|275:66|321:23|353:41|348:92|296:157,1,539.999971389771,6|0,0:0|0:0,0:0:0:0:
277,166,169830,2,0,B|237:189|32:200|21:113|60:47|133:12|224:35|219:111|179:202|144:266|366:278,1,539.999971389771,6|0,0:0|0:0,0:0:0:0:
289,278,170207,2,0,B|389:253|410:187|407:137|378:88|364:50|305:20|251:51|230:77|212:93|168:87|151:67|112:44|93:-4,1,539.999971389771,6|0,0:0|0:0,0:0:0:0:
102,322,170584,6,0,P|108:324|116:325,1,13.4999992847443,8|0,0:0|0:0,0:0:0:0:
485,142,170962,70,0,P|361:293|59:172,1,539.999971389771,6|0,0:0|0:0,0:0:0:0:
83,156,171339,2,0,B|123:305|256:342|305:231|415:195|521:276|493:372,1,539.999971389771,6|0,0:0|0:0,0:0:0:0:
216,193,171716,6,0,P|173:128|281:208,1,539.999971389771,6|0,0:0|0:0,0:0:0:0:
251,201,172094,2,0,B|138:152|38:228|102:355|203:356|269:265|323:198|434:202|489:328,1,539.999971389771,6|0,0:0|0:0,0:0:0:0:
374,347,172471,6,0,P|275:298|429:9,1,539.999971389771,6|0,0:0|0:0,0:0:0:0:
425,45,172848,2,0,P|357:229|29:249,1,539.999971389771,6|0,0:0|0:0,0:0:0:0:
33,226,173226,2,0,P|157:192|511:364,1,539.999971389771,6|0,0:0|0:0,0:0:0:0:
130,343,173603,6,0,P|128:334|127:327,1,13.4999992847443,8|0,0:0|0:0,0:0:0:0:
51,53,173981,70,0,P|79:166|404:94,1,539.999971389771,6|0,0:0|0:0,0:0:0:0:
402,103,174358,2,0,P|202:245|51:53,1,539.999971389771,6|0,0:0|0:0,0:0:0:0:
51,53,174735,2,0,P|79:166|404:94,1,539.999971389771,6|0,0:0|0:0,0:0:0:0:
459,339,175113,6,0,P|455:340|446:339,1,13.4999992847443,8|0,0:0|0:0,0:0:0:0:
49,276,175490,6,0,B|125:321|201:251|203:117|251:89|332:68|418:178|406:224|383:291|255:307|230:253,1,539.999971389771,6|0,0:0|0:0,0:0:0:0:
272,313,175867,2,0,B|336:310|444:301|439:191|436:135|379:89|309:42|243:60|179:147|146:193|115:233,1,539.999971389771,6|0,0:0|0:0,0:0:0:0:
126,157,176245,2,0,B|164:113|260:14|218:-28|122:-1|106:67|179:104|232:95|285:100|336:57|361:74|384:89|381:117|403:139|436:154|448:221|413:263|375:297,1,539.999971389771,6|0,0:0|0:0,0:0:0:0:
76,345,176622,6,0,P|87:349|101:351,1,22.4999988079071,8|0,0:0|0:0,0:0:0:0:
460,227,177235,70,0,B|431:216|215:234|168:302|274:358|401:275|409:150|369:36|334:-15,1,539.999971389771
192,322,177756,6,0,B|231:392|346:389|400:320|453:253|458:134,1,359.999980926514
290,90,178148,6,0,B|227:123|112:146|11:103|97:63|198:106|260:150|336:159|440:118|488:98,1,539.999971389771,6|0,0:0|0:0,0:0:0:0:
463,75,178525,2,0,B|363:164|176:113|91:49|102:3|144:-58|239:-30|203:120,1,539.999971389771,6|0,0:0|0:0,0:0:0:0:
194,133,178902,2,0,B|179:189|219:299|296:330|440:330|483:251|370:150|108:288,1,539.999971389771,6|0,0:0|0:0,0:0:0:0:
155,279,179280,2,0,B|130:310|126:363|142:371|161:369|168:341|146:301|122:264|76:223|46:193|0:148|-23:106|-9:58|54:23|111:31|136:79|107:137|58:172,1,539.999971389771,6|0,0:0|0:0,0:0:0:0:
475,46,179657,6,0,P|474:54|469:60,1,13.4999992847443,8|0,0:0|0:0,0:0:0:0:
446,352,180034,70,0,P|438:230|63:49,1,539.999971389771,6|0,0:0|0:0,0:0:0:0:
110,70,180412,2,0,P|271:90|175:364,1,539.999971389771,6|0,0:0|0:0,0:0:0:0:
168,332,180789,2,0,P|238:248|85:326,1,539.999971389771,6|0,0:0|0:0,0:0:0:0:
81,28,181166,6,0,P|88:33|94:34,1,13.4999992847443,8|0,0:0|0:0,0:0:0:0:
483,42,181544,6,0,P|427:73|33:365,1,539.999971389771,6|0,0:0|0:0,0:0:0:0:
81,355,181921,2,0,P|108:299|96:153,1,179.999990463257,6|0,0:0|0:0,0:0:0:0:
134,154,182110,2,0,P|165:219|337:268,1,179.999990463257,6|0,0:0|0:0,0:0:0:0:
297,260,182298,2,0,P|258:184|399:277,1,539.999971389771,6|0,0:0|0:0,0:0:0:0:
52,104,182676,6,0,P|49:95|49:88,1,13.4999992847443,8|0,0:0|0:0,0:0:0:0:
142,17,183053,70,0,B|71:95|40:223|174:347|209:269|388:256|425:368,1,539.999971389771,6|0,0:0|0:0,0:0:0:0:
64,313,183431,6,0,P|62:305|60:298,1,13.4999992847443,8|0,0:0|0:0,0:0:0:0:
38,141,183808,6,0,B|209:132|97:249|321:264|363:227|381:132|308:72|230:61|165:66|138:221,1,539.999971389771,6|0,0:0|0:0,0:0:0:0:
487,358,184185,21,4,0:0:0:0:
487,358,185718,1,8,0:0:0:0:
487,358,188785,1,8,0:0:0:0:
79,98,190319,5,4,0:0:0:0:
79,98,191828,1,8,0:0:0:0:
79,98,194847,1,8,0:0:0:0:
499,12,196356,5,4,0:0:0:0:
499,12,197865,1,8,0:0:0:0:
499,12,200884,1,8,0:0:0:0:
104,328,202394,5,4,0:0:0:0:
235,162,203149,1,8,0:0:0:0:
242,190,203337,1,8,0:0:0:0:
238,244,203526,1,8,0:0:0:0:
193,305,203715,1,8,0:0:0:0:
104,328,203903,1,8,0:0:0:0:
482,362,206168,69,4,0:0:0:0:
482,362,206922,1,8,0:0:0:0:
338,157,207300,1,0,0:0:0:0:
337,177,207677,1,0,0:0:0:0:
329,193,208054,1,0,0:0:0:0:
48,40,208432,54,0,B|77:71|94:79|107:83|127:84|149:78|169:68|187:53|204:40|223:29|246:27|267:28|282:38|306:48|327:60|326:110|358:131|387:135|408:138|437:145|480:145|558:82|494:22|477:-6|437:-13|415:-12|373:-9|332:-4|332:74|375:103|343:209|216:322|193:291|187:225|71:343|128:39|158:3|209:9|211:88|219:140|168:146|66:236|202:275|63:351|-97:307|-171:314|-127:-26|-132:-72|326:-83|364:173|158:278|219:328|299:301|306:235|382:160|369:117|336:161|376:221|317:270|326:294|391:322|428:323|484:322|567:299|524:115|419:123|292:62|240:321|376:353,1,1576.34985394368,6|0,0:0|0:0,0:0:0:0:
