osu file format v14

[General]
AudioFilename: audio.mp3
AudioLeadIn: 0
PreviewTime: 61314
Countdown: 0
SampleSet: Soft
StackLeniency: 0.5
Mode: 0
LetterboxInBreaks: 0
WidescreenStoryboard: 1

[Editor]
Bookmarks: 1325,29324,61324,82658,114658,146658,167991,202991,234658
DistanceSpacing: 1
BeatDivisor: 4
GridSize: 4
TimelineZoom: 2.1

[Metadata]
Title:Anti the EuphoriaHOLiC
TitleUnicode:Anti the EuphoriaHOLiC
Artist:storyteller(cosMo x GAiA) feat. IA, Kagamine Rin
ArtistUnicode:storyteller(cosMo×GAiA) feat. IA, 鏡音リン
Creator:SaltyLucario
Version:SaltyNowa's Exhilaration
Source:星ノ少女ト幻奏楽土
Tags:saltking salty euphoria holic -aria on the planetes- gakupo kamui gackpo camui 神威がくぽ rho lambda ρ λ stella vocaloid piano gothic baroque pop japanese cosmo@bousoup bousoup chemical system le story researcher syuri22 star girl and the illusion paradise hoshi no shoujo to gensou rakudo 空想庭園 fantastic garden 幻奏楽土小説版 anti the infinite holic anti the∞holic BPM200以上はおやつに含まれますか? bpm 200 ijou wa Oyatsu ni Fukumaremasu ka? hailie dj_lucky dj lucky cheri dtm9 nowa dtm9_nowa thekinghenry tkh
BeatmapID:2583505
BeatmapSetID:546102

[Difficulty]
HPDrainRate:6
CircleSize:4
OverallDifficulty:9
ApproachRate:9.5
SliderMultiplier:1.7
SliderTickRate:1

[Events]
//Background and Video events
0,0,"bg.png",0,0
//Break Periods
//Storyboard Layer 0 (Background)
//Storyboard Layer 1 (Fail)
//Storyboard Layer 2 (Pass)
//Storyboard Layer 3 (Foreground)
//Storyboard Layer 4 (Overlay)
//Storyboard Sound Samples

[TimingPoints]
1315,333.333333333333,4,2,1,60,1,0
1315,-500,4,2,1,60,0,0
1564,-500,4,2,99,5,0,0
1648,-500,4,2,1,35,0,0
1981,-500,4,2,1,40,0,0
2314,-500,4,2,1,50,0,0
2647,-500,4,2,2,60,0,0
4981,-500,4,2,1,60,0,0
5314,-500,4,2,2,60,0,0
7647,-500,4,2,1,60,0,0
7981,-500,4,2,2,60,0,0
10314,-500,4,2,1,60,0,0
10481,-100,4,2,1,60,0,0
11481,-100,4,2,1,65,0,0
11648,-100,4,2,1,70,0,0
11814,-100,4,2,1,75,0,0
11981,-100,4,2,1,60,0,0
12981,-100,4,2,1,50,0,0
13314,-83.3333333333333,4,2,1,50,0,0
13480,-83.3333333333333,4,2,3,50,0,0
15814,-83.3333333333333,4,2,2,50,0,0
15898,-500,4,2,99,5,0,0
15981,-83.3333333333333,4,2,2,50,0,0
16147,-83.3333333333333,4,2,3,50,0,0
17231,-500,4,2,3,50,0,0
17314,-83.3333333333333,4,2,3,50,0,0
17731,-500,4,2,3,50,0,0
17814,-83.3333333333333,4,2,3,50,0,0
17898,-500,4,2,3,50,0,0
17981,-83.3333333333333,4,2,3,50,0,0
18481,-83.3333333333333,4,2,2,50,0,0
18814,-83.3333333333333,4,2,1,50,0,0
21148,-83.3333333333333,4,2,2,50,0,0
21480,-83.3333333333333,4,2,1,50,0,0
22981,-76.9230769230769,4,2,1,50,0,0
23648,-100,4,2,2,50,0,0
26314,-100,4,2,1,50,0,0
27647,-100,4,2,1,70,0,0
27981,-133.333333333333,4,2,1,50,0,0
28648,-74.0740740740742,4,2,1,40,0,0
29314,-100,4,2,1,50,0,0
31814,-100,4,2,2,50,0,0
37231,-500,4,2,2,50,0,0
37314,-100,4,2,2,50,0,0
39480,-100,4,2,1,50,0,0
39814,-100,4,2,2,50,0,0
42314,-100,4,2,1,50,0,0
44981,-100,4,2,1,50,0,0
45314,-100,4,2,2,50,0,0
47898,-500,4,2,99,5,0,0
47981,-100,4,2,2,50,0,0
50648,-133.333333333333,4,2,2,40,0,0
51314,-133.333333333333,4,2,1,40,0,0
53314,-133.333333333333,4,2,2,40,0,0
54314,-133.333333333333,4,2,1,40,0,0
54648,-133.333333333333,4,2,2,40,0,0
55314,-133.333333333333,4,2,1,40,0,0
55981,-90.9090909090909,4,2,1,50,0,0
58481,-90.9090909090909,4,2,2,50,0,0
58648,-76.9230769230769,4,2,2,70,0,0
60648,-76.9230769230769,4,2,1,70,0,0
61314,-52.6315789473684,4,2,3,65,0,1
61648,-66.6666666666667,4,2,3,65,0,1
63814,-66.6666666666667,4,2,2,65,0,1
63981,-66.6666666666667,4,2,3,65,0,1
65314,-52.6315789473684,4,2,3,65,0,1
65564,-66.6666666666667,4,2,1,65,0,1
65981,-66.6666666666667,4,2,3,65,0,1
66648,-55.5555555555556,4,2,3,65,0,1
69148,-66.6666666666667,4,2,2,65,0,1
69314,-66.6666666666667,4,2,3,65,0,1
70731,-66.6666666666667,4,2,1,65,0,1
71648,-133.333333333333,4,2,1,65,0,0
71898,-500,4,2,99,5,0,0
71981,-66.6666666666667,4,2,3,65,0,1
74481,-66.6666666666667,4,2,2,65,0,1
74648,-66.6666666666667,4,2,3,65,0,1
76231,-66.6666666666667,4,2,1,65,0,1
76481,-43.4782608695652,4,2,1,65,0,1
76648,-79.9999999999999,4,2,3,65,0,1
77148,-50,4,2,2,65,0,1
77314,-55.5555555555556,4,2,3,65,0,1
79648,-100,4,2,3,65,0,1
79814,-100,4,2,2,65,0,1
79981,-100,4,2,3,65,0,1
81981,-66.6666666666667,4,2,1,65,0,1
82648,-105.263157894737,4,2,1,45,0,0
84981,-285.714285714287,4,2,1,45,0,0
85314,-74.0740740740741,4,2,1,45,0,0
86648,-74.0740740740741,4,2,1,50,0,0
87426,-105.263157894737,4,2,1,50,0,0
87648,-95.238095238095,4,2,1,60,0,0
87981,-95.238095238095,4,2,1,60,0,1
90481,-95.238095238095,4,2,2,60,0,1
91981,-76.9230769230769,4,2,2,60,0,1
93314,-100,4,2,2,50,0,0
93648,-100,4,2,3,50,0,0
95814,-100,4,2,2,50,0,0
95898,-500,4,2,99,5,0,0
95981,-100,4,2,3,50,0,0
98481,-100,4,2,2,50,0,0
98648,-100,4,2,3,50,0,0
98898,-500,4,2,99,5,0,0
98981,-76.9230769230769,4,2,3,50,0,0
99231,-500,4,2,99,5,0,0
99314,-76.9230769230769,4,2,3,50,0,0
99648,-100,4,2,3,50,0,0
101148,-100,4,2,2,50,0,0
101314,-100,4,2,3,50,0,0
103314,-100,4,2,1,50,0,0
106564,-100,4,2,99,5,0,0
106648,-100,4,2,1,50,0,0
108981,-200,4,2,1,50,0,0
109231,-200,4,2,99,5,0,0
109314,-200,4,2,1,50,0,0
109981,-100,4,2,1,50,0,0
112648,-83.3333333333333,4,2,1,50,0,0
113981,-200,4,2,1,50,0,0
114231,-200,4,2,99,5,0,0
114314,-200,4,2,1,50,0,0
114648,-200,4,2,1,40,0,0
115231,-500,4,2,99,5,0,0
115314,-200,4,2,1,40,0,0
115480,-200,4,2,99,5,0,0
115648,-200,4,2,1,40,0,0
117898,-500,4,2,99,5,0,0
117981,-200,4,2,1,40,0,0
118148,-500,4,2,99,5,0,0
118231,-200,4,2,1,40,0,0
118564,-500,4,2,99,5,0,0
118648,-200,4,2,1,40,0,0
119648,-111.111111111111,4,2,1,50,0,0
119981,-111.111111111111,4,2,1,60,0,1
121148,-66.6666666666667,4,2,1,60,0,1
121981,-66.6666666666667,4,2,2,60,0,1
122148,-66.6666666666667,4,2,1,60,0,1
122314,-66.6666666666667,4,2,2,60,0,1
122481,-66.6666666666667,4,2,1,60,0,1
123314,-66.6666666666667,4,2,2,60,0,1
123564,-66.6666666666667,4,2,1,60,0,1
123981,-66.6666666666667,4,2,1,70,0,1
124648,-100,4,2,2,35,0,0
124814,-100,4,2,1,35,0,0
125314,-90.9090909090909,4,2,1,50,0,0
130314,-90.9090909090909,4,2,2,50,0,0
130481,-90.9090909090909,4,2,2,50,0,0
131231,-500,4,2,2,50,0,0
131314,-90.9090909090909,4,2,2,50,0,0
133898,-500,4,2,99,5,0,0
133981,-90.9090909090909,4,2,2,50,0,0
135231,-500,4,2,99,5,0,0
135314,-90.9090909090909,4,2,2,50,0,0
135981,-133.333333333333,4,2,2,40,0,0
136647,-133.333333333333,4,2,1,40,0,0
138647,-133.333333333333,4,2,2,40,0,0
139647,-133.333333333333,4,2,1,40,0,0
139981,-133.333333333333,4,2,2,40,0,0
140648,-133.333333333333,4,2,1,40,0,0
141314,-100,4,2,1,60,0,0
143814,-100,4,2,2,60,0,0
143981,-100,4,2,2,70,0,0
145981,-66.6666666666667,4,2,1,70,0,0
146648,-66.6666666666667,4,2,3,65,0,1
149148,-66.6666666666667,4,2,2,65,0,1
149314,-66.6666666666667,4,2,3,65,0,1
150898,-66.6666666666667,4,2,1,65,0,1
151314,-66.6666666666667,4,2,3,65,0,1
154481,-66.6666666666667,4,2,2,65,0,1
154648,-66.6666666666667,4,2,3,65,0,1
156064,-66.6666666666667,4,2,1,65,0,1
156981,-133.333333333333,4,2,1,65,0,0
157231,-133.333333333333,4,2,99,5,0,0
157314,-66.6666666666667,4,2,3,65,0,1
159814,-66.6666666666667,4,2,2,65,0,1
159981,-66.6666666666667,4,2,3,65,0,1
161564,-66.6666666666667,4,2,1,65,0,1
161981,-66.6666666666667,4,2,3,65,0,1
162481,-66.6666666666667,4,2,2,65,0,1
162648,-66.6666666666667,4,2,3,65,0,1
165148,-66.6666666666667,4,2,2,65,0,1
165314,-66.6666666666667,4,2,3,65,0,1
167314,-66.6666666666667,4,2,1,65,0,1
167981,-166.666666666667,4,2,1,60,0,0
168314,-166.666666666667,4,2,1,40,0,0
169981,-142.857142857143,4,2,1,40,0,0
173314,-142.857142857143,4,2,1,45,0,0
176981,-142.857142857143,4,2,1,55,0,0
177314,-76.9230769230769,4,2,1,60,0,0
177981,-250,4,2,1,60,0,0
178314,-250,4,2,2,60,0,0
178648,-80,4,2,2,65,0,1
178731,-80,4,2,2,5,0,0
178814,-80,4,2,1,65,0,1
183648,-80,4,2,2,65,0,1
183981,-80,4,2,1,65,0,1
189314,-80,4,2,1,40,0,0
189981,-181.818181818181,4,2,1,40,0,0
190648,-285.714285714284,4,2,1,40,0,0
191981,-181.818181818181,4,2,1,40,0,0
193314,-133.333333333333,4,2,1,50,0,0
194648,-83.3333333333333,4,2,1,50,0,0
197148,-83.3333333333333,4,2,2,50,0,0
197314,-83.3333333333333,4,2,2,70,0,0
199314,-66.6666666666667,4,2,1,70,0,0
199981,-66.6666666666667,4,2,1,40,0,0
200648,-133.333333333333,4,2,1,40,0,0
201981,-133.333333333333,4,2,2,40,0,0
202314,-133.333333333333,4,2,1,40,0,0
202648,-285.714285714287,4,2,1,40,0,0
202981,-43.4782608695652,4,2,1,65,0,1
203064,-500,4,2,99,5,0,1
203148,-66.6666666666667,4,2,1,65,0,1
203481,-66.6666666666667,4,2,3,65,0,1
206898,-66.6666666666667,4,2,1,65,0,1
207314,-66.6666666666667,4,2,3,65,0,1
210481,-66.6666666666667,4,2,2,65,0,1
210648,-66.6666666666667,4,2,3,65,0,1
212064,-66.6666666666667,4,2,1,65,0,1
212981,-133.333333333333,4,2,1,65,0,0
213231,-133.333333333333,4,2,99,5,0,0
213314,-66.6666666666667,4,2,3,65,0,1
215814,-66.6666666666667,4,2,2,65,0,1
215981,-66.6666666666667,4,2,3,65,0,1
217564,-66.6666666666667,4,2,1,65,0,1
217981,-66.6666666666667,4,2,3,65,0,1
218481,-66.6666666666667,4,2,2,65,0,1
218648,-66.6666666666667,4,2,3,65,0,1
221148,-66.6666666666667,4,2,2,65,0,1
221314,-66.6666666666667,4,2,3,65,0,1
223314,-66.6666666666667,4,2,1,65,0,1
223981,-83.3333333333333,4,2,3,50,0,0
225231,-500,4,2,99,5,0,0
225314,-83.3333333333333,4,2,3,50,0,0
226481,-83.3333333333333,4,2,2,50,0,0
226564,-500,4,2,99,5,0,0
226648,-83.3333333333333,4,2,1,50,0,0
229148,-83.3333333333333,4,2,2,50,0,0
229314,-83.3333333333333,4,2,3,60,0,1
229564,-71.4285714285714,4,2,3,60,0,1
231814,-71.4285714285714,4,2,2,60,0,1
231981,-71.4285714285714,4,2,3,60,0,1
233981,-71.4285714285714,4,2,1,60,0,1
234648,-117.647058823529,4,2,1,60,0,0
236648,-117.647058823529,4,2,2,60,0,0
236759,-117.647058823529,4,2,1,60,0,0
236981,-153.846153846153,4,2,1,60,0,0
237203,-500,4,2,99,5,0,0
237314,-79.9999999999998,4,2,1,60,0,0
239870,-500,4,2,99,5,0,0
240064,-79.9999999999998,4,2,1,40,0,0
241981,-79.9999999999998,4,2,1,50,0,0
242314,-79.9999999999998,4,2,1,55,0,0
242648,-86.9565217391304,4,2,1,70,0,1
243814,-86.9565217391304,4,2,1,70,0,0
243981,-86.9565217391304,4,2,6,70,0,0
244037,-86.9565217391304,4,2,7,70,0,0
244092,-86.9565217391304,4,2,8,70,0,0
244148,-86.9565217391304,4,2,9,70,0,0
244203,-86.9565217391304,4,2,10,70,0,0
244259,-86.9565217391304,4,2,11,70,0,0
244314,-86.9565217391304,4,2,1,70,0,1
244398,-86.9565217391304,4,2,1,70,0,0
249481,-500,4,2,99,5,0,0
249648,307.692307692308,4,2,1,60,1,0
249648,-333.333333333334,4,2,1,60,0,0
250263,-333.333333333334,4,2,99,5,0,0

[Colours]
Combo1 : 255,159,159
Combo2 : 62,255,255
Combo3 : 165,133,207
Combo4 : 6,234,183
Combo5 : 60,79,251
Combo6 : 255,91,91

[HitObjects]
101,134,1315,6,0,L|97:103,1,25.5,2|0,2:0|2:0,2:0:0:0:
46,47,1648,1,0,1:0:0:0:
71,34,1731,1,0,1:0:0:0:
98,30,1814,1,0,1:0:0:0:
126,35,1897,1,0,1:0:0:0:
150,50,1981,1,0,1:0:0:0:
168,71,2064,1,0,1:0:0:0:
178,98,2148,5,0,1:0:0:0:
194,152,2231,1,0,1:0:0:0:
241,185,2314,1,0,1:0:0:0:
298,182,2397,1,0,1:0:0:0:
340,144,2481,1,0,1:0:0:0:
350,88,2564,1,0,1:0:0:0:
323,37,2647,5,6,2:0:0:0:
278,25,2731,1,2,2:0:0:0:
23,183,2981,5,6,2:0:0:0:
101,164,3065,1,2,2:0:0:0:
379,304,3314,37,2,3:2:0:0:
147,302,3481,1,2,3:2:0:0:
398,199,3648,1,2,3:2:0:0:
232,362,3814,1,2,3:2:0:0:
172,69,3981,5,6,2:0:0:0:
192,141,4064,1,2,2:0:0:0:
10,268,4314,5,6,2:0:0:0:
30,196,4397,1,2,2:0:0:0:
441,137,4648,5,2,1:2:0:0:
413,184,4732,1,2,1:2:0:0:
369,217,4815,1,2,1:2:0:0:
316,231,4898,1,2,1:2:0:0:
262,224,4981,1,2,2:0:0:0:
262,224,5314,37,6,2:0:0:0:
248,147,5398,1,2,2:0:0:0:
478,242,5648,5,6,2:0:0:0:
464,319,5732,1,2,2:0:0:0:
248,147,5981,5,2,3:2:0:0:
413,75,6148,1,2,3:2:0:0:
240,228,6314,1,2,3:2:0:0:
151,9,6481,1,2,3:2:0:0:
377,190,6648,5,6,3:2:0:0:
395,215,6731,1,2,3:2:0:0:
402,246,6814,1,0,3:0:0:0:
396,277,6897,1,0,3:0:0:0:
380,304,6981,1,6,3:2:0:0:
354,323,7064,1,2,3:2:0:0:
323,330,7147,1,0,3:0:0:0:
292,324,7231,1,0,3:0:0:0:
265,308,7314,37,2,1:2:0:0:
312,285,7397,1,2,1:2:0:0:
365,282,7480,1,2,1:2:0:0:
415,301,7563,1,2,1:2:0:0:
453,337,7647,1,2,2:0:0:0:
453,337,7981,5,6,3:2:0:0:
429,301,8064,1,2,2:0:0:0:
396,275,8147,1,0,2:0:0:0:
356,262,8231,1,0,2:0:0:0:
313,263,8314,1,6,3:2:0:0:
274,278,8397,1,2,2:0:0:0:
241,305,8481,1,0,2:0:0:0:
219,341,8564,1,0,2:0:0:0:
211,382,8647,5,2,3:2:0:0:
173,187,8814,1,2,2:0:0:0:
342,373,8981,1,10,3:2:0:0:
135,321,9148,1,2,2:0:0:0:
316,104,9314,5,6,3:2:0:0:
313,140,9397,1,2,2:0:0:0:
296,173,9480,1,0,2:0:0:0:
269,198,9564,1,0,2:0:0:0:
234,211,9647,1,6,3:2:0:0:
197,209,9730,1,2,2:0:0:0:
163,194,9814,1,0,2:0:0:0:
138,168,9897,1,0,2:0:0:0:
124,133,9981,37,2,1:2:0:0:
169,107,10064,1,2,1:2:0:0:
221,112,10147,1,2,1:2:0:0:
259,147,10231,1,2,1:2:0:0:
269,198,10314,1,2,1:2:0:0:
36,364,10481,2,0,L|30:294,1,42.5,0|0,3:0|3:0,2:0:0:0:
3,247,10648,5,4,3:0:0:0:
29,243,10731,1,0,2:0:0:0:
55,246,10814,1,0,3:0:0:0:
79,257,10898,1,0,2:0:0:0:
100,273,10981,1,0,3:0:0:0:
122,288,11064,1,0,2:0:0:0:
146,299,11148,1,0,3:0:0:0:
172,304,11231,1,0,2:0:0:0:
199,304,11314,6,0,P|221:301|245:289,1,42.5,0|0,3:0|3:0,2:0:0:0:
309,144,11481,2,0,P|292:157|277:180,1,42.5,0|0,3:0|3:0,2:0:0:0:
304,368,11648,6,0,P|311:347|313:320,1,42.5,0|0,3:0|3:0,2:0:0:0:
184,124,11814,2,0,P|187:145|199:169,1,42.5,0|0,3:0|3:0,2:0:0:0:
462,211,11981,37,14,3:0:0:0:
409,212,12064,1,10,2:3:0:0:
143,314,12231,2,0,L|185:316,1,42.5,10|0,2:3|2:0,2:0:0:0:
296,362,12398,1,10,2:3:0:0:
290,311,12481,1,10,2:3:0:0:
284,261,12564,1,10,2:3:0:0:
278,212,12648,1,14,2:3:0:0:
278,212,12981,5,0,1:3:0:0:
292,227,13064,1,0,1:3:0:0:
311,237,13147,1,0,1:3:0:0:
332,240,13231,1,0,1:3:0:0:
353,236,13314,6,0,P|404:213|441:158,1,101.999996887207,4|2,3:2|2:0,2:0:0:0:
240,17,13648,1,8,2:0:0:0:
348,153,13814,1,2,2:0:0:0:
427,10,13981,1,0,3:0:0:0:
240,154,14148,1,2,2:0:0:0:
224,150,14231,1,0,2:0:0:0:
209,147,14314,2,0,P|160:144|101:162,1,101.999996887207,8|2,2:0|2:0,2:0:0:0:
280,287,14648,5,0,3:0:0:0:
357,83,14814,1,2,2:0:0:0:
354,68,14898,1,0,2:0:0:0:
348,52,14981,1,8,2:0:0:0:
306,221,15148,1,2,2:0:0:0:
501,86,15314,1,0,3:0:0:0:
209,147,15481,1,2,2:0:0:0:
224,144,15565,1,0,2:0:0:0:
239,141,15648,1,10,2:0:0:0:
396,247,15814,2,0,L|389:317,1,50.9999984436036,2|0,2:0|2:0,2:0:0:0:
266,384,15981,38,0,L|251:252,1,101.999996887207,0|2,3:0|2:0,2:0:0:0:
314,184,16231,1,0,2:0:0:0:
313,203,16314,1,8,2:0:0:0:
118,241,16481,1,2,2:0:0:0:
302,104,16648,1,0,3:0:0:0:
391,347,16814,1,2,2:0:0:0:
394,328,16898,1,0,2:0:0:0:
397,309,16981,1,8,2:0:0:0:
435,87,17148,2,0,L|426:137,1,50.9999984436036,2|0,2:0|2:0,2:0:0:0:
298,281,17314,6,0,P|240:281|190:239,1,101.999996887207,0|2,3:0|2:0,2:0:0:0:
131,225,17564,1,0,2:0:0:0:
142,219,17648,2,0,P|152:183|145:149,1,50.9999984436036,8|0,2:0|2:0,2:0:0:0:
16,98,17814,2,0,P|9:122|9:148,1,50.9999984436036,2|0,2:0|2:0,2:0:0:0:
272,185,17981,38,0,P|269:168|263:152,5,33.9999989624024,0|0|0|2|0|0,3:0|2:0|2:0|2:0|2:0|2:0,2:0:0:0:
204,48,18314,54,0,P|197:73|204:114,1,50.9999984436036,10|0,1:2|1:0,2:0:0:0:
494,255,18481,1,2,1:2:0:0:
512,204,18564,1,0,1:0:0:0:
481,162,18648,6,0,L|415:171,1,50.9999984436036,4|0,3:2|2:0,2:0:0:0:
185,196,18814,1,2,2:0:0:0:
417,299,18981,2,0,L|347:289,1,50.9999984436036,8|0,2:0|2:0,2:0:0:0:
121,265,19147,1,2,2:0:0:0:
312,122,19314,1,0,3:0:0:0:
215,345,19481,1,2,2:0:0:0:
209,334,19564,1,0,2:0:0:0:
205,321,19648,1,8,2:0:0:0:
331,124,19814,1,2,2:0:0:0:
215,345,19981,37,0,3:0:0:0:
18,175,20148,1,2,2:0:0:0:
30,175,20231,1,0,2:0:0:0:
43,178,20315,1,8,2:0:0:0:
299,264,20481,1,2,2:0:0:0:
113,295,20648,1,0,3:0:0:0:
331,124,20814,1,2,2:0:0:0:
215,345,20981,1,8,2:0:0:0:
165,94,21148,1,2,2:0:0:0:
389,224,21314,6,0,P|395:288|381:350,1,101.999996887207,0|2,3:0|2:0,2:0:0:0:
296,375,21564,1,0,2:0:0:0:
312,371,21648,1,8,2:0:0:0:
508,277,21814,1,2,2:0:0:0:
254,254,21981,1,0,3:0:0:0:
396,384,22148,1,2,2:0:0:0:
395,362,22231,1,0,2:0:0:0:
391,340,22314,1,8,2:0:0:0:
258,148,22481,1,2,2:0:0:0:
404,342,22648,5,0,3:0:0:0:
504,130,22814,1,2,2:0:0:0:
167,275,22981,2,0,P|107:285|14:271,1,110.499994941712,10|0,2:0|2:0,2:0:0:0:
91,111,23314,5,0,3:0:0:0:
220,338,23481,1,0,3:0:0:0:
241,312,23564,1,0,2:0:0:0:
249,272,23648,37,8,1:3:0:0:
311,310,23731,1,0,1:3:0:0:
385,313,23814,1,2,1:2:0:0:
450,279,23897,1,0,1:3:0:0:
491,218,23981,37,4,3:2:0:0:
469,181,24064,1,0,2:0:0:0:
435,156,24147,1,0,2:0:0:0:
395,144,24230,1,0,2:0:0:0:
353,148,24314,2,0,L|310:155,3,42.5,8|0|0|0,2:0|2:0|2:0|2:0,2:0:0:0:
227,199,24648,37,0,3:0:0:0:
174,202,24731,1,0,2:0:0:0:
128,176,24814,1,0,2:0:0:0:
103,130,24897,1,0,2:0:0:0:
105,79,24981,1,8,2:0:0:0:
130,123,25064,1,0,2:0:0:0:
128,176,25147,1,0,2:0:0:0:
99,218,25230,1,0,2:0:0:0:
51,239,25314,6,0,P|25:239|3:233,3,42.5,4|0|0|0,3:2|2:0|2:0|2:0,2:0:0:0:
153,318,25648,2,0,P|179:318|201:324,3,42.5,8|0|0|0,2:0|2:0|2:0|2:0,2:0:0:0:
60,225,25981,5,0,3:0:0:0:
34,178,26064,1,0,2:0:0:0:
32,126,26147,1,0,2:0:0:0:
54,78,26230,1,0,2:0:0:0:
96,45,26314,2,0,P|122:36|146:34,1,42.5,10|0,3:0|2:0,2:0:0:0:
265,217,26481,2,0,P|244:213|224:206,1,42.5,0|0,3:0|2:0,2:0:0:0:
389,27,26648,22,0,L|385:65,5,28.3333333333333,4|0|0|0|0|0,3:2|2:0|2:0|3:0|2:0|2:0,2:0:0:0:
502,80,26981,2,0,L|498:118,5,28.3333333333333,12|0|0|0|0|0,3:2|2:0|2:0|3:0|2:0|2:0,2:0:0:0:
427,142,27314,21,4,3:2:0:0:
487,190,27397,1,0,3:0:0:0:
499,263,27480,1,0,3:0:0:0:
469,328,27563,1,0,3:0:0:0:
405,363,27647,1,12,3:2:0:0:
333,357,27730,1,0,3:0:0:0:
279,308,27813,1,0,3:0:0:0:
262,239,27897,1,0,3:0:0:0:
333,181,27981,6,0,P|333:158|329:120,7,31.8750012159348,2|0|0|0|0|0|0|0,3:0|2:0|2:0|2:0|2:0|2:0|2:0|2:0,2:0:0:0:
335,72,28648,6,0,P|303:77|270:99,1,57.3750002188683,2|0,2:0|2:0,2:0:0:0:
167,133,28814,2,0,P|199:138|232:160,1,57.3750002188683,2|0,2:0|3:0,2:0:0:0:
333,61,28981,6,0,P|301:66|268:88,1,57.3750002188683,2|0,3:2|2:0,2:0:0:0:
162,142,29147,2,0,P|194:147|227:169,1,57.3750002188683,2|0,3:2|2:0,2:0:0:0:
423,32,29314,38,0,L|415:148,1,85,4|0,3:2|2:0,2:0:0:0:
447,203,29564,1,0,2:0:0:0:
436,174,29648,1,8,2:0:0:0:
328,342,29814,1,0,2:0:0:0:
462,249,29981,2,0,L|397:255,1,42.5,0|0,3:0|2:0,2:0:0:0:
282,178,30148,1,0,2:0:0:0:
311,181,30231,1,0,2:0:0:0:
340,186,30314,1,8,2:0:0:0:
249,328,30481,2,0,L|142:334,1,85,0|0,2:0|3:0,2:0:0:0:
21,182,30814,2,0,B|45:184|83:198,1,42.5,0|0,2:0|2:0,2:0:0:0:
91,363,30981,2,0,P|87:312|119:268,1,85,8|0,2:0|2:0,2:0:0:0:
163,123,31314,6,0,L|168:189,1,42.5,0|0,3:0|2:0,2:0:0:0:
202,273,31481,2,0,L|205:230,1,42.5,0|0,2:0|2:0,2:0:0:0:
83,82,31648,1,8,2:0:0:0:
270,143,31814,2,0,P|292:144|328:127,1,42.5,2|0,2:0|2:0,2:0:0:0:
464,109,31981,6,0,P|402:82|356:92,1,85,0|0,3:0|2:0,2:0:0:0:
403,169,32231,1,0,2:0:0:0:
403,169,32314,2,0,B|411:214|411:214|399:251,1,85,8|0,2:0|2:0,2:0:0:0:
315,383,32648,2,0,B|303:346|303:346|311:300,1,85,0|0,3:0|2:0,2:0:0:0:
321,205,32898,1,0,2:0:0:0:
327,233,32981,1,8,2:0:0:0:
480,173,33148,1,0,2:0:0:0:
248,157,33314,5,0,3:0:0:0:
311,300,33481,1,0,2:0:0:0:
145,205,33648,1,8,2:0:0:0:
329,96,33814,1,0,2:0:0:0:
222,275,33981,37,0,3:0:0:0:
186,302,34064,1,0,2:0:0:0:
153,311,34148,2,0,P|129:312|105:305,2,28.3333333333333,0|0|0,2:0|2:0|2:0,2:0:0:0:
238,352,34314,1,8,2:0:0:0:
168,132,34481,1,2,2:0:0:0:
39,306,34648,6,0,L|138:311,1,85,4|0,3:2|2:0,2:0:0:0:
162,224,34898,1,0,2:0:0:0:
120,219,34981,1,8,2:0:0:0:
77,216,35064,1,0,2:0:0:0:
34,213,35148,1,0,2:0:0:0:
127,384,35314,1,0,3:0:0:0:
203,213,35481,1,0,2:0:0:0:
203,213,35564,2,0,L|146:227,1,42.5,0|8,2:0|2:0,2:0:0:0:
39,118,35731,1,0,2:0:0:0:
39,118,35814,2,0,L|132:132,1,85,0|0,2:0|3:0,2:0:0:0:
289,58,36148,2,0,B|267:65|245:88,1,42.5,0|0,2:0|2:0,2:0:0:0:
304,218,36314,2,0,B|312:111,1,85,8|0,2:0|2:0,2:0:0:0:
398,276,36648,5,0,3:0:0:0:
273,317,36814,1,0,2:0:0:0:
401,157,36981,1,8,2:0:0:0:
455,351,37148,2,0,L|464:298,1,42.5,2|0,2:0|2:0,2:0:0:0:
507,235,37314,6,0,P|464:223|406:245,1,85,0|0,3:0|2:0,2:0:0:0:
367,323,37564,1,0,2:0:0:0:
367,323,37648,2,0,B|343:293|343:293|268:282,1,85,8|0,2:0|2:0,2:0:0:0:
117,384,37981,2,0,B|141:354|141:354|216:343,1,85,0|0,3:0|2:0,2:0:0:0:
216,260,38231,1,0,2:0:0:0:
186,263,38314,1,8,2:0:0:0:
0,286,38481,1,0,2:0:0:0:
118,125,38648,37,0,3:0:0:0:
101,303,38814,1,0,2:0:0:0:
97,332,38898,1,0,3:0:0:0:
95,361,38981,1,8,2:0:0:0:
0,155,39148,1,0,2:0:0:0:
198,221,39314,2,0,P|243:227|307:212,1,85,0|2,3:0|1:3,2:0:0:0:
358,200,39564,1,2,1:3:0:0:
303,146,39648,2,0,P|286:100|286:81,1,42.5,8|0,1:2|1:0,2:0:0:0:
350,346,39814,2,0,P|339:364|334:384,1,42.5,2|0,1:2|1:0,2:0:0:0:
481,138,39981,6,0,L|360:126,1,85,4|0,3:2|2:0,2:0:0:0:
341,41,40231,1,0,2:0:0:0:
383,44,40314,1,8,2:0:0:0:
425,47,40398,1,0,2:0:0:0:
467,51,40481,1,0,2:0:0:0:
290,226,40648,1,0,3:0:0:0:
341,41,40814,1,0,2:0:0:0:
396,243,40981,1,8,2:0:0:0:
207,122,41148,1,0,2:0:0:0:
295,318,41314,5,0,3:0:0:0:
302,298,41398,1,0,2:0:0:0:
305,272,41481,1,0,2:0:0:0:
296,248,41564,1,0,3:0:0:0:
273,227,41648,1,8,2:0:0:0:
244,219,41731,1,0,2:0:0:0:
211,227,41814,1,0,2:0:0:0:
182,253,41898,1,0,3:0:0:0:
175,294,41981,6,0,L|60:258,1,85,0|0,3:0|3:0,2:0:0:0:
10,264,42231,1,0,2:0:0:0:
86,234,42314,1,10,2:3:0:0:
0,74,42481,1,0,3:0:0:0:
12,293,42648,38,0,L|121:260,1,85,4|0,3:2|2:0,2:0:0:0:
184,216,42898,1,0,2:0:0:0:
198,241,42981,1,8,2:0:0:0:
201,270,43064,1,0,2:0:0:0:
189,302,43148,1,0,2:0:0:0:
188,335,43231,1,0,2:0:0:0:
211,364,43314,5,0,3:0:0:0:
292,140,43481,1,0,2:0:0:0:
341,368,43648,1,8,2:0:0:0:
184,216,43814,1,0,2:0:0:0:
408,273,43981,5,0,3:0:0:0:
445,243,44064,1,0,2:0:0:0:
457,204,44148,1,0,2:0:0:0:
452,172,44231,1,0,2:0:0:0:
434,147,44314,22,0,P|421:175|420:212,1,56.6666666666667,8|0,2:0|3:0,2:0:0:0:
354,126,44537,1,0,1:3:0:0:
329,207,44648,2,0,P|332:237|349:270,1,56.6666666666667,0|0,3:0|1:3,2:0:0:0:
248,220,44870,1,0,3:0:0:0:
269,306,44981,2,0,P|286:330|374:345,1,113.333333333333,2|0,1:3|3:0,2:0:0:0:
190,282,45314,22,0,P|139:307|75:298,1,85,4|0,3:2|2:0,2:0:0:0:
136,92,45648,2,0,L|129:238,1,113.333333333333,8|0,2:0|2:0,2:0:0:0:
214,205,45981,1,4,3:2:0:0:
0,44,46148,1,0,2:0:0:0:
218,120,46314,1,8,2:0:0:0:
21,241,46481,1,0,2:0:0:0:
284,164,46648,6,0,B|306:148|306:148|350:142,1,42.5,4|0,3:2|2:0,2:0:0:0:
197,288,46814,2,0,B|172:276|172:276|144:241,1,42.5,0|0,2:0|2:0,2:0:0:0:
337,218,46981,2,0,B|365:211|365:211|445:235,1,85,8|0,2:0|2:0,2:0:0:0:
474,293,47231,1,0,2:0:0:0:
497,263,47314,2,0,L|501:159,1,85,4|0,3:2|2:0,2:0:0:0:
428,108,47564,1,0,2:0:0:0:
430,146,47648,1,8,2:0:0:0:
411,1,47814,2,0,P|445:-1|466:5,1,42.5,2|0,2:0|2:0,2:0:0:0:
320,72,47981,6,0,P|255:89|212:79,1,85,4|0,3:2|2:0,2:0:0:0:
70,177,48314,2,0,P|138:147|172:149,1,102,8|0,2:0|2:0,2:0:0:0:
142,241,48648,1,4,3:2:0:0:
154,57,48814,1,0,2:0:0:0:
242,234,48981,1,8,2:0:0:0:
0,154,49148,1,0,2:0:0:0:
207,312,49314,5,0,3:0:0:0:
251,319,49398,1,0,2:0:0:0:
293,303,49481,1,0,2:0:0:0:
314,279,49564,1,0,2:0:0:0:
324,242,49648,2,0,L|335:334,1,85,8|0,2:0|2:0,2:0:0:0:
290,156,49981,1,0,3:0:0:0:
466,207,50148,2,0,L|512:221,2,28.3333333333333,0|0|0,2:0|2:0|2:0,2:0:0:0:
388,161,50314,1,8,2:0:0:0:
417,384,50481,1,2,2:0:0:0:
457,104,50648,6,0,P|425:82|330:87,1,127.500004863739,4|0,1:2|1:3,2:0:0:0:
339,82,51314,1,2,1:2:0:0:
289,106,51426,1,0,1:3:0:0:
273,158,51537,1,0,1:3:0:0:
349,201,51648,2,0,P|356:153|350:132,1,42.5000016212464,2|0,1:2|2:0,2:0:0:0:
205,106,51870,1,0,1:3:0:0:
141,152,51981,5,2,2:0:0:0:
141,152,52092,1,0,1:3:0:0:
294,277,52314,1,0,1:3:0:0:
205,106,52537,1,0,1:3:0:0:
205,106,52648,69,2,1:2:0:0:
219,149,52759,1,0,1:3:0:0:
202,191,52870,1,0,1:3:0:0:
189,304,52981,5,2,1:3:0:0:
257,272,53092,1,0,2:0:0:0:
334,285,53203,1,0,1:3:0:0:
389,343,53314,70,0,P|423:341|463:322,1,42.5000016212464,2|0,1:3|2:0,2:0:0:0:
501,282,53537,1,0,1:3:0:0:
420,235,53648,2,0,P|410:193|412:151,1,85.0000032424928,0|0,1:3|1:3,2:0:0:0:
510,63,53981,5,2,1:3:0:0:
454,83,54092,1,0,1:3:0:0:
397,75,54203,1,0,1:3:0:0:
351,41,54314,2,0,P|345:-16|347:-35,1,42.5000016212464,2|0,1:2|2:0,2:0:0:0:
230,132,54537,1,0,1:3:0:0:
296,172,54648,5,2,1:3:0:0:
306,129,54981,1,2,1:3:0:0:
238,331,55314,5,2,3:2:0:0:
208,312,55398,1,0,3:0:0:0:
174,302,55481,1,0,3:0:0:0:
139,306,55564,1,0,3:0:0:0:
109,325,55648,5,2,3:2:0:0:
161,337,55731,1,0,3:0:0:0:
208,312,55814,1,0,3:0:0:0:
219,258,55898,1,0,3:0:0:0:
165,199,55981,6,0,L|301:219,1,93.5000028533936,4|0,3:2|2:0,2:0:0:0:
173,38,56314,2,0,L|37:58,1,93.5000028533936,8|0,2:0|2:0,2:0:0:0:
347,223,56648,1,4,3:2:0:0:
263,29,56814,1,0,2:0:0:0:
256,61,56898,1,0,2:0:0:0:
250,93,56981,1,8,2:0:0:0:
209,283,57148,1,0,2:0:0:0:
384,90,57314,37,4,3:2:0:0:
416,86,57398,1,0,2:0:0:0:
446,97,57481,1,0,2:0:0:0:
471,117,57564,1,0,2:0:0:0:
484,147,57648,1,8,2:0:0:0:
483,179,57731,1,0,2:0:0:0:
467,207,57814,1,0,2:0:0:0:
308,358,57981,5,4,3:2:0:0:
280,320,58064,1,0,2:0:0:0:
282,272,58148,1,0,2:0:0:0:
307,233,58231,1,0,2:0:0:0:
348,211,58314,1,8,2:0:0:0:
394,219,58398,1,0,2:0:0:0:
432,245,58481,1,2,2:0:0:0:
189,33,58648,6,0,L|194:132,1,55.2499974708558,4|0,3:2|2:0,2:0:0:0:
209,251,58814,2,0,L|211:195,1,55.2499974708558,0|0,3:0|2:0,2:0:0:0:
55,100,58981,2,0,L|110:97,1,55.2499974708558,8|0,3:2|2:0,2:0:0:0:
348,211,59148,2,0,L|292:208,1,55.2499974708558,0|0,3:0|2:0,2:0:0:0:
42,199,59314,5,0,3:0:0:0:
74,221,59398,1,0,2:0:0:0:
91,255,59481,1,0,3:0:0:0:
94,293,59564,1,0,2:0:0:0:
82,330,59648,37,8,3:2:0:0:
136,303,59731,1,0,2:0:0:0:
196,302,59814,1,0,3:0:0:0:
253,322,59898,1,0,2:0:0:0:
296,363,59981,6,0,L|298:292,1,55.2499974708558,0|0,3:0|3:0,2:0:0:0:
448,144,60148,2,0,L|449:199,1,55.2499974708558,0|0,3:0|3:0,2:0:0:0:
196,302,60314,1,8,3:2:0:0:
218,234,60398,1,0,3:0:0:0:
279,204,60481,1,0,3:0:0:0:
349,213,60564,1,0,3:0:0:0:
401,267,60648,6,0,P|432:284|458:287,1,55.2499974708558,2|0,3:0|3:0,2:0:0:0:
118,99,60814,2,0,P|87:82|61:79,1,55.2499974708558,2|0,3:0|3:0,2:0:0:0:
481,36,60981,5,10,3:0:0:0:
434,98,61064,1,2,3:0:0:0:
364,133,61148,1,2,3:0:0:0:
286,136,61231,1,2,3:0:0:0:
211,99,61314,38,0,P|181:46|60:15,1,161.499995687485,6|0,3:2|2:0,2:0:0:0:
5,28,61564,1,0,2:0:0:0:
59,88,61648,1,8,2:0:0:0:
0,309,61814,2,0,L|22:147,1,127.500004863739,0|0,2:0|3:0,2:0:0:0:
251,3,62148,1,2,2:0:0:0:
304,248,62314,1,10,2:0:0:0:
52,88,62481,1,2,2:0:0:0:
312,256,62648,5,2,3:2:0:0:
371,277,62731,1,0,2:0:0:0:
434,267,62814,1,0,2:0:0:0:
484,230,62898,1,0,2:0:0:0:
512,173,62981,2,0,P|508:96|474:41,1,127.500004863739,10|0,2:0|2:0,2:0:0:0:
224,279,63314,5,2,3:2:0:0:
195,239,63397,1,0,2:0:0:0:
183,193,63480,1,0,2:0:0:0:
189,145,63564,1,0,2:0:0:0:
230,123,63648,5,10,2:0:0:0:
229,134,63731,1,0,2:0:0:0:
227,145,63814,1,2,2:0:0:0:
226,157,63898,1,0,2:0:0:0:
224,168,63981,69,6,3:2:0:0:
150,179,64064,1,0,2:0:0:0:
86,141,64147,1,0,2:0:0:0:
56,74,64231,1,0,2:0:0:0:
52,0,64314,5,14,2:0:0:0:
110,28,64397,1,0,2:0:0:0:
124,89,64480,1,0,2:0:0:0:
86,141,64564,1,0,2:0:0:0:
32,172,64648,69,6,3:2:0:0:
23,249,64731,1,0,2:0:0:0:
70,311,64814,1,0,2:0:0:0:
146,326,64898,1,0,2:0:0:0:
214,285,64981,69,14,2:0:0:0:
262,269,65064,1,0,2:0:0:0:
311,280,65147,1,0,2:0:0:0:
347,315,65231,1,0,2:0:0:0:
274,351,65314,6,0,P|281:287|301:191,1,161.499995687485,6|0,3:2|2:0,2:0:0:0:
375,162,65564,5,2,1:3:0:0:
384,381,65814,70,0,P|366:338|360:292,1,63.7500024318696,2|0,1:3|2:0,2:0:0:0:
309,111,65981,6,0,P|250:68|150:74,1,127.500004863739,6|0,3:2|2:0,2:0:0:0:
66,121,66231,1,0,3:0:0:0:
132,153,66314,1,2,1:2:0:0:
117,339,66481,6,0,L|112:308,2,31.8750012159348,0|0|0,1:3|2:0|1:3,2:0:0:0:
179,257,66648,38,0,L|344:237,1,152.999995330811,6|0,3:2|2:0,2:0:0:0:
423,329,66898,1,2,2:0:0:0:
354,314,66981,1,8,2:0:0:0:
229,166,67148,1,2,2:0:0:0:
512,58,67314,6,0,L|482:222,1,152.999995330811,6|0,3:2|2:0,2:0:0:0:
491,362,67564,1,0,2:0:0:0:
506,294,67647,1,10,2:0:0:0:
422,115,67814,1,2,2:0:0:0:
173,363,67981,6,0,P|100:318|73:224,1,152.999995330811,6|0,3:2|2:0,2:0:0:0:
198,182,68231,1,2,2:0:0:0:
180,259,68314,1,8,2:0:0:0:
0,1,68481,1,2,2:0:0:0:
266,127,68648,54,0,L|405:111,1,127.500004863739,6|0,3:2|2:0,2:0:0:0:
500,35,68898,1,0,2:0:0:0:
425,19,68981,1,10,2:0:0:0:
504,252,69148,1,2,2:0:0:0:
310,53,69314,5,6,3:2:0:0:
267,31,69397,1,0,2:0:0:0:
220,29,69480,1,0,2:0:0:0:
176,46,69563,1,0,2:0:0:0:
142,80,69647,1,8,3:2:0:0:
126,125,69730,1,0,2:0:0:0:
129,172,69813,1,2,2:0:0:0:
190,226,69898,1,2,2:0:0:0:
272,217,69981,5,6,3:2:0:0:
233,164,70064,1,0,2:0:0:0:
175,142,70147,1,2,2:0:0:0:
116,154,70230,1,0,3:0:0:0:
70,197,70314,1,10,3:2:0:0:
57,256,70397,1,0,2:0:0:0:
73,314,70480,1,2,3:2:0:0:
121,356,70564,1,0,2:0:0:0:
181,358,70647,37,4,3:2:0:0:
253,335,70731,1,2,3:0:0:0:
330,93,70898,1,2,3:0:0:0:
334,368,71064,37,2,3:0:0:0:
376,363,71148,1,2,3:0:0:0:
350,330,71231,1,2,1:3:0:0:
355,352,71314,2,0,P|373:289|364:232,2,85.0000032424928,2|2|2,1:3|1:3|3:0,2:0:0:0:
181,358,71648,38,0,P|159:328|94:338,1,95.6250036478044,2|0,1:3|2:0,2:0:0:0:
85,340,71981,6,0,P|115:266|86:196,1,127.500004863739,6|0,3:2|2:0,2:0:0:0:
11,101,72231,1,0,2:0:0:0:
26,159,72314,1,8,2:0:0:0:
280,263,72481,2,0,P|348:232|378:174,1,127.500004863739,0|0,2:0|3:0,2:0:0:0:
242,19,72814,1,2,2:0:0:0:
415,289,72981,1,10,2:0:0:0:
495,0,73148,1,2,2:0:0:0:
226,163,73314,5,2,3:2:0:0:
193,184,73397,1,0,2:0:0:0:
154,191,73480,1,0,2:0:0:0:
115,182,73563,1,0,2:0:0:0:
83,159,73647,1,10,2:0:0:0:
64,124,73730,1,0,2:0:0:0:
59,85,73813,1,0,2:0:0:0:
71,47,73897,1,0,2:0:0:0:
133,12,73981,5,2,3:2:0:0:
140,75,74064,1,0,3:0:0:0:
147,138,74147,1,0,3:0:0:0:
154,202,74230,1,0,3:0:0:0:
163,276,74314,38,0,L|154:365,1,63.7500024318696,10|0,2:0|2:0,2:0:0:0:
258,75,74481,2,0,L|249:-14,1,63.7500024318696,2|0,3:2|2:0,2:0:0:0:
497,287,74648,5,6,3:2:0:0:
460,231,74731,1,0,3:0:0:0:
410,192,74814,1,0,3:0:0:0:
347,173,74897,1,0,3:0:0:0:
283,176,74981,1,4,1:3:0:0:
225,203,75064,1,0,1:3:0:0:
182,265,75148,2,0,L|188:328,1,63.7500024318696,2|2,1:2|1:2,2:0:0:0:
13,227,75314,5,6,3:2:0:0:
18,168,75397,1,0,2:0:0:0:
24,113,75480,1,2,3:2:0:0:
31,56,75563,1,0,2:0:0:0:
6,31,75648,5,14,1:2:0:0:
14,102,75731,1,0,1:0:0:0:
30,175,75814,1,2,3:2:0:0:
46,251,75898,1,0,2:0:0:0:
71,322,75981,38,0,P|116:353|211:318,1,127.500004863739,6|0,3:2|2:0,2:0:0:0:
241,229,76231,2,0,P|185:227|135:289,1,127.500004863739,2|0,1:3|2:0,2:0:0:0:
309,384,76481,6,0,P|330:355|329:246,1,97.7500018644333,2|0,1:3|2:0,2:0:0:0:
391,132,76648,6,0,P|384:89|288:15,1,159.375,6|0,3:2|3:0,2:0:0:0:
174,63,76981,1,2,1:2:0:0:
155,112,77064,1,0,0:0:0:0:
161,164,77147,1,2,1:2:0:0:
193,206,77230,1,0,1:3:0:0:
241,229,77314,6,0,P|173:247|84:194,1,152.999995330811,6|0,3:2|2:0,2:0:0:0:
10,119,77564,1,2,2:0:0:0:
27,193,77648,1,8,2:0:0:0:
98,381,77814,1,2,2:0:0:0:
340,304,77981,38,0,P|375:250|366:149,1,152.999995330811,6|0,3:2|2:0,2:0:0:0:
274,78,78231,1,0,2:0:0:0:
295,144,78314,1,10,2:0:0:0:
450,345,78481,1,2,2:0:0:0:
492,39,78648,6,0,P|429:42|365:130,1,152.999995330811,6|0,3:2|2:0,2:0:0:0:
447,245,78898,1,2,2:0:0:0:
458,171,78981,1,8,2:0:0:0:
303,6,79148,1,2,2:0:0:0:
444,338,79314,6,0,L|463:186,1,152.999995330811,6|0,3:2|2:0,2:0:0:0:
492,39,79564,1,0,2:0:0:0:
485,29,79648,2,0,L|473:124,1,85,10|2,2:0|2:0,2:0:0:0:
333,281,79981,5,6,3:2:0:0:
317,248,80065,1,0,2:0:0:0:
298,221,80148,1,0,3:0:0:0:
276,196,80231,1,0,2:0:0:0:
243,169,80315,1,8,3:2:0:0:
198,156,80398,1,0,2:0:0:0:
144,155,80481,1,2,3:2:0:0:
87,176,80564,1,2,2:0:0:0:
47,231,80648,53,6,3:2:0:0:
116,248,80731,1,0,2:0:0:0:
180,219,80814,1,2,3:2:0:0:
211,156,80897,1,0,3:0:0:0:
196,90,80981,1,10,3:2:0:0:
151,55,81064,1,0,2:0:0:0:
98,42,81147,1,2,3:2:0:0:
46,62,81231,1,0,2:0:0:0:
12,103,81314,21,6,3:2:0:0:
83,111,81397,1,0,3:0:0:0:
153,118,81480,1,0,3:0:0:0:
224,125,81563,1,2,3:2:0:0:
271,183,81648,37,0,3:0:0:0:
341,175,81731,1,0,3:0:0:0:
411,168,81814,1,2,3:2:0:0:
482,160,81897,1,0,3:0:0:0:
504,88,81981,6,0,L|513:5,1,63.7500024318696,2|0,3:0|3:0,2:0:0:0:
311,310,82148,2,0,L|324:392,1,63.7500024318696,2|0,3:0|3:0,2:0:0:0:
192,60,82314,5,2,3:0:0:0:
113,33,82397,1,2,3:0:0:0:
37,65,82480,1,2,3:0:0:0:
1,140,82563,1,2,3:0:0:0:
24,227,82648,22,0,P|92:276|146:273,1,107.666663791657,4|0,1:2|2:0,2:0:0:0:
213,217,82981,1,0,1:3:0:0:
271,208,83092,1,0,2:0:0:0:
324,232,83203,1,0,2:0:0:0:
389,365,83314,5,0,1:3:0:0:
327,311,83426,1,0,1:3:0:0:
324,232,83537,1,0,1:3:0:0:
385,175,83648,69,0,1:3:0:0:
429,195,83759,1,0,2:0:0:0:
474,188,83870,1,0,1:3:0:0:
363,96,83981,5,0,3:0:0:0:
282,83,84092,1,0,1:0:0:0:
311,161,84203,1,0,2:0:0:0:
205,115,84314,69,0,1:3:0:0:
173,158,84425,1,0,2:0:0:0:
227,165,84536,1,0,1:0:0:0:
306,283,84648,5,0,1:3:0:0:
222,332,84759,1,0,1:3:0:0:
129,307,84870,1,0,1:3:0:0:
94,215,84981,70,0,L|97:171,1,39.6666654561361,2|0,1:3|1:3,2:0:0:0:
68,339,85314,6,0,L|78:148,1,153.000000583649,2|0,1:3|1:3,2:0:0:0:
32,38,85648,69,0,1:3:0:0:
76,77,85759,1,0,2:0:0:0:
134,87,85870,1,0,1:3:0:0:
285,0,85981,5,2,1:3:0:0:
215,10,86092,1,0,1:3:0:0:
181,71,86203,1,0,1:3:0:0:
194,139,86314,1,0,1:3:0:0:
237,172,86426,1,0,2:0:0:0:
283,172,86537,1,0,1:3:0:0:
367,96,86648,69,2,3:0:0:0:
354,126,86759,1,0,1:3:0:0:
361,173,86870,1,0,2:0:0:0:
502,110,86981,5,2,1:3:0:0:
482,83,87092,1,0,2:0:0:0:
438,66,87203,1,0,1:3:0:0:
428,222,87314,69,2,3:0:0:0:
479,207,87426,2,0,P|489:198|497:188,3,26.9166659479141,0|0|0|0,2:0|3:0|2:0|2:0,2:0:0:0:
494,325,87648,22,0,L|497:369,3,44.6249986381531,2|0|0|0,3:0|3:0|3:0|3:0,2:0:0:0:
386,316,87981,5,4,3:2:0:0:
340,302,88064,1,0,2:0:0:0:
301,309,88148,1,0,2:0:0:0:
265,331,88231,1,0,2:0:0:0:
214,343,88314,1,8,2:0:0:0:
162,327,88398,1,0,2:0:0:0:
135,282,88481,1,0,2:0:0:0:
153,211,88564,1,0,2:0:0:0:
222,186,88648,5,0,3:0:0:0:
149,167,88731,1,0,2:0:0:0:
135,116,88814,1,0,2:0:0:0:
162,67,88898,1,0,2:0:0:0:
215,51,88981,1,8,2:0:0:0:
260,68,89064,1,0,2:0:0:0:
291,74,89148,1,0,2:0:0:0:
327,67,89231,1,0,2:0:0:0:
375,41,89314,5,0,3:0:0:0:
365,82,89398,1,0,2:0:0:0:
363,124,89481,1,0,2:0:0:0:
380,167,89564,1,0,2:0:0:0:
401,207,89648,1,8,2:0:0:0:
409,257,89731,1,0,2:0:0:0:
404,307,89814,1,0,2:0:0:0:
384,347,89898,1,0,2:0:0:0:
348,355,89981,37,0,3:0:0:0:
334,333,90064,1,0,2:0:0:0:
329,307,90148,1,0,2:0:0:0:
329,281,90231,1,0,2:0:0:0:
349,239,90314,5,8,2:0:0:0:
334,189,90398,1,0,2:0:0:0:
265,152,90481,1,2,2:0:0:0:
193,183,90564,1,0,2:0:0:0:
169,272,90648,5,0,3:0:0:0:
241,263,90731,1,0,2:0:0:0:
273,202,90814,1,0,2:0:0:0:
265,152,90898,1,0,2:0:0:0:
232,115,90981,1,8,2:0:0:0:
191,103,91064,1,0,2:0:0:0:
151,112,91148,1,0,2:0:0:0:
113,148,91231,1,0,2:0:0:0:
105,201,91314,5,0,3:0:0:0:
141,189,91398,1,0,2:0:0:0:
178,184,91481,1,0,2:0:0:0:
215,190,91564,1,0,2:0:0:0:
248,209,91648,1,8,2:0:0:0:
283,239,91731,1,0,2:0:0:0:
325,258,91814,1,0,2:0:0:0:
372,257,91898,1,0,2:0:0:0:
440,218,91981,6,0,L|456:163,2,36.8333316472372,0|0|0,3:0|2:0|2:0,2:0:0:0:
440,331,92148,2,0,L|456:276,2,36.8333316472372,0|0|0,2:0|2:0|2:0,2:0:0:0:
347,174,92314,6,0,L|331:119,2,36.8333316472372,8|0|0,2:0|2:0|2:0,2:0:0:0:
335,293,92481,2,0,L|319:238,2,36.8333316472372,0|0|0,2:0|2:0|2:0,2:0:0:0:
470,119,92648,69,0,3:0:0:0:
463,140,92703,1,0,2:0:0:0:
457,161,92759,1,0,2:0:0:0:
450,182,92814,2,0,L|439:217,2,36.8333316472372,0|0|0,2:0|2:0|2:0,2:0:0:0:
395,57,92981,2,0,L|384:22,2,36.8333316472372,8|0|0,2:0|2:0|2:0,2:0:0:0:
346,218,93148,5,2,2:0:0:0:
310,224,93203,1,0,2:0:0:0:
278,243,93259,1,0,2:0:0:0:
261,275,93314,6,0,L|160:255,1,85,4|0,3:2|2:0,2:0:0:0:
97,246,93564,1,0,2:0:0:0:
111,288,93648,1,10,2:0:0:0:
145,152,93814,1,2,2:0:0:0:
206,342,93981,1,2,3:2:0:0:
101,247,94148,1,2,2:0:0:0:
309,317,94314,5,10,2:0:0:0:
103,371,94481,1,2,2:0:0:0:
276,246,94648,6,0,P|346:249|381:278,1,85,2|0,3:2|2:0,2:0:0:0:
412,352,94898,1,0,2:0:0:0:
412,352,94981,2,0,P|379:289|387:245,1,85,10|0,2:0|2:0,2:0:0:0:
452,127,95314,2,0,P|444:168|419:202,1,85,2|0,3:2|2:0,2:0:0:0:
340,189,95564,1,0,2:0:0:0:
343,218,95648,1,10,2:0:0:0:
362,61,95814,2,0,L|368:7,1,42.5,2|2,2:0|2:0,2:0:0:0:
214,115,95981,6,0,B|223:150|306:120|306:120,1,85,2|0,3:2|2:0,2:0:0:0:
259,46,96231,1,0,2:0:0:0:
259,46,96314,2,0,L|174:41,1,85,8|0,2:0|2:0,2:0:0:0:
51,170,96648,1,2,3:2:0:0:
113,106,96814,1,2,2:0:0:0:
72,258,96981,1,10,2:0:0:0:
10,78,97148,1,2,2:0:0:0:
156,226,97314,38,0,P|160:286|143:326,1,85,2|0,3:2|2:0,2:0:0:0:
267,317,97564,2,0,P|213:290|186:255,1,85,2|0,2:0|2:0,2:0:0:0:
122,374,97814,1,2,2:0:0:0:
298,304,97981,2,0,L|341:285,5,28.3333333333333,2|0|0|0|0|0,3:2|2:0|2:0|2:0|2:0|2:0,2:0:0:0:
400,255,98314,5,10,2:0:0:0:
380,384,98481,1,2,2:0:0:0:
490,191,98648,6,0,L|477:41,1,127.5,6|0,3:2|2:0,2:0:0:0:
464,218,98981,2,0,L|450:51,1,165.749992412568,12|0,2:0|2:0,2:0:0:0:
341,29,99314,5,0,3:0:0:0:
368,187,99481,1,0,2:0:0:0:
373,216,99564,1,0,2:0:0:0:
379,245,99648,2,0,L|261:231,1,85,8|0,2:0|2:0,2:0:0:0:
123,147,99981,37,2,3:2:0:0:
296,122,100148,1,0,2:0:0:0:
315,118,100231,1,0,2:0:0:0:
339,113,100314,1,10,2:0:0:0:
165,215,100481,1,0,2:0:0:0:
187,84,100648,1,2,3:2:0:0:
159,257,100814,2,0,P|160:334|171:378,1,85,2|8,2:0|2:0,2:0:0:0:
100,134,101148,1,2,2:0:0:0:
121,376,101314,5,6,3:2:0:0:
75,238,101481,1,0,3:0:0:0:
234,361,101648,5,12,3:2:0:0:
176,178,101815,1,0,3:0:0:0:
346,344,101981,5,4,3:2:0:0:
287,126,102148,1,0,3:0:0:0:
463,323,102315,37,12,3:2:0:0:
394,68,102482,1,0,3:0:0:0:
234,361,102648,5,6,3:2:0:0:
264,331,102731,1,0,3:0:0:0:
280,291,102814,1,0,3:0:0:0:
269,249,102898,1,0,3:0:0:0:
242,217,102981,1,12,3:2:0:0:
228,189,103064,1,0,3:0:0:0:
229,169,103148,1,0,3:0:0:0:
235,150,103231,1,0,3:0:0:0:
314,175,103314,6,0,L|390:165,1,42.5,2|0,3:0|3:0,2:0:0:0:
107,92,103481,2,0,L|31:82,1,42.5,2|0,3:0|3:0,2:0:0:0:
337,245,103648,6,0,L|413:235,1,42.5,10|2,3:0|3:0,2:0:0:0:
84,162,103815,2,0,L|8:152,1,42.5,2|2,3:0|3:0,2:0:0:0:
288,312,103981,38,0,P|332:327|394:305,1,85,4|0,3:2|2:0,2:0:0:0:
444,279,104231,1,0,2:0:0:0:
456,324,104314,2,0,L|470:380,3,42.5,8|0|0|0,2:0|2:0|2:0|2:0,2:0:0:0:
421,210,104648,6,0,P|465:210|492:227,1,42.5,0|0,3:0|2:0,2:0:0:0:
288,312,104814,2,0,P|244:312|217:295,1,42.5,0|0,2:0|2:0,2:0:0:0:
359,155,104981,6,0,P|397:133|428:134,1,42.5,8|0,2:0|2:0,2:0:0:0:
368,326,105148,2,0,P|346:364|317:378,1,42.5,0|0,2:0|2:0,2:0:0:0:
287,185,105314,5,0,3:0:0:0:
209,300,105481,1,0,2:0:0:0:
205,278,105564,1,0,2:0:0:0:
201,257,105648,37,8,2:0:0:0:
136,101,105814,1,0,2:0:0:0:
131,120,105897,1,0,2:0:0:0:
128,142,105981,5,0,3:0:0:0:
107,109,106064,1,0,2:0:0:0:
76,85,106148,1,0,2:0:0:0:
38,81,106231,1,0,2:0:0:0:
0,147,106314,2,0,P|38:218|31:282,1,127.5,10|0,2:3|2:0,2:0:0:0:
13,337,106648,5,4,3:2:0:0:
84,323,106731,1,0,2:0:0:0:
261,214,106981,5,8,2:0:0:0:
190,200,107064,1,0,2:0:0:0:
149,364,107314,38,0,P|187:355|210:341,1,42.5,0|0,3:0|2:0,2:0:0:0:
301,203,107481,2,0,P|263:212|240:226,1,42.5,0|0,2:0|2:0,2:0:0:0:
261,384,107648,6,0,P|278:349|282:322,1,42.5,8|0,2:0|2:0,2:0:0:0:
208,161,107814,2,0,P|190:195|186:222,1,42.5,0|0,2:0|2:0,2:0:0:0:
116,217,107981,5,0,3:0:0:0:
138,257,108064,1,0,2:0:0:0:
181,275,108148,1,0,2:0:0:0:
226,267,108231,1,0,2:0:0:0:
266,243,108314,5,8,2:0:0:0:
295,244,108398,1,0,2:0:0:0:
323,253,108481,1,0,2:0:0:0:
347,269,108564,1,0,2:0:0:0:
365,292,108648,5,2,3:0:0:0:
445,231,108759,1,2,3:0:0:0:
460,327,108870,1,2,3:0:0:0:
365,206,108981,22,0,P|385:169|414:152,1,63.75,10|0,2:0|2:0,2:0:0:0:
512,91,109314,5,4,3:2:0:0:
477,116,109398,1,0,2:0:0:0:
435,123,109481,1,0,3:0:0:0:
393,113,109564,1,0,2:0:0:0:
360,84,109648,1,12,3:2:0:0:
320,69,109731,1,0,2:0:0:0:
277,67,109814,1,0,3:0:0:0:
237,82,109898,1,0,2:0:0:0:
207,112,109981,6,0,P|157:93|138:91,1,42.5,4|0,3:2|2:0,2:0:0:0:
47,267,110148,2,0,P|97:286|116:288,1,42.5,0|0,3:0|2:0,2:0:0:0:
87,38,110314,21,12,3:2:0:0:
76,61,110370,1,0,2:0:0:0:
71,86,110426,1,0,2:0:0:0:
73,111,110481,2,0,P|79:135|95:157,2,28.3333333333333,0|0|0,3:0|2:0|2:0,2:0:0:0:
168,95,110648,21,4,3:2:0:0:
182,134,110731,1,0,2:0:0:0:
175,175,110814,1,0,3:0:0:0:
160,215,110898,1,0,2:0:0:0:
156,257,110981,1,12,3:2:0:0:
177,293,111064,1,0,2:0:0:0:
216,308,111148,1,0,3:0:0:0:
258,304,111231,1,0,2:0:0:0:
287,274,111314,5,4,3:2:0:0:
307,321,111398,1,0,2:0:0:0:
352,344,111481,1,0,3:0:0:0:
406,340,111564,1,0,2:0:0:0:
449,304,111648,1,14,3:2:0:0:
433,95,111814,2,0,L|423:170,1,42.5,0|0,3:0|3:0,2:0:0:0:
468,212,111981,5,4,3:2:0:0:
444,220,112064,1,0,3:0:0:0:
418,222,112148,1,0,3:0:0:0:
394,213,112231,1,0,3:0:0:0:
373,198,112314,1,12,3:2:0:0:
353,181,112398,1,0,3:0:0:0:
328,174,112481,1,0,3:0:0:0:
302,177,112564,1,0,3:0:0:0:
277,185,112648,22,0,P|255:194|240:210,2,33.9999989624024,4|0|0,3:2|3:0|3:0,2:0:0:0:
225,305,112814,2,0,P|203:295|188:280,2,33.9999989624024,0|0|0,3:0|3:0|3:0,2:0:0:0:
163,159,112981,6,0,P|141:168|126:184,2,33.9999989624024,12|0|0,3:2|3:0|3:0,2:0:0:0:
82,292,113148,2,0,P|60:282|45:267,2,33.9999989624024,0|0|0,3:0|3:0|3:0,2:0:0:0:
48,101,113314,5,14,3:0:0:0:
56,182,113398,1,10,2:3:0:0:
132,0,113564,1,10,2:3:0:0:
147,205,113731,1,10,2:3:0:0:
153,254,113815,1,10,2:3:0:0:
159,304,113898,1,10,2:3:0:0:
165,355,113981,6,0,B|180:345|180:345|244:351,1,63.75,14|0,2:3|2:0,2:0:0:0:
307,379,114314,5,0,2:0:0:0:
313,356,114398,1,0,2:0:0:0:
312,333,114481,1,0,2:0:0:0:
305,311,114564,1,0,2:0:0:0:
291,291,114648,5,0,2:0:0:0:
200,257,114814,1,2,2:0:0:0:
291,291,114981,2,0,L|364:274,1,63.75,2|0,2:0|2:0,2:0:0:0:
445,238,115314,2,0,L|438:296,1,42.5,2|0,2:0|2:0,2:0:0:0:
361,285,115648,2,0,L|354:343,2,42.5,0|2|0,2:0|2:0|2:0,2:0:0:0:
376,174,116148,37,2,2:0:0:0:
361,285,116314,2,0,L|354:343,1,42.5,2|0,2:0|2:0,2:0:0:0:
365,333,116648,5,2,2:0:0:0:
282,314,116814,1,2,2:0:0:0:
213,244,116981,1,2,2:0:0:0:
201,125,117148,1,2,2:0:0:0:
327,29,117314,6,0,P|326:50|319:73,1,42.5,2|0,2:0|2:0,2:0:0:0:
201,125,117648,2,0,P|230:113|262:114,1,63.75,2|0,2:0|2:0,2:0:0:0:
333,142,117981,2,0,L|338:187,1,42.5,2|0,2:0|2:0,2:0:0:0:
347,257,118231,1,2,2:0:0:0:
475,176,118481,6,0,L|472:201,1,21.25,2|0,2:0|2:0,2:0:0:0:
480,286,118648,37,2,2:0:0:0:
355,248,118814,1,2,2:0:0:0:
347,257,118981,5,2,2:0:0:0:
474,294,119148,1,2,2:0:0:0:
396,324,119314,6,0,P|391:342|388:371,1,42.5,2|0,2:0|2:0,2:0:0:0:
284,325,119648,2,0,P|286:346|291:366,3,38.2499988327027,0|0|0|0,3:0|3:0|3:0|3:0,2:0:0:0:
384,328,119981,5,2,3:0:0:0:
264,232,120148,37,0,1:3:0:0:
234,242,120231,1,0,1:3:0:0:
211,264,120314,1,2,3:0:0:0:
253,158,120481,5,0,1:3:0:0:
193,178,120564,1,0,1:3:0:0:
147,222,120647,1,2,3:0:0:0:
237,81,120814,5,0,1:3:0:0:
147,110,120897,1,0,1:3:0:0:
82,179,120980,1,2,3:0:0:0:
81,189,121064,1,0,2:0:0:0:
80,198,121148,2,0,P|77:232|89:269,1,63.7500024318696,0|0,1:3|1:3,2:0:0:0:
311,112,121314,5,2,3:0:0:0:
81,54,121481,1,0,1:3:0:0:
369,321,121648,37,2,3:0:0:0:
432,294,121731,1,0,2:0:0:0:
428,225,121814,1,0,1:3:0:0:
362,206,121897,1,0,1:3:0:0:
322,262,121981,6,0,P|340:299|373:324,1,63.7500024318696,2|0,3:0|2:0,2:0:0:0:
504,207,122148,2,0,P|486:170|453:145,1,63.7500024318696,2|0,1:2|1:3,2:0:0:0:
249,216,122314,6,0,P|235:254|241:295,1,63.7500024318696,2|0,3:0|2:0,2:0:0:0:
497,343,122481,2,0,P|510:304|504:263,1,63.7500024318696,2|0,1:2|1:3,2:0:0:0:
375,65,122648,5,2,3:0:0:0:
351,67,122731,1,0,2:0:0:0:
327,70,122814,1,0,1:3:0:0:
303,73,122897,1,0,1:3:0:0:
240,128,122981,37,2,3:0:0:0:
191,123,123064,1,0,2:0:0:0:
143,117,123147,1,0,1:3:0:0:
94,111,123230,1,0,1:3:0:0:
29,54,123314,6,0,P|43:118|52:199,1,127.500004863739,2|0,3:0|1:3,2:0:0:0:
130,208,123564,1,2,1:2:0:0:
130,208,123648,2,0,P|121:271|108:333,1,127.500004863739,2|2,3:0|1:2,2:0:0:0:
284,109,123981,5,2,3:0:0:0:
306,102,124064,1,0,3:0:0:0:
330,97,124147,1,2,3:2:0:0:
354,95,124230,1,0,3:0:0:0:
399,28,124314,5,2,3:0:0:0:
340,19,124397,1,0,3:0:0:0:
283,16,124480,1,2,3:2:0:0:
224,17,124563,1,0,3:0:0:0:
160,80,124648,38,0,P|118:70|86:43,1,85,2|2,3:0|2:0,2:0:0:0:
154,0,124898,1,2,2:0:0:0:
128,167,125314,6,0,P|105:169|69:161,1,46.7500014266968,4|0,3:2|2:0,2:0:0:0:
2,126,125481,1,0,2:0:0:0:
6,142,125564,1,0,2:0:0:0:
10,158,125648,1,8,2:0:0:0:
57,352,125814,1,0,2:0:0:0:
217,204,125981,5,0,3:0:0:0:
205,206,126064,1,0,2:0:0:0:
194,210,126147,1,0,2:0:0:0:
183,214,126230,1,0,2:0:0:0:
173,220,126314,1,8,2:0:0:0:
67,360,126481,1,0,2:0:0:0:
229,286,126648,5,0,3:0:0:0:
256,285,126731,1,0,2:0:0:0:
282,290,126814,1,0,2:0:0:0:
307,300,126897,1,0,3:0:0:0:
329,316,126981,1,8,2:0:0:0:
375,344,127064,1,0,2:0:0:0:
428,343,127147,1,0,2:0:0:0:
472,312,127230,1,0,3:0:0:0:
491,262,127314,38,0,L|475:136,1,93.5000028533936,0|0,3:0|3:0,2:0:0:0:
425,61,127564,1,0,2:0:0:0:
421,96,127647,1,10,2:3:0:0:
381,354,127814,1,0,3:0:0:0:
312,156,127981,38,0,P|270:131|236:122,1,46.7500014266968,4|0,3:2|2:0,2:0:0:0:
117,188,128148,1,0,2:0:0:0:
99,230,128231,1,0,2:0:0:0:
110,274,128314,1,8,2:0:0:0:
146,303,128397,1,0,2:0:0:0:
192,304,128481,1,0,2:0:0:0:
229,277,128564,1,0,2:0:0:0:
242,233,128647,37,0,3:0:0:0:
181,26,128814,1,0,2:0:0:0:
327,266,128981,1,8,2:0:0:0:
372,67,129147,1,0,2:0:0:0:
473,290,129314,5,0,3:0:0:0:
472,236,129397,1,0,2:0:0:0:
446,197,129481,1,0,2:0:0:0:
414,179,129564,1,0,2:0:0:0:
378,176,129647,38,0,P|344:178|308:191,1,62.3333352355958,8|0,2:0|3:0,2:0:0:0:
256,128,129870,1,0,1:3:0:0:
256,128,129981,2,0,P|234:156|224:184,1,62.3333352355958,0|0,3:0|1:3,2:0:0:0:
299,331,130203,1,0,3:0:0:0:
368,272,130314,2,0,P|354:238|293:189,1,93.5000028533936,10|2,2:3|2:0,2:0:0:0:
12,343,130647,22,0,L|114:319,1,93.5000028533936,4|0,3:2|2:0,2:0:0:0:
241,137,130981,2,0,L|91:114,1,140.25000428009,8|0,2:0|2:0,2:0:0:0:
31,102,131314,1,4,3:2:0:0:
184,286,131481,1,0,2:0:0:0:
295,22,131647,1,8,2:0:0:0:
152,209,131814,1,0,2:0:0:0:
355,86,131981,6,0,P|406:80|468:108,1,93.5000028533936,4|0,3:2|2:0,2:0:0:0:
313,284,132314,2,0,P|262:290|200:262,1,93.5000028533936,8|0,2:0|2:0,2:0:0:0:
169,210,132564,1,0,2:0:0:0:
169,210,132647,2,0,L|182:109,1,93.5000028533936,4|0,3:2|2:0,2:0:0:0:
240,34,132897,1,0,2:0:0:0:
243,57,132981,1,8,2:0:0:0:
389,239,133148,1,2,2:0:0:0:
386,216,133232,1,0,2:0:0:0:
383,193,133314,6,0,P|380:150|391:91,1,93.5000028533936,4|0,3:2|2:0,2:0:0:0:
373,333,133648,2,0,P|318:275|298:191,1,140.25000428009,8|0,2:0|2:0,2:0:0:0:
304,142,133981,1,4,3:2:0:0:
252,352,134147,1,0,2:0:0:0:
444,202,134314,1,8,2:0:0:0:
254,364,134481,1,0,2:0:0:0:
177,149,134648,5,0,3:0:0:0:
150,128,134731,1,0,2:0:0:0:
117,116,134814,1,0,2:0:0:0:
82,116,134898,1,0,2:0:0:0:
49,127,134981,2,0,P|21:179|65:269,1,140.25000428009,8|0,2:0|2:0,2:0:0:0:
41,334,135314,38,0,P|76:328|108:314,1,46.7500014266968,0|0,3:0|2:0,2:0:0:0:
239,192,135481,2,0,P|252:159|256:124,1,46.7500014266968,0|0,2:0|2:0,2:0:0:0:
285,382,135647,5,8,2:0:0:0:
364,110,135814,1,2,2:0:0:0:
509,329,135981,38,0,P|477:307|382:312,1,127.500004863739,4|0,1:2|1:3,2:0:0:0:
391,307,136647,1,2,1:2:0:0:
342,325,136759,1,0,1:3:0:0:
294,317,136870,1,0,1:3:0:0:
263,280,136981,2,0,L|269:223,1,42.5000016212464,2|0,1:2|2:0,2:0:0:0:
348,114,137203,1,0,1:3:0:0:
344,203,137314,6,0,L|339:245,1,42.5000016212464,2|0,2:0|1:3,2:0:0:0:
152,378,137647,1,0,1:3:0:0:
29,128,137870,1,0,1:3:0:0:
101,91,137981,69,2,1:2:0:0:
157,118,138092,1,0,1:3:0:0:
191,164,138203,1,0,1:3:0:0:
140,296,138314,5,2,1:3:0:0:
137,221,138425,1,0,2:0:0:0:
191,164,138536,1,0,1:3:0:0:
307,171,138647,70,0,P|324:196|330:227,1,42.5000016212464,2|0,1:3|2:0,2:0:0:0:
275,319,138870,1,0,1:3:0:0:
264,286,138981,2,0,L|360:292,1,85.0000032424928,0|0,1:3|1:3,2:0:0:0:
478,349,139314,5,2,1:3:0:0:
500,274,139425,1,0,1:3:0:0:
467,202,139536,1,0,1:3:0:0:
392,169,139647,2,0,P|385:193|389:244,1,42.5000016212464,2|0,1:2|2:0,2:0:0:0:
495,124,139870,1,0,1:3:0:0:
364,58,139981,5,2,1:3:0:0:
478,349,140314,1,2,1:3:0:0:
183,326,140648,5,2,3:2:0:0:
170,324,140731,1,0,3:0:0:0:
158,329,140814,1,0,3:0:0:0:
149,338,140898,1,0,3:0:0:0:
169,339,140981,5,2,3:2:0:0:
159,279,141064,1,0,3:0:0:0:
151,219,141147,1,0,3:0:0:0:
143,158,141231,1,0,3:0:0:0:
130,99,141314,6,0,L|114:1,1,85,4|0,3:2|2:0,2:0:0:0:
332,208,141648,2,0,L|345:124,1,85,8|0,2:0|2:0,2:0:0:0:
84,305,141981,1,4,3:2:0:0:
381,357,142147,1,0,2:0:0:0:
385,341,142231,1,0,2:0:0:0:
388,325,142314,1,8,2:0:0:0:
124,383,142481,1,0,2:0:0:0:
449,239,142648,37,4,3:2:0:0:
473,213,142731,1,0,2:0:0:0:
489,181,142814,1,0,2:0:0:0:
497,147,142898,1,0,2:0:0:0:
496,112,142981,1,8,2:0:0:0:
486,78,143064,1,0,2:0:0:0:
467,48,143148,2,0,P|448:32|420:22,1,42.5,0|0,2:0|2:0,2:0:0:0:
307,95,143314,5,4,3:2:0:0:
285,93,143397,1,0,2:0:0:0:
264,91,143480,1,0,2:0:0:0:
243,90,143564,1,0,2:0:0:0:
222,88,143647,1,8,2:0:0:0:
201,87,143730,1,0,2:0:0:0:
179,85,143814,2,0,L|133:81,1,42.5,2|0,2:0|2:0,2:0:0:0:
11,45,143981,5,4,3:2:0:0:
48,82,144064,1,0,2:0:0:0:
66,131,144147,1,0,3:0:0:0:
61,184,144231,1,0,2:0:0:0:
34,229,144314,5,8,3:2:0:0:
51,217,144397,1,0,2:0:0:0:
71,210,144480,1,0,3:0:0:0:
92,207,144564,1,0,2:0:0:0:
116,211,144648,37,0,3:0:0:0:
147,257,144731,1,0,2:0:0:0:
196,283,144814,1,0,3:0:0:0:
252,282,144898,1,0,2:0:0:0:
312,257,144981,1,8,3:2:0:0:
350,203,145064,1,0,2:0:0:0:
362,137,145147,1,0,3:0:0:0:
340,76,145231,1,0,2:0:0:0:
280,38,145314,6,0,L|201:32,1,42.5,0|0,3:0|3:0,2:0:0:0:
469,204,145481,2,0,L|511:198,1,42.5,0|0,3:0|3:0,2:0:0:0:
289,29,145648,1,8,3:2:0:0:
214,18,145731,1,0,3:0:0:0:
143,42,145814,1,0,3:0:0:0:
90,93,145898,1,0,3:0:0:0:
84,167,145981,6,0,L|96:255,1,63.7500024318696,2|0,3:0|3:0,2:0:0:0:
381,384,146148,2,0,L|397:296,1,63.7500024318696,2|0,3:0|3:0,2:0:0:0:
371,0,146314,5,10,3:0:0:0:
358,83,146397,1,2,3:0:0:0:
345,167,146480,1,2,3:0:0:0:
332,251,146564,1,2,3:0:0:0:
315,338,146648,38,0,P|247:292|154:303,1,127.500004863739,6|0,3:2|2:0,2:0:0:0:
111,312,146898,1,0,2:0:0:0:
151,343,146981,1,8,2:0:0:0:
84,155,147148,2,0,L|72:299,1,127.500004863739,0|0,2:0|3:0,2:0:0:0:
33,57,147481,1,2,2:0:0:0:
265,158,147648,1,10,2:0:0:0:
0,236,147814,1,2,2:0:0:0:
219,70,147981,5,2,3:2:0:0:
269,64,148064,1,0,2:0:0:0:
317,81,148148,1,0,2:0:0:0:
350,118,148231,1,0,2:0:0:0:
363,200,148314,2,0,L|385:64,1,127.500004863739,10|0,2:0|2:0,2:0:0:0:
428,272,148648,5,2,3:2:0:0:
385,299,148731,1,0,2:0:0:0:
334,302,148814,1,0,2:0:0:0:
292,271,148898,1,0,2:0:0:0:
251,239,148981,1,10,2:0:0:0:
181,230,149064,1,0,2:0:0:0:
120,266,149148,2,0,P|92:323|94:343,1,63.7500024318696,2|0,2:0|2:0,2:0:0:0:
0,54,149314,5,6,3:2:0:0:
5,118,149398,1,0,2:0:0:0:
49,162,149481,1,0,2:0:0:0:
112,162,149564,1,0,2:0:0:0:
168,130,149648,2,0,P|184:94|183:45,3,63.7500024318696,14|0|0|0,2:0|2:0|2:0|2:0,2:0:0:0:
249,230,149981,37,6,3:2:0:0:
250,172,150064,1,0,2:0:0:0:
291,131,150148,1,0,2:0:0:0:
348,132,150231,1,0,2:0:0:0:
396,162,150314,5,14,2:0:0:0:
433,117,150398,1,0,2:0:0:0:
426,60,150481,1,0,2:0:0:0:
379,26,150564,1,0,2:0:0:0:
348,132,150648,6,0,L|356:314,1,127.500004863739,6|0,3:2|2:0,2:0:0:0:
223,286,150898,2,0,P|278:220|347:203,1,127.500004863739,2|0,1:3|2:0,2:0:0:0:
144,303,151148,2,0,P|161:236|202:200,1,63.7500024318696,2|0,1:3|2:0,2:0:0:0:
252,53,151314,6,0,P|263:82|265:114,1,63.7500024318696,6|0,3:2|2:0,2:0:0:0:
85,155,151481,1,0,2:0:0:0:
93,169,151564,1,0,3:0:0:0:
101,182,151648,1,2,1:2:0:0:
154,166,151731,1,0,1:3:0:0:
206,180,151814,1,0,1:3:0:0:
234,231,151898,1,0,1:3:0:0:
223,286,151981,38,0,P|274:335|352:337,1,127.500004863739,6|0,3:2|2:0,2:0:0:0:
413,281,152231,1,2,2:0:0:0:
361,269,152314,1,8,2:0:0:0:
483,136,152481,1,2,2:0:0:0:
495,348,152648,6,0,L|486:206,1,127.500004863739,6|0,3:2|2:0,2:0:0:0:
434,122,152898,1,0,2:0:0:0:
483,136,152981,1,10,2:0:0:0:
337,206,153148,1,2,2:0:0:0:
309,0,153314,6,0,P|313:71|307:144,1,127.500004863739,6|0,3:2|2:0,2:0:0:0:
246,210,153564,1,2,2:0:0:0:
230,159,153648,1,8,2:0:0:0:
174,367,153814,1,2,2:0:0:0:
41,178,153981,5,6,3:2:0:0:
84,170,154064,1,0,2:0:0:0:
128,176,154148,1,0,2:0:0:0:
169,191,154231,1,0,2:0:0:0:
126,225,154314,1,10,2:0:0:0:
59,32,154481,2,0,P|52:95|57:123,1,63.7500024318696,2|0,2:0|2:0,2:0:0:0:
321,88,154648,37,6,3:2:0:0:
271,58,154731,1,0,2:0:0:0:
215,72,154814,1,0,2:0:0:0:
195,126,154898,1,0,2:0:0:0:
222,175,154981,1,8,3:2:0:0:
272,201,155064,1,0,2:0:0:0:
320,254,155148,1,2,2:0:0:0:
312,329,155231,1,2,2:0:0:0:
245,370,155314,5,6,3:2:0:0:
174,347,155398,1,0,2:0:0:0:
157,276,155481,1,2,2:0:0:0:
200,218,155564,1,0,3:0:0:0:
255,212,155648,1,10,3:2:0:0:
305,229,155731,1,0,2:0:0:0:
353,245,155814,1,2,3:2:0:0:
404,240,155898,1,0,2:0:0:0:
445,214,155981,5,4,3:2:0:0:
430,309,156064,1,2,3:0:0:0:
264,96,156231,1,2,3:0:0:0:
340,332,156398,1,2,3:0:0:0:
349,262,156481,1,2,3:0:0:0:
358,192,156564,1,2,1:3:0:0:
364,121,156648,2,0,L|348:7,2,85.0000032424928,2|2|2,1:3|1:3|3:0,2:0:0:0:
278,18,156981,6,0,B|275:40|275:40|288:135,1,95.6250036478044,2|0,1:3|2:0,2:0:0:0:
358,192,157314,38,0,P|257:161|224:181,1,127.500004863739,6|0,3:2|2:0,2:0:0:0:
161,241,157564,1,0,2:0:0:0:
170,164,157648,1,8,2:0:0:0:
298,371,157814,2,0,L|289:242,1,127.500004863739,0|0,2:0|3:0,2:0:0:0:
408,352,158148,1,2,2:0:0:0:
161,241,158314,1,10,2:0:0:0:
426,158,158481,1,2,2:0:0:0:
192,328,158648,5,2,3:2:0:0:
141,330,158731,1,0,2:0:0:0:
95,306,158814,1,0,2:0:0:0:
72,259,158898,1,0,2:0:0:0:
76,208,158981,5,10,2:0:0:0:
128,186,159064,1,0,2:0:0:0:
148,131,159148,1,0,2:0:0:0:
135,75,159231,1,0,2:0:0:0:
89,40,159314,5,2,3:2:0:0:
158,50,159398,1,0,3:0:0:0:
227,60,159481,1,0,3:0:0:0:
295,72,159564,1,0,3:0:0:0:
364,85,159648,2,0,L|378:209,1,63.7500024318696,10|0,2:0|2:0,2:0:0:0:
506,311,159814,2,0,L|513:247,1,63.7500024318696,2|0,3:2|2:0,2:0:0:0:
289,234,159981,37,6,3:2:0:0:
295,310,160064,1,0,3:0:0:0:
232,355,160148,1,0,3:0:0:0:
162,322,160231,1,0,3:0:0:0:
155,245,160314,1,4,1:3:0:0:
218,200,160398,1,0,1:3:0:0:
289,234,160481,2,0,L|302:130,1,63.7500024318696,2|2,1:2|1:2,2:0:0:0:
109,44,160648,6,0,P|114:75|110:106,1,63.7500024318696,6|0,3:2|2:0,2:0:0:0:
216,262,160814,2,0,P|212:231|218:200,1,63.7500024318696,2|0,3:2|2:0,2:0:0:0:
280,19,160981,1,14,1:2:0:0:
287,36,161064,1,0,1:0:0:0:
296,62,161148,2,0,P|301:93|297:124,1,63.7500024318696,2|0,3:2|2:0,2:0:0:0:
499,169,161314,6,0,L|358:150,1,127.500004863739,6|0,3:2|2:0,2:0:0:0:
332,281,161564,2,0,P|413:234|434:157,1,127.500004863739,2|0,1:3|2:0,2:0:0:0:
293,350,161814,2,0,P|330:358|369:353,1,63.7500024318696,2|0,1:3|2:0,2:0:0:0:
296,123,161981,6,0,P|259:115|220:120,1,63.7500024318696,6|0,3:2|2:0,2:0:0:0:
65,212,162148,1,0,2:0:0:0:
68,232,162231,1,0,3:0:0:0:
72,256,162314,1,2,1:2:0:0:
94,209,162398,1,0,1:3:0:0:
99,158,162481,1,2,1:2:0:0:
77,111,162564,1,0,1:3:0:0:
42,72,162648,38,0,L|188:76,1,127.500004863739,6|0,3:2|2:0,2:0:0:0:
283,81,162898,1,2,2:0:0:0:
250,37,162981,1,8,2:0:0:0:
298,248,163148,1,2,2:0:0:0:
397,24,163314,6,0,P|381:91|400:156,1,127.500004863739,6|0,3:2|2:0,2:0:0:0:
458,243,163564,1,0,2:0:0:0:
471,191,163648,1,10,2:0:0:0:
373,271,163814,1,2,2:0:0:0:
189,162,163981,6,0,P|288:172|348:218,1,127.500004863739,6|0,3:2|2:0,2:0:0:0:
373,271,164231,1,2,2:0:0:0:
391,221,164314,1,8,2:0:0:0:
467,384,164481,1,2,2:0:0:0:
224,251,164648,5,6,3:2:0:0:
244,211,164731,1,0,2:0:0:0:
248,166,164814,1,0,2:0:0:0:
232,123,164898,1,0,2:0:0:0:
192,160,164981,1,10,2:0:0:0:
411,144,165148,2,0,L|474:138,1,63.7500024318696,2|0,2:0|2:0,2:0:0:0:
284,336,165314,37,6,3:2:0:0:
243,356,165398,1,0,2:0:0:0:
197,349,165481,1,0,3:0:0:0:
160,323,165564,1,0,2:0:0:0:
141,281,165648,1,8,3:2:0:0:
147,236,165731,1,0,2:0:0:0:
173,192,165814,1,2,3:2:0:0:
177,134,165898,1,2,2:0:0:0:
144,87,165981,5,6,3:2:0:0:
108,154,166064,1,0,2:0:0:0:
158,214,166148,1,2,3:2:0:0:
221,217,166231,1,0,3:0:0:0:
268,175,166314,1,10,3:2:0:0:
305,122,166398,1,0,2:0:0:0:
365,102,166481,1,2,3:2:0:0:
427,112,166564,1,0,2:0:0:0:
476,177,166648,5,6,3:2:0:0:
407,189,166731,1,0,3:0:0:0:
338,200,166814,1,0,3:0:0:0:
268,211,166898,1,2,3:2:0:0:
223,274,166981,5,0,3:0:0:0:
154,262,167064,1,0,3:0:0:0:
85,251,167147,1,2,3:2:0:0:
15,240,167231,1,0,3:0:0:0:
28,321,167314,38,0,L|33:390,1,63.7500024318696,2|0,3:0|3:0,2:0:0:0:
142,65,167481,2,0,L|153:-23,1,63.7500024318696,2|0,3:0|3:0,2:0:0:0:
252,354,167648,5,2,3:0:0:0:
274,274,167731,1,2,3:0:0:0:
339,224,167814,1,2,3:0:0:0:
422,218,167898,1,2,3:0:0:0:
500,263,167981,6,0,B|487:365,1,101.999996887207,6|2,3:2|2:0,2:0:0:0:
349,218,168648,2,0,B|361:114,1,101.999996887207,2|2,2:0|2:0,2:0:0:0:
423,279,169314,5,2,2:0:0:0:
353,306,169481,1,2,2:0:0:0:
412,354,169648,1,2,2:0:0:0:
364,231,169814,1,2,2:0:0:0:
283,333,169981,2,0,P|252:348|219:355,1,59.4999981842042,2|0,2:0|2:0,2:0:0:0:
121,271,170314,2,0,P|152:286|185:293,1,59.4999981842042,2|0,2:0|2:0,2:0:0:0:
281,227,170648,37,2,2:0:0:0:
123,90,170981,1,2,2:0:0:0:
104,161,171148,1,2,2:0:0:0:
185,140,171314,2,0,P|202:98|172:28,1,118.999996368408,2|2,2:0|2:0,2:0:0:0:
296,267,171981,6,0,P|321:242|340:197,1,59.4999981842042,2|0,2:0|2:0,2:0:0:0:
347,115,172314,1,2,2:0:0:0:
415,254,172481,1,2,2:0:0:0:
251,194,172648,1,2,2:0:0:0:
260,187,172981,5,2,2:0:0:0:
235,315,173148,1,2,2:0:0:0:
117,167,173314,5,2,3:2:0:0:
161,344,173648,1,2,3:2:0:0:
125,160,173981,1,2,3:2:0:0:
169,337,174315,1,2,3:2:0:0:
133,153,174648,37,2,3:2:0:0:
155,241,174814,1,2,2:0:0:0:
309,204,174981,1,2,3:2:0:0:
221,178,175147,1,2,2:0:0:0:
177,329,175314,5,2,3:2:0:0:
141,146,175648,1,2,3:2:0:0:
185,321,175981,1,2,3:2:0:0:
11,271,176314,1,0,3:0:0:0:
103,172,176481,5,0,2:0:0:0:
167,146,176564,1,0,1:3:0:0:
234,164,176648,5,2,1:2:0:0:
243,163,176731,1,0,1:3:0:0:
252,161,176814,1,0,1:3:0:0:
261,159,176898,1,0,1:3:0:0:
268,153,176981,37,2,1:2:0:0:
243,199,177064,1,0,1:3:0:0:
250,249,177147,1,2,1:2:0:0:
289,290,177231,1,0,1:3:0:0:
367,301,177314,6,0,P|411:282|441:229,1,110.499994941712,2|0,3:2|1:0,2:0:0:0:
479,118,177592,54,0,P|469:72|398:25,1,110.499994941712,0|0,1:0|1:3,2:0:0:0:
1,352,177981,6,0,L|-1:339,6,8.5,2|0|0|0|0|0|0,3:2|2:0|2:0|2:0|2:0|2:0|2:0,2:0:0:0:
75,333,178314,2,0,L|73:320,6,8.5,2|0|0|0|0|0|0,3:0|2:0|2:0|2:0|2:0|2:0|2:0,2:0:0:0:
209,342,178648,6,0,P|212:309|223:271,1,53.125,4|0,3:2|2:0,2:0:0:0:
308,138,178814,2,0,P|355:165|422:161,1,106.25,2|0,1:2|3:0,2:0:0:0:
481,68,179148,1,0,1:3:0:0:
209,167,179314,69,2,3:2:0:0:
275,374,179481,1,2,1:2:0:0:
486,305,179648,1,2,3:2:0:0:
416,97,179814,1,2,1:2:0:0:
139,352,179981,5,2,3:2:0:0:
131,341,180064,1,0,2:0:0:0:
126,329,180147,1,0,1:3:0:0:
124,316,180231,1,0,2:0:0:0:
126,303,180314,5,0,3:2:0:0:
79,318,180397,1,0,2:0:0:0:
30,298,180480,1,0,1:2:0:0:
0,256,180564,1,0,2:0:0:0:
3,191,180648,22,0,P|30:198|55:216,1,35.4166666666667,0|0,3:2|2:0,2:0:0:0:
66,114,180759,6,0,P|86:135|97:162,1,35.4166666666667,0|2,2:0|1:2,2:0:0:0:
155,75,180870,70,0,P|163:100|163:124,1,35.4166666666667,0|0,2:0|2:0,2:0:0:0:
234,154,180982,21,0,3:0:0:0:
276,186,181065,1,0,1:3:0:0:
332,201,181148,1,0,1:3:0:0:
387,193,181231,1,0,1:3:0:0:
437,165,181315,5,4,3:2:0:0:
146,233,181481,2,0,P|176:279|249:314,1,106.25,2|0,1:2|3:0,2:0:0:0:
432,330,181814,1,0,1:0:0:0:
277,96,181981,5,2,3:2:0:0:
330,354,182148,1,2,1:2:0:0:
46,126,182314,1,2,3:2:0:0:
99,384,182481,1,2,1:2:0:0:
344,170,182648,6,0,P|370:116|356:37,1,106.25,2|0,3:2|1:3,2:0:0:0:
265,3,182898,1,2,2:0:0:0:
268,19,182981,1,0,3:0:0:0:
326,283,183148,1,2,1:2:0:0:
487,101,183314,2,0,P|450:151|419:218,1,106.25,2|0,3:2|1:3,2:0:0:0:
181,13,183648,1,2,3:0:0:0:
264,248,183814,1,0,1:3:0:0:
408,52,183981,37,6,3:2:0:0:
356,42,184064,1,0,2:0:0:0:
305,56,184147,1,0,1:3:0:0:
265,90,184231,1,0,2:0:0:0:
243,138,184315,5,2,3:2:0:0:
191,147,184398,1,0,2:0:0:0:
140,133,184481,1,0,1:3:0:0:
100,99,184565,1,0,2:0:0:0:
78,51,184648,5,2,3:2:0:0:
87,121,184731,1,0,2:0:0:0:
97,191,184814,1,0,1:3:0:0:
107,261,184898,1,0,2:0:0:0:
173,338,184981,5,2,3:2:0:0:
182,268,185064,1,0,2:0:0:0:
192,198,185147,1,0,1:3:0:0:
202,128,185231,1,0,2:0:0:0:
283,62,185314,38,0,P|344:41|420:54,1,106.25,2|0,3:2|1:3,2:0:0:0:
448,270,185648,2,0,P|387:291|314:277,1,106.25,0|0,3:0|1:3,2:0:0:0:
36,214,185981,1,2,3:2:0:0:
255,147,186148,1,0,1:3:0:0:
253,157,186231,1,0,1:3:0:0:
251,167,186314,5,2,1:3:0:0:
237,188,186398,1,0,1:3:0:0:
192,214,186481,1,0,1:3:0:0:
114,204,186564,1,0,1:3:0:0:
57,123,186648,6,0,P|52:51|65:12,1,106.25,6|0,3:2|1:3,2:0:0:0:
163,22,186898,1,0,1:3:0:0:
163,22,186981,2,0,P|168:94|155:133,1,106.25,0|0,3:0|1:3,2:0:0:0:
131,306,187314,2,0,P|188:272|226:219,1,106.25,2|0,3:2|1:3,2:0:0:0:
158,125,187564,1,2,2:0:0:0:
165,156,187648,1,0,3:0:0:0:
215,382,187814,1,2,1:2:0:0:
475,162,187981,5,4,1:3:0:0:
445,190,188064,1,0,1:3:0:0:
427,229,188147,1,0,1:3:0:0:
423,271,188231,1,0,1:3:0:0:
467,300,188314,37,4,1:3:0:0:
463,285,188397,1,0,1:3:0:0:
453,272,188480,1,0,1:3:0:0:
439,268,188564,1,0,1:3:0:0:
423,271,188648,5,6,1:2:0:0:
405,338,188731,1,0,1:3:0:0:
345,372,188814,1,0,1:3:0:0:
279,351,188898,1,0,1:3:0:0:
251,287,188981,5,6,1:2:0:0:
216,213,189064,1,0,1:3:0:0:
138,187,189148,1,0,1:3:0:0:
66,228,189231,1,0,1:3:0:0:
45,309,189314,5,6,2:0:0:0:
61,315,189981,2,0,L|53:210,1,93.5000028533936,2|2,2:0|2:0,2:0:0:0:
160,351,190648,2,0,L|153:233,1,118.999996368408,2|2,2:0|2:0,2:0:0:0:
351,359,191981,38,0,L|362:202,1,140.25000428009,2|0,2:0|2:0,2:0:0:0:
478,338,192648,2,0,L|470:235,1,93.5000028533936,2|2,2:0|2:0,2:0:0:0:
430,28,193314,54,0,L|421:78,1,42.5000016212464,2|0,3:2|1:3,2:0:0:0:
423,70,193648,6,0,L|332:69,1,85.0000032424928,2|0,1:2|1:3,2:0:0:0:
321,68,193981,5,2,3:2:0:0:
308,88,194064,1,0,3:0:0:0:
302,111,194147,1,0,3:0:0:0:
302,135,194231,1,0,3:0:0:0:
306,160,194314,5,2,3:0:0:0:
356,206,194397,1,0,3:0:0:0:
347,273,194480,1,0,3:0:0:0:
287,305,194564,1,0,3:0:0:0:
226,274,194648,6,0,P|214:221|244:170,1,101.999996887207,4|0,3:2|2:0,2:0:0:0:
452,219,194981,2,0,P|461:270|434:323,1,101.999996887207,8|0,2:0|2:0,2:0:0:0:
190,114,195315,1,4,3:2:0:0:
418,79,195481,1,0,2:0:0:0:
416,87,195565,1,0,2:0:0:0:
414,95,195648,1,8,2:0:0:0:
356,348,195815,1,0,2:0:0:0:
184,195,195981,5,4,3:2:0:0:
159,186,196064,1,0,2:0:0:0:
134,185,196147,1,0,2:0:0:0:
110,192,196231,1,0,2:0:0:0:
88,205,196314,1,8,2:0:0:0:
71,224,196397,1,0,2:0:0:0:
60,247,196481,2,0,L|51:327,1,50.9999984436036,0|0,2:0|2:0,2:0:0:0:
219,373,196648,37,4,3:2:0:0:
214,326,196731,1,0,2:0:0:0:
209,279,196814,1,0,2:0:0:0:
204,232,196898,1,0,2:0:0:0:
200,186,196981,1,8,2:0:0:0:
195,139,197064,1,0,2:0:0:0:
190,92,197148,2,0,L|179:18,1,50.9999984436036,2|0,2:0|2:0,2:0:0:0:
292,213,197314,5,4,3:2:0:0:
329,250,197397,1,0,2:0:0:0:
378,268,197480,1,0,3:0:0:0:
431,263,197564,1,0,2:0:0:0:
476,236,197647,5,8,3:2:0:0:
464,253,197730,1,0,2:0:0:0:
457,273,197813,1,0,3:0:0:0:
454,294,197897,1,0,2:0:0:0:
456,318,197981,5,0,3:0:0:0:
488,263,198064,1,0,2:0:0:0:
494,200,198147,1,0,3:0:0:0:
471,141,198231,1,0,2:0:0:0:
425,99,198314,1,8,3:2:0:0:
364,80,198397,1,0,2:0:0:0:
302,91,198481,1,0,3:0:0:0:
250,127,198564,1,0,2:0:0:0:
220,183,198648,38,0,L|214:265,1,50.9999984436036,0|0,3:0|3:0,2:0:0:0:
78,364,198814,2,0,L|71:282,1,50.9999984436036,0|0,3:0|3:0,2:0:0:0:
4,41,198981,1,8,3:2:0:0:
79,30,199064,1,0,3:0:0:0:
150,54,199147,1,0,3:0:0:0:
203,105,199231,1,0,3:0:0:0:
209,179,199314,6,0,L|199:262,1,63.7500024318696,2|0,3:0|3:0,2:0:0:0:
8,381,199481,2,0,L|-2:298,1,63.7500024318696,2|0,3:0|3:0,2:0:0:0:
216,107,199647,5,10,3:0:0:0:
292,85,199730,1,2,3:0:0:0:
368,104,199813,1,2,3:0:0:0:
427,158,199897,1,2,3:0:0:0:
453,232,199981,5,4,3:2:0:0:
407,32,200314,37,0,2:0:0:0:
259,294,200648,54,0,L|254:328,5,21.2500008106232,0|0|0|0|0|0,2:0|2:0|2:0|2:0|2:0|2:0,2:0:0:0:
185,227,200981,6,0,L|180:193,5,21.2500008106232,0|0|0|0|0|0,2:0|2:0|2:0|2:0|2:0|2:0,2:0:0:0:
94,300,201314,5,2,2:0:0:0:
76,287,201397,1,0,2:0:0:0:
57,280,201480,1,0,2:0:0:0:
35,280,201564,1,0,2:0:0:0:
15,286,201648,5,2,2:0:0:0:
35,292,201731,1,0,2:0:0:0:
56,291,201815,1,0,2:0:0:0:
76,284,201898,1,0,2:0:0:0:
93,272,201981,37,2,3:2:0:0:
121,208,202092,5,2,3:2:0:0:
104,140,202203,69,2,3:2:0:0:
44,100,202314,5,2,3:0:0:0:
193,259,202648,6,0,P|203:234|206:211,1,44.6249986381531,0|2,2:0|2:0,2:0:0:0:
230,331,202981,6,0,B|228:344|228:344|281:328|286:248,1,97.7500018644333,12|0,3:2|2:0,2:0:0:0:
411,171,203148,2,0,L|277:195,1,127.500004863739,0|0,2:0|3:0,2:0:0:0:
500,257,203481,1,2,2:0:0:0:
361,105,203648,1,10,2:0:0:0:
338,365,203814,1,2,2:0:0:0:
443,95,203981,5,2,3:2:0:0:
417,50,204064,1,0,2:0:0:0:
369,30,204148,1,0,2:0:0:0:
319,38,204231,1,0,2:0:0:0:
264,123,204314,2,0,P|276:49|257:-12,1,127.500004863739,10|0,2:0|2:0,2:0:0:0:
94,240,204648,5,2,3:2:0:0:
128,194,204731,1,0,2:0:0:0:
182,177,204814,1,0,2:0:0:0:
235,199,204898,1,0,2:0:0:0:
304,197,204981,1,10,2:0:0:0:
353,147,205064,1,0,2:0:0:0:
371,78,205148,2,0,P|382:142|392:166,1,63.7500024318696,2|0,2:0|2:0,2:0:0:0:
450,336,205314,37,6,3:2:0:0:
464,273,205398,1,0,2:0:0:0:
420,226,205481,1,0,2:0:0:0:
356,226,205564,1,0,2:0:0:0:
317,277,205648,2,0,P|313:320|338:363,3,63.7500024318696,14|0|0|0,2:0|2:0|2:0|2:0,2:0:0:0:
251,139,205981,5,6,3:2:0:0:
247,196,206064,1,0,2:0:0:0:
210,241,206148,1,0,2:0:0:0:
152,244,206231,1,0,2:0:0:0:
106,209,206314,5,14,2:0:0:0:
116,158,206398,1,0,2:0:0:0:
93,112,206481,1,0,2:0:0:0:
44,96,206564,1,0,2:0:0:0:
30,181,206648,6,0,L|163:147,1,127.500004863739,6|0,3:2|2:0,2:0:0:0:
175,293,206898,2,0,P|117:245|105:182,1,127.500004863739,2|0,1:3|2:0,2:0:0:0:
204,363,207148,2,0,P|138:358|102:327,1,63.7500024318696,2|0,1:3|2:0,2:0:0:0:
247,165,207314,38,0,P|277:157|309:161,1,63.7500024318696,6|0,3:2|2:0,2:0:0:0:
399,317,207481,1,0,2:0:0:0:
387,300,207564,1,0,3:0:0:0:
377,280,207648,1,2,1:2:0:0:
420,259,207731,1,0,1:3:0:0:
445,212,207814,1,0,1:3:0:0:
440,154,207898,1,0,1:3:0:0:
413,103,207981,6,0,P|350:128|255:113,1,127.500004863739,6|0,3:2|2:0,2:0:0:0:
167,71,208231,1,2,2:0:0:0:
217,54,208314,1,8,2:0:0:0:
274,276,208481,1,2,2:0:0:0:
167,71,208648,6,0,L|128:246,1,127.500004863739,6|0,3:2|2:0,2:0:0:0:
86,298,208898,1,0,2:0:0:0:
65,251,208981,1,10,2:0:0:0:
359,317,209148,1,2,2:0:0:0:
179,384,209314,6,0,P|166:312|194:235,1,127.500004863739,6|0,3:2|2:0,2:0:0:0:
241,160,209564,1,2,2:0:0:0:
255,212,209648,1,8,2:0:0:0:
305,10,209814,1,2,2:0:0:0:
382,197,209981,37,6,3:2:0:0:
339,190,210064,1,0,2:0:0:0:
295,192,210148,1,0,2:0:0:0:
255,212,210231,1,0,2:0:0:0:
292,245,210314,1,10,2:0:0:0:
393,115,210481,2,0,P|366:107|312:110,1,63.7500024318696,2|0,2:0|2:0,2:0:0:0:
127,158,210648,5,6,3:2:0:0:
171,122,210731,1,0,2:0:0:0:
175,63,210814,1,0,2:0:0:0:
132,23,210898,1,0,2:0:0:0:
75,27,210981,1,8,3:2:0:0:
40,80,211064,1,0,2:0:0:0:
57,148,211148,1,2,2:0:0:0:
124,182,211231,1,2,2:0:0:0:
169,247,211314,5,6,3:2:0:0:
140,318,211398,1,0,2:0:0:0:
65,326,211481,1,2,2:0:0:0:
25,269,211564,1,0,3:0:0:0:
52,197,211648,1,10,3:2:0:0:
106,183,211731,1,0,2:0:0:0:
153,200,211814,1,2,3:2:0:0:
203,207,211898,1,0,2:0:0:0:
249,187,211981,5,4,3:2:0:0:
178,114,212064,1,2,3:0:0:0:
367,285,212231,1,2,3:0:0:0:
297,0,212398,1,2,3:0:0:0:
285,69,212482,1,2,3:0:0:0:
272,137,212565,1,2,1:3:0:0:
258,205,212648,2,0,L|268:306,2,85.0000032424928,2|2|2,1:3|1:3|3:0,2:0:0:0:
345,264,212981,38,0,B|352:334|352:334|322:364,1,95.6250036478044,2|0,1:3|2:0,2:0:0:0:
427,265,213314,6,0,P|357:225|344:143,1,127.500004863739,6|0,3:2|2:0,2:0:0:0:
399,66,213564,1,0,2:0:0:0:
413,146,213648,1,8,2:0:0:0:
197,98,213814,2,0,L|379:110,1,127.500004863739,0|0,2:0|3:0,2:0:0:0:
146,28,214148,1,2,2:0:0:0:
240,243,214314,1,10,2:0:0:0:
336,4,214481,1,2,2:0:0:0:
152,227,214648,5,2,3:2:0:0:
154,277,214731,1,0,2:0:0:0:
184,317,214814,1,0,2:0:0:0:
232,334,214898,1,0,2:0:0:0:
282,325,214981,5,10,2:0:0:0:
301,271,215064,1,0,2:0:0:0:
354,248,215148,1,0,2:0:0:0:
410,258,215231,1,0,2:0:0:0:
454,293,215314,37,2,3:2:0:0:
448,222,215398,1,0,3:0:0:0:
442,152,215481,1,0,3:0:0:0:
436,82,215564,1,0,3:0:0:0:
431,11,215648,6,0,L|356:25,1,63.7500024318696,10|0,2:0|2:0,2:0:0:0:
244,215,215814,2,0,L|319:229,1,63.7500024318696,2|0,3:2|2:0,2:0:0:0:
164,13,215981,5,6,3:2:0:0:
135,88,216064,1,0,3:0:0:0:
186,150,216148,1,0,3:0:0:0:
264,136,216231,1,0,3:0:0:0:
292,60,216314,1,4,1:3:0:0:
240,0,216398,1,0,1:3:0:0:
164,13,216481,2,0,L|184:104,1,63.7500024318696,2|2,1:2|1:2,2:0:0:0:
230,281,216648,6,0,P|270:268|314:274,1,63.7500024318696,6|0,3:2|2:0,2:0:0:0:
485,362,216814,2,0,P|444:349|400:355,1,63.7500024318696,2|0,3:2|2:0,2:0:0:0:
248,194,216981,1,14,1:2:0:0:
270,187,217064,1,0,1:0:0:0:
290,185,217148,2,0,P|331:194|366:221,1,63.7500024318696,2|0,3:2|2:0,2:0:0:0:
186,382,217314,38,0,L|195:215,1,127.500004863739,6|0,3:2|2:0,2:0:0:0:
69,225,217564,2,0,P|110:300|190:323,1,127.500004863739,2|0,1:3|2:0,2:0:0:0:
5,186,217814,2,0,P|-2:253|18:283,1,63.7500024318696,2|0,1:3|2:0,2:0:0:0:
168,224,217981,6,0,P|171:160|152:117,1,63.7500024318696,6|0,3:2|2:0,2:0:0:0:
65,24,218148,1,0,2:0:0:0:
68,44,218231,1,0,3:0:0:0:
71,68,218314,1,2,1:2:0:0:
114,41,218398,1,0,1:3:0:0:
163,30,218481,1,2,1:2:0:0:
213,37,218564,1,0,1:3:0:0:
258,61,218648,6,0,P|348:92|422:67,1,127.500004863739,6|0,3:2|2:0,2:0:0:0:
484,45,218898,1,2,2:0:0:0:
433,25,218981,1,8,2:0:0:0:
463,242,219148,1,2,2:0:0:0:
258,61,219314,6,0,L|248:209,1,127.500004863739,6|0,3:2|2:0,2:0:0:0:
257,302,219564,1,0,2:0:0:0:
282,259,219648,1,10,2:0:0:0:
46,333,219814,1,2,2:0:0:0:
373,337,219981,38,0,P|256:302|214:321,1,127.500004863739,6|0,3:2|2:0,2:0:0:0:
158,375,220231,1,2,2:0:0:0:
171,324,220314,1,8,2:0:0:0:
116,85,220481,1,2,2:0:0:0:
88,272,220648,5,6,3:2:0:0:
117,238,220731,1,0,2:0:0:0:
158,222,220814,1,0,2:0:0:0:
202,230,220898,1,0,2:0:0:0:
171,274,220981,1,10,2:0:0:0:
207,94,221148,2,0,L|221:24,1,63.7500024318696,2|0,2:0|2:0,2:0:0:0:
379,105,221314,5,6,3:2:0:0:
396,147,221398,1,0,2:0:0:0:
389,191,221481,1,0,3:0:0:0:
357,222,221564,1,0,2:0:0:0:
317,242,221648,1,8,3:2:0:0:
301,284,221731,1,0,2:0:0:0:
311,335,221814,1,2,3:2:0:0:
365,362,221898,1,2,2:0:0:0:
433,334,221981,5,6,3:2:0:0:
375,289,222064,1,0,2:0:0:0:
301,284,222148,1,2,3:2:0:0:
241,324,222231,1,0,3:0:0:0:
200,363,222314,1,10,3:2:0:0:
143,366,222398,1,0,2:0:0:0:
93,340,222481,1,2,3:2:0:0:
67,290,222564,1,0,2:0:0:0:
51,204,222648,37,6,3:2:0:0:
119,216,222731,1,0,3:0:0:0:
187,228,222814,1,0,3:0:0:0:
256,240,222898,1,2,3:2:0:0:
299,178,222981,5,0,3:0:0:0:
368,166,223065,1,0,3:0:0:0:
436,154,223148,1,2,3:2:0:0:
504,142,223231,1,0,3:0:0:0:
456,74,223314,6,0,L|465:10,1,63.7500024318696,2|0,3:0|3:0,2:0:0:0:
256,240,223481,2,0,L|265:303,1,63.7500024318696,2|0,3:0|3:0,2:0:0:0:
94,19,223648,5,2,3:0:0:0:
64,102,223731,1,2,3:0:0:0:
110,178,223814,1,2,3:0:0:0:
198,191,223898,1,2,3:0:0:0:
292,135,223981,38,0,L|281:263,1,101.999996887207,6|0,3:2|2:0,2:0:0:0:
360,360,224314,1,8,2:0:0:0:
411,166,224481,1,0,2:0:0:0:
476,335,224648,1,0,3:0:0:0:
289,280,224814,1,0,2:0:0:0:
268,275,224898,1,0,2:0:0:0:
247,272,224981,2,0,B|153:251|153:251|117:277|90:269,1,152.999995330811,8|0,2:0|2:0,2:0:0:0:
42,208,225314,6,0,L|54:333,1,101.999996887207,0|0,3:0|2:0,2:0:0:0:
179,128,225648,2,0,L|188:26,1,101.999996887207,8|0,2:0|2:0,2:0:0:0:
270,228,225981,1,0,3:0:0:0:
76,163,226148,1,0,2:0:0:0:
56,157,226231,1,0,2:0:0:0:
36,149,226314,1,8,2:0:0:0:
164,307,226481,2,0,P|204:287|233:266,1,50.9999984436036,2|0,2:0|2:0,2:0:0:0:
344,65,226648,5,4,3:0:0:0:
319,330,226814,1,0,2:0:0:0:
271,85,226981,5,12,2:0:0:0:
405,301,227148,1,0,2:0:0:0:
221,141,227314,37,4,3:2:0:0:
455,239,227481,1,0,2:0:0:0:
233,219,227648,5,12,2:0:0:0:
460,161,227814,1,0,2:0:0:0:
160,248,227981,6,0,L|31:228,1,101.999996887207,4|0,3:2|2:0,2:0:0:0:
100,106,228231,2,0,P|121:171|100:249,1,101.999996887207,2|0,3:0|2:0,2:0:0:0:
113,19,228481,2,0,P|163:48|177:64,1,50.9999984436036,2|0,3:0|2:0,2:0:0:0:
290,205,228648,2,0,P|207:157|184:131,1,101.999996887207,4|0,3:2|2:0,2:0:0:0:
203,152,228981,5,10,1:3:0:0:
228,147,229064,1,0,1:3:0:0:
253,141,229148,1,2,1:2:0:0:
277,135,229231,1,0,1:3:0:0:
300,130,229314,37,6,3:2:0:0:
283,168,229398,1,0,2:0:0:0:
295,207,229481,1,0,2:0:0:0:
336,237,229564,2,0,P|380:243|416:229,1,59.4999981842042,2|8,2:0|2:0,2:0:0:0:
331,42,229731,1,0,2:0:0:0:
331,42,229814,2,0,P|287:36|251:50,1,59.4999981842042,2|0,2:0|2:0,2:0:0:0:
100,149,229981,5,6,3:2:0:0:
146,158,230064,1,0,2:0:0:0:
193,160,230148,1,0,2:0:0:0:
237,144,230231,1,0,2:0:0:0:
271,134,230314,1,10,2:0:0:0:
300,130,230398,1,0,2:0:0:0:
328,135,230481,1,0,2:0:0:0:
350,146,230564,1,0,2:0:0:0:
375,193,230648,5,6,3:2:0:0:
322,185,230731,1,0,2:0:0:0:
284,215,230814,1,0,2:0:0:0:
273,261,230898,2,0,P|280:308|296:333,1,59.4999981842042,2|8,2:0|2:0,2:0:0:0:
486,282,231064,1,0,2:0:0:0:
486,282,231148,2,0,P|479:235|463:210,1,59.4999981842042,2|0,2:0|2:0,2:0:0:0:
323,126,231314,5,6,3:2:0:0:
392,303,231481,1,0,2:0:0:0:
430,73,231648,37,10,2:0:0:0:
377,331,231814,1,2,2:0:0:0:
292,54,231981,5,6,3:2:0:0:
252,89,232064,1,0,2:0:0:0:
244,142,232148,1,0,3:0:0:0:
268,182,232231,1,0,2:0:0:0:
283,220,232314,1,12,3:2:0:0:
274,261,232398,1,0,2:0:0:0:
253,296,232481,1,0,3:0:0:0:
219,308,232564,1,0,2:0:0:0:
184,299,232648,1,4,3:2:0:0:
164,274,232731,1,0,2:0:0:0:
159,250,232814,1,0,3:0:0:0:
167,227,232898,1,0,2:0:0:0:
181,208,232981,2,0,P|211:188|256:183,1,59.4999981842042,12|0,3:2|2:0,2:0:0:0:
427,320,233148,2,0,P|398:311|374:294,1,59.4999981842042,0|0,3:0|2:0,2:0:0:0:
185,90,233314,37,6,3:2:0:0:
203,85,233370,1,0,2:0:0:0:
221,81,233426,1,0,2:0:0:0:
238,82,233481,1,0,3:0:0:0:
257,85,233537,1,0,2:0:0:0:
274,91,233592,1,0,2:0:0:0:
291,99,233648,2,0,P|322:125|334:151,5,39.6666654561361,8|0|0|0|0|0,3:0|2:0|2:0|3:0|2:0|2:0,2:0:0:0:
367,228,233981,21,2,3:0:0:0:
289,224,234064,1,2,3:0:0:0:
211,217,234148,1,2,3:0:0:0:
134,210,234231,1,2,3:0:0:0:
53,203,234314,2,0,L|77:314,1,59.4999981842042,10|0,3:0|3:0,2:0:0:0:
291,99,234481,2,0,L|303:40,1,59.4999981842042,2|0,3:0|3:0,2:0:0:0:
441,302,234648,70,0,L|455:391,2,48.1666675853729,6|0|0,1:3|2:0|2:0,2:0:0:0:
353,237,234981,69,2,1:3:0:0:
267,264,235092,1,0,2:0:0:0:
245,349,235203,1,0,2:0:0:0:
367,241,235314,5,2,1:3:0:0:
382,168,235425,1,0,1:3:0:0:
330,116,235536,1,0,1:3:0:0:
250,113,235648,69,2,1:3:0:0:
243,122,235759,1,0,2:0:0:0:
251,125,235870,1,0,1:3:0:0:
162,162,235981,5,10,2:3:0:0:
157,214,236092,1,0,2:0:0:0:
203,192,236203,1,0,1:3:0:0:
255,272,236314,70,0,P|283:232|291:166,1,96.3333351707459,2|0,1:3|1:3,2:0:0:0:
229,54,236648,5,2,1:3:0:0:
239,128,236759,1,2,1:2:0:0:
298,176,236870,1,2,1:2:0:0:
378,183,236981,2,0,L|457:171,1,73.6666632944744,2|0,1:2|2:0,2:0:0:0:
487,43,237314,70,0,P|475:109|465:204,1,141.666666666667,2|0,1:3|2:0,2:0:0:0:
369,197,237648,2,0,P|376:267|389:337,1,141.666666666667,2|0,1:3|2:0,2:0:0:0:
479,384,237981,21,2,1:3:0:0:
208,347,238148,1,2,1:3:0:0:
499,240,238314,1,2,1:3:0:0:
166,281,238481,1,2,1:3:0:0:
479,384,238648,53,4,1:2:0:0:
455,318,238759,1,0,3:0:0:0:
382,343,238870,1,0,3:0:0:0:
319,246,238981,5,4,1:2:0:0:
236,337,239092,1,0,3:0:0:0:
196,206,239203,1,0,3:0:0:0:
101,350,239314,69,4,1:2:0:0:
8,232,239425,1,0,3:0:0:0:
26,354,239536,1,0,3:0:0:0:
77,193,239648,6,0,P|106:109|168:69,1,141.666666666667,4|0,1:2|2:0,2:0:0:0:
449,29,240064,5,0,2:0:0:0:
448,39,240147,1,0,2:0:0:0:
447,49,240230,1,0,2:0:0:0:
447,58,240314,1,0,2:0:0:0:
446,68,240397,1,0,2:0:0:0:
446,78,240480,1,0,2:0:0:0:
445,87,240564,1,0,2:0:0:0:
444,97,240647,1,0,2:0:0:0:
444,107,240730,5,0,2:0:0:0:
434,133,240814,1,0,2:0:0:0:
417,157,240897,1,0,2:0:0:0:
394,175,240981,1,0,2:0:0:0:
367,187,241064,1,0,2:0:0:0:
338,190,241147,1,0,2:0:0:0:
310,186,241231,1,0,2:0:0:0:
283,173,241314,1,0,2:0:0:0:
261,153,241398,5,0,2:0:0:0:
222,119,241481,1,0,2:0:0:0:
179,99,241564,1,0,2:0:0:0:
131,93,241648,1,0,2:0:0:0:
82,98,241731,1,0,2:0:0:0:
36,116,241814,1,0,2:0:0:0:
5,160,241898,1,0,2:0:0:0:
11,210,241981,21,0,3:0:0:0:
23,210,242036,1,0,2:0:0:0:
35,210,242092,1,0,2:0:0:0:
49,205,242147,1,0,3:0:0:0:
59,200,242203,1,0,2:0:0:0:
69,193,242258,1,0,2:0:0:0:
79,185,242314,1,0,1:0:0:0:
86,174,242369,1,0,2:0:0:0:
92,162,242425,1,0,2:0:0:0:
95,150,242481,1,0,1:0:0:0:
96,139,242536,1,0,2:0:0:0:
96,126,242592,1,0,2:0:0:0:
94,112,242648,22,0,L|81:50,1,48.8750009322167,2|2,1:3|1:3,2:0:0:0:
254,301,242898,5,2,1:3:0:0:
263,226,242981,1,2,1:3:0:0:
395,0,243148,5,2,1:3:0:0:
404,75,243231,1,2,1:3:0:0:
99,120,243398,5,2,1:3:0:0:
200,97,243481,1,2,1:3:0:0:
477,290,243648,37,2,1:3:0:0:
405,279,243731,1,2,1:3:0:0:
332,267,243814,1,2,1:3:0:0:
326,42,243981,53,2,2:0:0:0:
326,42,244037,1,2,2:0:0:0:
326,42,244092,1,2,2:0:0:0:
326,42,244148,2,0,L|331:83,2,32.5833339548111,2|2|0,2:0|2:0|2:0,2:0:0:0:
341,163,244314,21,4,1:3:0:0:
256,192,244398,12,0,249481,2:0:0:0:
59,115,249648,6,2,B|32:95|1:112|1:112|20:108|49:118,1,101.999996887207,0|0,2:0|2:0,2:0:0:0:
