osu file format v14

[General]
AudioFilename: audio.mp3
AudioLeadIn: 0
PreviewTime: 61314
Countdown: 0
SampleSet: Soft
StackLeniency: 0.5
Mode: 0
LetterboxInBreaks: 0
WidescreenStoryboard: 1

[Editor]
Bookmarks: 125324,146158,148991
DistanceSpacing: 1
BeatDivisor: 4
GridSize: 4
TimelineZoom: 2.999999

[Metadata]
Title:Anti the EuphoriaHOLiC
TitleUnicode:Anti the EuphoriaHOLiC
Artist:storyteller(cosMo x GAiA) feat. IA, Kagamine Rin
ArtistUnicode:storyteller(cosMo×GAiA) feat. IA, 鏡音リン
Creator:SaltyLucario
Version:Nowa's Insane
Source:星ノ少女ト幻奏楽土
Tags:saltking salty euphoria holic -aria on the planetes- gakupo kamui gackpo camui 神威がくぽ rho lambda ρ λ stella vocaloid piano gothic baroque pop japanese cosmo@bousoup bousoup chemical system le story researcher syuri22 star girl and the illusion paradise hoshi no shoujo to gensou rakudo 空想庭園 fantastic garden 幻奏楽土小説版 anti the infinite holic anti the∞holic BPM200以上はおやつに含まれますか? bpm 200 ijou wa Oyatsu ni Fukumaremasu ka? hailie dj_lucky dj lucky cheri dtm9 nowa dtm9_nowa thekinghenry tkh
BeatmapID:2583504
BeatmapSetID:546102

[Difficulty]
HPDrainRate:6
CircleSize:4
OverallDifficulty:8
ApproachRate:9
SliderMultiplier:1.7
SliderTickRate:1

[Events]
//Background and Video events
0,0,"bg.png",0,0
//Break Periods
2,114847,119381
//Storyboard Layer 0 (Background)
//Storyboard Layer 1 (Fail)
//Storyboard Layer 2 (Pass)
//Storyboard Layer 3 (Foreground)
//Storyboard Layer 4 (Overlay)
//Storyboard Sound Samples

[TimingPoints]
1315,333.333333333333,4,2,1,60,1,0
2481,-500,4,2,99,5,0,0
2648,-100,4,2,2,60,0,0
4981,-100,4,2,1,60,0,0
5314,-100,4,2,2,60,0,0
7647,-100,4,2,1,60,0,0
7981,-100,4,2,2,60,0,0
10314,-100,4,2,1,60,0,0
11481,-100,4,2,1,65,0,0
11648,-100,4,2,1,70,0,0
11814,-100,4,2,1,75,0,0
11981,-100,4,2,1,60,0,0
12981,-100,4,2,1,50,0,0
13480,-100,4,2,3,50,0,0
15814,-100,4,2,2,50,0,0
16147,-100,4,2,3,50,0,0
18481,-100,4,2,2,50,0,0
18814,-100,4,2,1,50,0,0
21148,-100,4,2,2,50,0,0
21480,-100,4,2,1,50,0,0
23648,-100,4,2,2,50,0,0
26314,-100,4,2,1,50,0,0
27648,-100,4,2,1,70,0,0
27981,-133.333333333333,4,2,1,50,0,0
28564,-500,4,2,99,5,0,0
28648,-133.333333333333,4,2,1,40,0,0
29314,-105.263157894737,4,2,1,50,0,0
29897,-105.263157894737,4,2,1,5,0,0
29981,-105.263157894737,4,2,1,50,0,0
31231,-500,4,2,99,5,0,0
31314,-105.263157894737,4,2,1,50,0,0
31814,-105.263157894737,4,2,2,50,0,0
39480,-105.263157894737,4,2,1,50,0,0
39814,-105.263157894737,4,2,2,50,0,0
42314,-105.263157894737,4,2,1,50,0,0
45148,-105.263157894737,4,2,2,50,0,0
50648,-133.333333333333,4,2,2,40,0,0
51148,-500,4,2,99,5,0,0
51314,-133.333333333333,4,2,1,40,0,0
53314,-133.333333333333,4,2,2,40,0,0
54314,-133.333333333333,4,2,1,40,0,0
54648,-133.333333333333,4,2,2,40,0,0
54814,-133.333333333333,4,2,2,5,0,0
54981,-133.333333333333,4,2,2,40,0,0
55147,-133.333333333333,4,2,2,5,0,0
55314,-133.333333333333,4,2,1,40,0,0
55981,-100,4,2,1,50,0,0
58480,-100,4,2,2,50,0,0
58648,-100,4,2,2,70,0,0
60648,-100,4,2,1,70,0,0
61314,-86.9565217391304,4,2,3,65,0,1
63814,-86.9565217391304,4,2,2,65,0,1
63981,-86.9565217391304,4,2,3,65,0,1
65564,-86.9565217391304,4,2,1,65,0,1
65981,-86.9565217391304,4,2,3,65,0,1
69147,-86.9565217391304,4,2,2,65,0,1
69314,-86.9565217391304,4,2,3,65,0,1
70731,-86.9565217391304,4,2,1,65,0,1
71648,-86.9565217391304,4,2,1,65,0,0
71981,-86.9565217391304,4,2,3,65,0,1
74480,-86.9565217391304,4,2,2,65,0,1
74648,-86.9565217391304,4,2,3,65,0,1
76231,-86.9565217391304,4,2,1,65,0,1
76648,-86.9565217391304,4,2,3,65,0,1
77147,-86.9565217391304,4,2,2,65,0,1
77315,-86.9565217391304,4,2,3,65,0,1
79814,-86.9565217391304,4,2,2,65,0,1
79981,-86.9565217391304,4,2,3,65,0,1
81981,-86.9565217391304,4,2,1,65,0,1
82647,-86.9565217391304,4,2,1,45,0,0
85314,-117.647058823529,4,2,1,45,0,0
86648,-117.647058823529,4,2,1,50,0,0
87648,-117.647058823529,4,2,1,60,0,0
87981,-100,4,2,1,60,0,1
90480,-100,4,2,2,60,0,1
93314,-100,4,2,2,50,0,0
93648,-105.263157894737,4,2,3,50,0,0
95563,-105.263157894737,4,2,99,5,0,0
95648,-105.263157894737,4,2,3,50,0,0
95814,-105.263157894737,4,2,2,50,0,0
95898,-105.263157894737,4,2,3,50,0,0
98231,-500,4,2,99,5,0,0
98314,-105.263157894737,4,2,3,50,0,0
98480,-105.263157894737,4,2,2,50,0,0
98648,-105.263157894737,4,2,3,50,0,0
101148,-105.263157894737,4,2,2,50,0,0
101314,-105.263157894737,4,2,3,50,0,0
103314,-105.263157894737,4,2,1,50,0,0
103759,-105.263157894737,4,2,3,50,0,0
103981,-100,4,2,3,50,0,0
106314,-100,4,2,1,50,0,0
114647,-100,4,2,1,40,0,0
119981,-95.2380952380952,4,2,1,60,0,1
121981,-95.2380952380952,4,2,2,60,0,1
122147,-95.2380952380952,4,2,1,60,0,1
122314,-95.2380952380952,4,2,2,60,0,1
122481,-95.2380952380952,4,2,1,60,0,1
123314,-95.2380952380952,4,2,2,60,0,1
123563,-95.2380952380952,4,2,1,60,0,1
123981,-95.2380952380952,4,2,1,70,0,1
124648,-222.222222222222,4,2,2,35,0,0
125314,-222.222222222222,4,2,2,50,0,0
125481,-105.263157894737,4,2,2,50,0,0
127647,-105.263157894737,4,2,1,50,0,0
130481,-105.263157894737,4,2,2,50,0,0
135981,-133.333333333333,4,2,2,40,0,0
136481,-500,4,2,99,5,0,0
136648,-133.333333333333,4,2,1,40,0,0
138648,-133.333333333333,4,2,2,40,0,0
139647,-133.333333333333,4,2,1,40,0,0
139981,-133.333333333333,4,2,2,40,0,0
140647,-133.333333333333,4,2,1,40,0,0
141314,-100,4,2,1,60,0,0
143813,-100,4,2,2,60,0,0
143981,-100,4,2,2,70,0,0
145981,-100,4,2,1,70,0,0
146648,-86.9565217391304,4,2,3,65,0,1
149147,-86.9565217391304,4,2,2,65,0,1
149314,-86.9565217391304,4,2,3,65,0,1
150897,-86.9565217391304,4,2,1,65,0,1
151314,-86.9565217391304,4,2,3,65,0,1
154480,-86.9565217391304,4,2,2,65,0,1
154648,-86.9565217391304,4,2,3,65,0,1
156064,-86.9565217391304,4,2,1,65,0,1
156981,-86.9565217391301,4,2,1,65,0,0
157314,-86.9565217391304,4,2,3,65,0,1
159813,-86.9565217391304,4,2,2,65,0,1
159981,-86.9565217391304,4,2,3,65,0,1
161564,-86.9565217391304,4,2,1,65,0,1
161981,-86.9565217391304,4,2,3,65,0,1
162480,-86.9565217391304,4,2,2,65,0,1
162648,-86.9565217391304,4,2,3,65,0,1
165147,-86.9565217391304,4,2,2,65,0,1
165314,-86.9565217391304,4,2,3,65,0,1
167314,-86.9565217391304,4,2,1,65,0,1
167980,-86.9565217391304,4,2,1,60,0,0
171648,-86.9565217391304,4,2,1,40,0,0
173314,-142.857142857143,4,2,1,45,0,0
175981,-117.647058823529,4,2,1,45,0,0
176981,-117.647058823529,4,2,1,55,0,0
177314,-117.647058823529,4,2,1,60,0,0
178314,-117.647058823529,4,2,2,60,0,0
178648,-86.9565217391304,4,2,2,65,0,1
178731,-500,4,2,99,5,0,1
178814,-86.9565217391304,4,2,1,65,0,1
181481,-100,4,2,1,65,0,1
183648,-100,4,2,2,65,0,1
183981,-100,4,2,1,65,0,1
189314,-100,4,2,1,40,0,0
189980,-181.818181818181,4,2,1,40,0,0
192481,-500,4,2,99,5,0,0
192648,-181.818181818181,4,2,1,40,0,0
193314,-133.333333333333,4,2,1,50,0,0
194648,-100,4,2,1,50,0,0
197147,-100,4,2,2,50,0,0
197314,-100,4,2,2,70,0,0
199314,-100,4,2,1,70,0,0
199981,-100,4,2,1,40,0,0
202648,-285.714285714287,4,2,1,40,0,0
202981,-86.9565217391304,4,2,1,65,0,1
203482,-86.9565217391304,4,2,3,65,0,1
206898,-86.9565217391304,4,2,1,65,0,1
207315,-86.9565217391304,4,2,3,65,0,1
210480,-86.9565217391304,4,2,2,65,0,1
210648,-86.9565217391304,4,2,3,65,0,1
212065,-86.9565217391304,4,2,1,65,0,1
212981,-86.9565217391304,4,2,1,65,0,0
213314,-86.9565217391304,4,2,3,65,0,1
215814,-86.9565217391304,4,2,2,65,0,1
215981,-86.9565217391304,4,2,3,65,0,1
217564,-86.9565217391304,4,2,1,65,0,1
217982,-86.9565217391304,4,2,3,65,0,1
218481,-86.9565217391304,4,2,2,65,0,1
218648,-86.9565217391304,4,2,3,65,0,1
221147,-86.9565217391304,4,2,2,65,0,1
221314,-86.9565217391304,4,2,3,65,0,1
223314,-86.9565217391304,4,2,1,65,0,1
223981,-95.2380952380952,4,2,3,50,0,0
226481,-95.2380952380952,4,2,2,50,0,0
226648,-95.2380952380952,4,2,1,50,0,0
229147,-95.2380952380952,4,2,2,50,0,0
229314,-86.9565217391304,4,2,3,60,0,1
231814,-86.9565217391304,4,2,2,60,0,1
231981,-86.9565217391304,4,2,3,60,0,1
233981,-86.9565217391304,4,2,1,60,0,1
234648,-117.647058823529,4,2,1,60,0,0
236647,-117.647058823529,4,2,2,60,0,0
236981,-117.647058823529,4,2,1,60,0,0
241981,-500,4,2,99,5,0,0
242314,-117.647058823529,4,2,1,55,0,0
242648,-86.9565217391304,4,2,1,70,0,1
243814,-86.9565217391304,4,2,1,70,0,0
244314,-333.333333333333,4,2,1,70,0,1
244398,-333.333333333333,4,2,1,70,0,0
249563,-333.333333333333,4,2,99,5,0,0
249648,307.692307692308,4,2,1,60,1,0
249648,-333.333333333334,4,2,1,60,0,0
250263,-333.333333333334,4,2,99,5,0,0

[Colours]
Combo1 : 255,159,159
Combo2 : 62,255,255
Combo3 : 165,133,207
Combo4 : 6,234,183
Combo5 : 60,79,251
Combo6 : 255,91,91

[HitObjects]
153,163,1315,5,2,2:0:0:0:
256,192,1398,12,0,2481,1:0:0:0:
414,349,2648,6,0,L|406:291,1,42.5,6|2,2:0|2:0,2:0:0:0:
254,261,2981,2,0,L|262:203,1,42.5,6|2,2:0|2:0,2:0:0:0:
377,65,3314,5,2,3:2:0:0:
385,158,3481,1,2,3:2:0:0:
276,194,3648,5,2,3:2:0:0:
284,101,3815,1,2,3:2:0:0:
399,245,3981,38,0,L|391:303,1,42.5,6|2,2:0|2:0,2:0:0:0:
241,281,4314,2,0,L|249:339,1,42.5,6|2,2:0|2:0,2:0:0:0:
137,149,4648,1,2,1:2:0:0:
109,135,4731,1,2,1:2:0:0:
78,128,4814,1,2,1:2:0:0:
46,129,4897,1,2,1:2:0:0:
16,139,4981,1,2,2:0:0:0:
137,149,5314,6,0,L|145:91,1,42.5,6|2,2:0|2:0,2:0:0:0:
218,273,5648,2,0,L|226:331,1,42.5,6|2,2:0|2:0,2:0:0:0:
295,157,5981,5,2,3:2:0:0:
385,172,6148,1,2,3:2:0:0:
342,259,6314,5,2,3:2:0:0:
432,244,6481,1,2,3:2:0:0:
489,143,6648,38,0,P|494:122|495:95,3,42.5,6|2|0|0,3:2|3:2|3:0|3:0,2:0:0:0:
408,58,6981,2,0,P|403:79|402:106,3,42.5,6|2|0|0,3:2|3:2|3:0|3:0,2:0:0:0:
317,141,7314,1,2,1:2:0:0:
291,161,7397,1,2,1:2:0:0:
261,171,7480,1,2,1:2:0:0:
230,173,7563,1,2,1:2:0:0:
199,165,7647,1,2,2:0:0:0:
199,165,7981,6,0,L|191:114,3,42.5,6|2|0|0,3:2|2:0|2:0|2:0,2:0:0:0:
269,241,8314,2,0,L|261:292,3,42.5,6|2|0|0,3:2|2:0|2:0|2:0,2:0:0:0:
321,181,8648,1,2,3:2:0:0:
408,160,8814,1,2,2:0:0:0:
269,241,8981,1,10,3:2:0:0:
248,154,9147,1,2,2:0:0:0:
360,263,9314,6,0,P|356:297|344:325,3,42.5,6|2|0|0,3:2|2:0|2:0|2:0,2:0:0:0:
271,356,9648,2,0,P|237:352|209:340,3,42.5,6|2|0|0,3:2|2:0|2:0|2:0,2:0:0:0:
154,264,9981,1,2,1:2:0:0:
119,239,10064,1,2,1:2:0:0:
78,231,10147,1,2,1:2:0:0:
37,241,10231,1,2,1:2:0:0:
4,267,10314,2,0,L|19:361,1,85,2|0,1:2|3:0,2:0:0:0:
104,374,10564,1,0,3:0:0:0:
104,374,10648,6,0,L|116:309,3,42.5,4|0|0|0,3:0|2:0|3:0|2:0,2:0:0:0:
213,354,10981,2,0,L|225:289,3,42.5,0|0|0|0,3:0|2:0|3:0|2:0,2:0:0:0:
324,334,11314,1,0,3:0:0:0:
348,194,11481,1,0,3:0:0:0:
234,305,11648,1,0,3:0:0:0:
380,277,11814,1,0,3:0:0:0:
192,239,11981,38,0,L|129:229,1,42.5,14|10,3:0|2:3,2:0:0:0:
0,356,12231,2,0,L|26:255,1,85,10|10,2:3|2:3,2:0:0:0:
12,199,12481,1,10,2:3:0:0:
10,187,12565,1,10,2:3:0:0:
8,175,12648,1,14,2:3:0:0:
12,199,12981,5,0,1:3:0:0:
33,151,13064,1,0,1:3:0:0:
76,121,13147,1,0,1:3:0:0:
129,121,13231,1,0,1:3:0:0:
173,148,13314,6,0,P|218:157|274:138,1,85,4|2,3:2|2:0,2:0:0:0:
432,73,13648,2,0,P|387:64|331:83,1,85,8|2,2:0|2:0,2:0:0:0:
266,151,13981,1,0,3:0:0:0:
389,181,14148,1,2,2:0:0:0:
389,181,14231,1,0,2:0:0:0:
389,181,14314,1,8,2:0:0:0:
432,73,14481,1,2,2:0:0:0:
316,201,14648,6,0,L|329:302,1,85,0|2,3:0|2:0,2:0:0:0:
399,342,14898,1,0,2:0:0:0:
399,342,14981,2,0,L|412:241,1,85,8|2,2:0|2:0,2:0:0:0:
229,240,15314,2,0,L|216:341,1,85,0|2,3:0|2:0,2:0:0:0:
150,358,15564,1,0,2:0:0:0:
150,358,15648,1,10,2:0:0:0:
128,221,15814,1,2,2:0:0:0:
218,324,15981,38,0,P|274:318|308:298,1,85,0|2,3:0|2:0,2:0:0:0:
422,196,16314,2,0,P|366:202|332:222,1,85,8|2,2:0|2:0,2:0:0:0:
308,310,16648,1,0,3:0:0:0:
274,180,16814,1,2,2:0:0:0:
274,180,16898,1,0,2:0:0:0:
274,180,16981,1,8,2:0:0:0:
166,221,17148,1,2,2:0:0:0:
56,183,17314,6,0,P|46:226|53:278,1,85,0|2,3:0|2:0,2:0:0:0:
159,304,17564,1,0,2:0:0:0:
159,304,17648,2,0,P|169:261|162:209,1,85,8|2,2:0|2:0,2:0:0:0:
245,121,17981,2,0,P|268:125|298:123,3,42.5,0|0|2|0,3:0|2:0|2:0|3:0,2:0:0:0:
371,125,18314,6,0,P|390:116|407:103,1,42.5,10|0,1:2|1:0,2:0:0:0:
239,132,18481,2,0,P|262:136|292:134,1,42.5,2|0,1:2|1:0,2:0:0:0:
127,72,18648,5,4,3:2:0:0:
212,224,18814,2,0,L|228:117,1,85,2|8,2:0|2:0,2:0:0:0:
56,244,19148,2,0,L|68:328,1,85,2|0,2:0|3:0,2:0:0:0:
181,373,19481,1,2,2:0:0:0:
181,373,19564,1,0,2:0:0:0:
181,373,19648,1,8,2:0:0:0:
276,325,19814,1,2,2:0:0:0:
135,193,19981,38,0,P|136:234|147:277,1,85,0|2,3:0|2:0,2:0:0:0:
236,257,20231,1,0,2:0:0:0:
236,257,20314,2,0,P|235:216|224:173,1,85,8|2,2:0|2:0,2:0:0:0:
123,70,20648,1,0,3:0:0:0:
216,182,20814,1,2,2:0:0:0:
256,35,20981,1,8,2:0:0:0:
213,192,21148,1,2,2:0:0:0:
346,102,21314,6,0,P|386:81|453:87,1,85,0|2,3:0|2:0,2:0:0:0:
490,146,21564,1,0,2:0:0:0:
490,146,21648,2,0,L|479:252,1,85,8|2,2:0|2:0,2:0:0:0:
396,344,21981,1,0,3:0:0:0:
355,236,22148,1,2,2:0:0:0:
355,236,22231,1,0,2:0:0:0:
355,236,22314,1,8,2:0:0:0:
475,309,22481,1,2,2:0:0:0:
297,355,22648,6,0,P|259:353|199:322,1,85,0|2,3:0|2:0,2:0:0:0:
168,269,22898,1,0,2:0:0:0:
168,269,22981,1,10,2:0:0:0:
423,359,23315,5,0,3:0:0:0:
502,244,23481,2,0,L|493:186,1,42.5,0|0,3:0|2:0,2:0:0:0:
414,149,23648,1,8,1:3:0:0:
418,117,23731,1,0,1:3:0:0:
423,86,23814,1,2,1:2:0:0:
428,54,23897,1,0,1:3:0:0:
433,23,23981,38,0,P|412:11|377:6,3,42.5,4|0|0|0,3:2|2:0|2:0|2:0,2:0:0:0:
315,49,24314,2,0,P|294:54|276:65,3,42.5,8|0|0|0,2:0|2:0|2:0|2:0,2:0:0:0:
251,146,24648,1,0,3:0:0:0:
229,143,24731,1,0,2:0:0:0:
210,136,24814,1,0,2:0:0:0:
192,124,24897,1,0,2:0:0:0:
178,108,24981,1,8,2:0:0:0:
175,129,25064,1,0,2:0:0:0:
168,148,25147,1,0,2:0:0:0:
156,166,25230,1,0,2:0:0:0:
140,180,25314,6,0,P|98:192|55:199,1,85,4|0,3:2|2:0,2:0:0:0:
235,254,25648,2,0,P|275:267|320:273,1,85,8|0,2:0|2:0,2:0:0:0:
124,351,25981,5,0,3:0:0:0:
121,329,26064,1,0,2:0:0:0:
119,308,26147,1,0,2:0:0:0:
116,287,26230,1,0,2:0:0:0:
103,264,26314,5,10,3:0:0:0:
106,227,26397,1,0,2:0:0:0:
109,192,26480,1,0,3:0:0:0:
114,156,26563,1,0,2:0:0:0:
118,121,26648,6,0,L|123:82,5,28.3333333333333,4|0|0|0|0|0,3:2|2:0|2:0|3:0|2:0|2:0,2:0:0:0:
197,115,26981,2,0,L|200:86,5,28.3333333333333,12|0|0|0|0|0,3:2|2:0|2:0|3:0|2:0|2:0,2:0:0:0:
259,166,27314,6,0,L|264:205,5,28.3333333333333,4|0|0|0|0|0,3:2|2:0|2:0|3:0|2:0|2:0,2:0:0:0:
338,172,27648,2,0,L|341:200,5,28.3333333333333,12|0|0|0|0|0,3:2|2:0|2:0|3:0|2:0|2:0,2:0:0:0:
436,138,27981,6,0,P|458:66|429:133,1,223.125008511544,2|0,3:0|2:0,2:0:0:0:
434,143,28648,5,2,2:0:0:0:
463,147,28731,1,0,2:0:0:0:
488,132,28814,1,2,2:0:0:0:
498,104,28897,1,0,3:0:0:0:
488,76,28981,1,2,3:2:0:0:
462,61,29064,1,0,2:0:0:0:
433,67,29147,1,2,3:2:0:0:
414,89,29231,1,0,2:0:0:0:
414,119,29314,6,0,L|426:211,1,80.7499978437424,4|0,3:2|2:0,2:0:0:0:
506,271,29648,2,0,P|465:226|381:239,1,121.124996765614,8|0,2:0|2:0,2:0:0:0:
347,278,29981,2,0,P|297:274|262:249,1,80.7499978437424,0|0,3:0|2:0,2:0:0:0:
254,179,30231,1,0,2:0:0:0:
254,179,30314,2,0,P|304:183|339:208,1,80.7499978437424,8|0,2:0|2:0,2:0:0:0:
187,314,30648,5,0,3:0:0:0:
171,219,30814,1,0,2:0:0:0:
65,332,30981,2,0,P|74:272|79:211,1,121.124996765614,8|0,2:0|2:0,2:0:0:0:
71,136,31314,37,0,3:0:0:0:
1,219,31481,1,0,2:0:0:0:
150,132,31648,1,8,2:0:0:0:
0,54,31814,1,2,2:0:0:0:
162,206,31981,6,0,P|196:195|233:146,1,80.7499978437424,0|0,3:0|2:0,2:0:0:0:
225,0,32314,2,0,P|217:34|241:91,1,80.7499978437424,8|0,2:0|2:0,2:0:0:0:
352,150,32648,2,0,L|412:142,3,40.3749989218712,0|0|0|0,3:0|2:0|2:0|2:0,2:0:0:0:
463,171,32981,2,0,L|477:71,1,80.7499978437424,8|0,2:0|2:0,2:0:0:0:
355,241,33314,6,0,L|369:341,1,80.7499978437424,0|0,3:0|2:0,2:0:0:0:
256,174,33648,1,8,2:0:0:0:
156,213,33814,1,0,2:0:0:0:
75,174,33981,2,0,L|70:138,4,26.9166659479141,0|0|0|0|0,3:0|2:0|2:0|2:0|2:0,2:0:0:0:
61,140,34314,2,0,L|72:219,1,80.7499978437424,8|2,2:0|2:0,2:0:0:0:
95,374,34648,5,4,3:2:0:0:
211,315,34814,1,0,2:0:0:0:
211,315,34898,1,0,2:0:0:0:
211,315,34981,2,0,L|149:307,2,40.3749989218712,8|0|0,2:0|2:0|2:0,2:0:0:0:
415,336,35314,2,0,L|400:236,1,80.7499978437424,0|0,3:0|2:0,2:0:0:0:
452,199,35564,1,0,2:0:0:0:
452,199,35648,2,0,L|437:99,2,80.7499978437424,8|0|0,2:0|2:0|3:0,2:0:0:0:
426,352,36148,37,0,2:0:0:0:
333,243,36314,2,0,P|294:223|247:218,1,80.7499978437424,8|0,2:0|2:0,2:0:0:0:
99,310,36648,2,0,P|135:286|163:248,1,80.7499978437424,0|0,3:0|2:0,2:0:0:0:
170,71,36981,2,0,P|184:108|185:148,1,80.7499978437424,8|2,2:0|2:0,2:0:0:0:
268,296,37314,6,0,P|312:256|422:261,1,161.499995687485,0|8,3:0|2:0,2:0:0:0:
180,353,37981,2,0,P|168:321|167:262,1,80.7499978437424,0|0,3:0|2:0,2:0:0:0:
36,284,38314,2,0,P|37:243|50:205,1,80.7499978437424,8|0,2:0|2:0,2:0:0:0:
218,115,38648,5,0,3:0:0:0:
153,263,38814,1,0,2:0:0:0:
95,101,38981,1,8,2:0:0:0:
230,202,39148,1,0,2:0:0:0:
25,241,39314,2,0,P|49:235|75:234,3,40.3749989218712,0|0|2|2,3:0|2:0|1:3|1:3,2:0:0:0:
153,263,39648,1,8,1:2:0:0:
175,282,39731,1,0,1:0:0:0:
203,295,39814,1,2,1:2:0:0:
233,298,39898,1,0,1:0:0:0:
262,293,39981,5,4,3:2:0:0:
376,202,40148,2,0,L|370:148,1,40.3749989218712,0|0,2:0|2:0,2:0:0:0:
347,275,40314,2,0,L|355:355,1,80.7499978437424,8|0,2:0|2:0,2:0:0:0:
232,134,40648,2,0,L|223:214,1,80.7499978437424,0|0,3:0|2:0,2:0:0:0:
356,59,40981,2,0,L|364:139,1,80.7499978437424,8|0,2:0|2:0,2:0:0:0:
249,282,41314,38,0,P|227:289|206:288,3,40.3749989218712,0|0|0|0,3:0|2:0|2:0|3:0,2:0:0:0:
126,276,41648,2,0,P|108:260|99:241,3,40.3749989218712,8|0|0|0,2:0|2:0|2:0|3:0,2:0:0:0:
58,179,41981,2,0,L|71:74,1,80.7499978437424,0|0,3:0|3:0,2:0:0:0:
140,42,42231,1,0,2:0:0:0:
140,42,42314,2,0,L|245:55,1,80.7499978437424,10|0,2:3|3:0,2:0:0:0:
337,147,42648,5,4,3:2:0:0:
492,60,42814,2,0,L|498:6,1,40.3749989218712,0|0,2:0|2:0,2:0:0:0:
421,101,42981,2,0,L|414:167,3,40.3749989218712,8|0|0|0,2:0|2:0|2:0|2:0,2:0:0:0:
383,207,43314,2,0,P|418:230|445:271,1,80.7499978437424,0|0,3:0|2:0,2:0:0:0:
365,349,43648,2,0,P|330:326|303:285,1,80.7499978437424,8|0,2:0|2:0,2:0:0:0:
269,142,43981,6,0,L|264:193,3,40.3749989218712,0|0|0|0,3:0|2:0|2:0|2:0,2:0:0:0:
177,200,44314,2,0,L|184:258,2,53.8333318958283,8|0|0,2:0|3:0|1:3,2:0:0:0:
103,282,44648,2,0,P|118:318|126:366,1,80.7499978437424,0|0,3:0|2:0,2:0:0:0:
203,379,44898,1,0,2:0:0:0:
203,379,44981,2,0,P|227:353|282:327,1,80.7499978437424,2|2,1:3|2:0,2:0:0:0:
431,329,45314,6,0,L|343:314,1,80.7499978437424,4|0,3:2|2:0,2:0:0:0:
121,276,45648,2,0,L|33:261,1,80.7499978437424,8|0,2:0|2:0,2:0:0:0:
313,165,45981,1,4,3:2:0:0:
209,203,46148,1,0,2:0:0:0:
331,80,46314,1,8,2:0:0:0:
367,245,46481,1,0,2:0:0:0:
212,123,46648,38,0,P|184:81|171:39,1,80.7499978437424,4|0,3:2|2:0,2:0:0:0:
397,167,46981,2,0,P|346:162|305:146,1,80.7499978437424,8|0,2:0|2:0,2:0:0:0:
252,216,47231,1,0,2:0:0:0:
252,216,47314,2,0,P|273:261|279:305,1,80.7499978437424,4|0,3:2|2:0,2:0:0:0:
192,363,47564,1,0,2:0:0:0:
192,363,47647,2,0,P|170:317|164:273,1,80.7499978437424,8|2,2:0|2:0,2:0:0:0:
300,149,47981,6,0,L|398:130,1,80.7499978437424,4|0,3:2|2:0,2:0:0:0:
181,275,48314,2,0,L|83:256,1,80.7499978437424,8|0,2:0|2:0,2:0:0:0:
298,155,48648,1,4,3:2:0:0:
193,264,48814,1,0,2:0:0:0:
158,134,48981,1,8,2:0:0:0:
263,290,49148,1,0,2:0:0:0:
90,335,49314,6,0,P|83:308|84:268,3,40.3749989218712,0|0|0|0,3:0|2:0|2:0|2:0,2:0:0:0:
13,247,49648,2,0,P|63:215|106:216,1,80.7499978437424,8|0,2:0|2:0,2:0:0:0:
224,293,49981,2,0,P|184:284|153:259,1,80.7499978437424,0|0,3:0|2:0,2:0:0:0:
152,95,50314,2,0,P|163:133|158:172,1,80.7499978437424,8|2,2:0|2:0,2:0:0:0:
233,305,50648,6,0,P|291:239|393:249,1,191.250007295609,4|0,1:2|2:0,2:0:0:0:
496,323,51314,2,0,L|481:191,1,127.500004863739,2|2,1:2|1:2,2:0:0:0:
330,325,51981,2,0,L|351:57,1,255.000009727478,2|2,2:0|1:2,2:0:0:0:
361,60,52981,1,2,1:3:0:0:
220,188,53314,38,0,L|75:201,1,127.500004863739,2|0,1:3|1:3,2:0:0:0:
302,126,53981,2,0,P|324:182|299:263,1,127.500004863739,2|2,1:3|1:2,2:0:0:0:
109,327,54648,6,0,P|144:312|184:308,1,63.7500024318696,2|0,1:3|2:0,2:0:0:0:
324,377,54981,2,0,P|292:371|263:358,1,63.7500024318696,2|0,1:3|2:0,2:0:0:0:
403,257,55314,2,0,P|407:277|409:298,3,31.8750012159348,2|0|0|0,3:2|3:0|3:0|3:0,2:0:0:0:
483,309,55648,1,2,3:2:0:0:
483,293,55731,1,0,3:0:0:0:
484,277,55814,1,0,3:0:0:0:
486,261,55898,1,0,3:0:0:0:
489,243,55981,6,0,P|506:149|511:60,1,170,4|8,3:2|2:0,2:0:0:0:
344,217,56648,2,0,P|341:191|313:121,1,85,4|0,3:2|2:0,2:0:0:0:
194,181,56981,2,0,P|219:215|236:253,1,85,8|0,2:0|2:0,2:0:0:0:
110,352,57314,6,0,P|65:300|36:192,1,170,4|8,3:2|2:0,2:0:0:0:
193,15,57981,2,0,P|216:45|230:91,1,85,4|0,3:2|2:0,2:0:0:0:
346,108,58314,2,0,P|334:148|309:182,1,85,8|2,2:0|2:0,2:0:0:0:
167,286,58648,38,0,P|192:276|235:277,3,42.5,4|0|0|0,3:2|2:0|3:0|2:0,2:0:0:0:
290,266,58981,2,0,P|317:290|346:353,1,85,8|0,3:2|3:0,2:0:0:0:
480,374,59314,2,0,P|488:347|491:313,3,42.5,0|0|0|0,3:0|2:0|3:0|2:0,2:0:0:0:
489,244,59648,1,8,3:2:0:0:
485,212,59731,1,0,2:0:0:0:
482,180,59814,1,0,3:0:0:0:
478,148,59898,1,0,2:0:0:0:
475,117,59981,6,0,L|461:22,1,85,0|0,3:0|3:0,2:0:0:0:
331,138,60314,1,8,3:2:0:0:
299,141,60397,1,0,3:0:0:0:
268,134,60480,1,0,3:0:0:0:
241,117,60564,1,0,3:0:0:0:
221,92,60648,2,0,L|214:27,1,42.5,2|0,3:0|3:0,2:0:0:0:
139,232,60814,2,0,L|131:297,1,42.5,2|0,3:0|3:0,2:0:0:0:
0,77,60981,1,10,3:0:0:0:
41,76,61064,1,2,3:0:0:0:
81,91,61147,1,2,3:0:0:0:
112,119,61231,1,2,3:0:0:0:
131,157,61314,6,0,L|105:377,2,195.500003728867,6|8|0,3:2|2:0|3:0,2:0:0:0:
191,25,62148,1,2,2:0:0:0:
212,176,62314,1,10,2:0:0:0:
114,12,62481,1,2,2:0:0:0:
244,105,62648,6,0,P|283:108|367:61,1,97.7500018644333,2|0,3:2|2:0,2:0:0:0:
464,15,62981,2,0,P|445:61|395:112,1,97.7500018644333,10|0,2:0|2:0,2:0:0:0:
292,255,63314,2,0,P|311:209|361:158,1,97.7500018644333,2|0,3:2|2:0,2:0:0:0:
512,165,63648,2,0,P|473:162|389:209,1,97.7500018644333,10|2,2:0|2:0,2:0:0:0:
270,350,63981,38,0,P|284:300|295:217,1,97.7500018644333,6|0,3:2|2:0,2:0:0:0:
164,50,64314,2,0,P|178:97|189:183,1,97.7500018644333,14|0,2:0|2:0,2:0:0:0:
28,337,64648,2,0,P|42:290|53:204,1,97.7500018644333,6|0,3:2|2:0,2:0:0:0:
49,163,64898,1,0,2:0:0:0:
49,163,64981,2,0,P|57:211|71:257,1,97.7500018644333,14|0,2:0|2:0,2:0:0:0:
192,347,65314,6,0,L|319:331,1,97.7500018644333,6|0,3:2|2:0,2:0:0:0:
373,328,65564,1,2,1:3:0:0:
371,344,65648,1,0,2:0:0:0:
229,265,65814,1,2,1:3:0:0:
351,167,65981,2,0,P|360:222|335:281,1,97.7500018644333,6|0,3:2|2:0,2:0:0:0:
216,340,66314,2,0,L|168:333,3,48.8750009322167,2|0|0|0,1:2|1:3|1:3|1:3,2:0:0:0:
91,365,66648,6,0,L|84:249,1,97.7500018644333,6|0,3:2|2:0,2:0:0:0:
37,217,66898,1,2,2:0:0:0:
37,217,66981,2,0,L|42:119,1,97.7500018644333,8|2,2:0|2:0,2:0:0:0:
158,23,67314,2,0,P|206:25|264:78,1,97.7500018644333,6|0,3:2|2:0,2:0:0:0:
319,78,67564,1,0,2:0:0:0:
319,78,67648,2,0,P|367:76|425:23,1,97.7500018644333,10|2,2:0|2:0,2:0:0:0:
512,141,67981,6,0,P|464:143|406:196,1,97.7500018644333,6|0,3:2|2:0,2:0:0:0:
400,254,68231,1,2,2:0:0:0:
400,254,68315,2,0,P|448:252|506:199,1,97.7500018644333,8|2,2:0|2:0,2:0:0:0:
401,73,68648,2,0,L|426:184,1,97.7500018644333,6|0,3:2|2:0,2:0:0:0:
284,319,68981,2,0,L|309:208,1,97.7500018644333,10|2,2:0|2:0,2:0:0:0:
218,77,69314,38,0,P|196:62|158:56,3,48.8750009322167,6|0|0|0,3:2|2:0|2:0|2:0,2:0:0:0:
101,101,69648,2,0,P|77:107|57:121,3,48.8750009322167,8|0|2|2,3:2|2:0|2:0|2:0,2:0:0:0:
62,197,69981,2,0,P|49:245|58:306,1,97.7500018644333,6|2,3:2|2:0,2:0:0:0:
232,269,70314,1,10,3:2:0:0:
126,251,70481,1,2,3:2:0:0:
252,347,70648,5,4,3:2:0:0:
252,347,70731,2,0,P|305:323|364:332,1,97.7500018644333,2|2,3:0|3:0,2:0:0:0:
483,322,71064,2,0,P|490:351|492:378,1,48.8750009322167,2|2,3:0|3:0,2:0:0:0:
410,263,71231,1,2,1:3:0:0:
410,263,71314,2,0,P|413:228|422:194,2,65.1666679096222,2|2|2,1:3|1:3|3:0,2:0:0:0:
343,324,71648,2,0,P|304:266|291:189,1,97.7500018644333,2|0,1:3|2:0,2:0:0:0:
169,114,71981,6,0,P|137:191|131:326,2,195.500003728867,6|8|0,3:2|2:0|3:0,2:0:0:0:
309,69,72815,1,2,2:0:0:0:
229,172,72981,1,10,2:0:0:0:
193,0,73148,1,2,2:0:0:0:
68,113,73315,6,0,P|107:116|189:89,1,97.7500018644333,2|0,3:2|2:0,2:0:0:0:
324,161,73648,2,0,P|285:158|203:185,1,97.7500018644333,10|0,2:0|2:0,2:0:0:0:
144,279,73981,2,0,L|135:341,3,48.8750009322167,2|0|0|0,3:2|3:0|3:0|3:0,2:0:0:0:
207,369,74314,2,0,L|226:251,1,97.7500018644333,10|2,2:0|3:2,2:0:0:0:
311,87,74648,37,6,3:2:0:0:
314,111,74731,1,0,3:0:0:0:
318,135,74814,1,0,3:0:0:0:
322,159,74897,1,0,3:0:0:0:
326,183,74981,2,0,L|345:301,1,97.7500018644333,4|2,1:3|1:2,2:0:0:0:
414,341,75231,1,2,1:2:0:0:
414,341,75314,2,0,P|450:313|514:301,1,97.7500018644333,6|2,3:2|3:2,2:0:0:0:
262,289,75648,2,0,P|226:261|162:249,1,97.7500018644333,14|2,1:2|3:2,2:0:0:0:
405,223,75981,6,0,P|429:177|482:141,1,97.7500018644333,6|0,3:2|2:0,2:0:0:0:
503,213,76231,1,2,1:3:0:0:
501,229,76315,1,0,2:0:0:0:
402,308,76481,1,2,1:3:0:0:
325,202,76648,2,0,P|320:150|344:91,1,97.7500018644333,6|0,3:2|2:0,2:0:0:0:
176,134,76981,2,0,P|179:158|188:180,3,48.8750009322167,2|0|2|0,1:2|1:3|1:2|1:3,2:0:0:0:
137,238,77315,6,0,P|83:216|23:230,1,97.7500018644333,6|0,3:2|2:0,2:0:0:0:
25,294,77564,1,2,2:0:0:0:
25,294,77648,2,0,P|79:316|139:302,1,97.7500018644333,8|2,2:0|2:0,2:0:0:0:
227,213,77981,2,0,L|237:311,1,97.7500018644333,6|0,3:2|2:0,2:0:0:0:
311,356,78231,1,0,2:0:0:0:
311,356,78314,2,0,L|321:258,1,97.7500018644333,10|2,2:0|2:0,2:0:0:0:
307,132,78648,6,0,P|355:134|413:187,1,97.7500018644333,6|0,3:2|2:0,2:0:0:0:
406,242,78898,1,2,2:0:0:0:
406,242,78982,2,0,P|454:240|512:187,1,97.7500018644333,8|2,2:0|2:0,2:0:0:0:
512,35,79315,2,0,L|504:144,1,97.7500018644333,6|0,3:2|2:0,2:0:0:0:
406,242,79648,2,0,L|398:351,1,97.7500018644333,10|2,2:0|2:0,2:0:0:0:
333,159,79981,38,0,P|311:144|273:138,3,48.8750009322167,6|0|0|0,3:2|2:0|3:0|2:0,2:0:0:0:
232,192,80315,2,0,P|208:198|188:212,3,48.8750009322167,8|0|2|2,3:2|2:0|3:2|2:0,2:0:0:0:
112,288,80648,2,0,P|116:239|103:192,1,97.7500018644333,6|2,3:2|3:2,2:0:0:0:
41,73,80981,1,10,3:2:0:0:
17,199,81148,1,2,3:2:0:0:
131,88,81314,5,6,3:2:0:0:
162,69,81397,1,0,3:0:0:0:
196,57,81480,1,0,3:0:0:0:
233,51,81563,1,2,3:2:0:0:
269,53,81648,2,0,P|295:64|317:66,3,48.8750009322167,0|0|2|0,3:0|3:0|3:2|3:0,2:0:0:0:
403,98,81981,2,0,P|446:80|483:13,1,97.7500018644333,2|2,3:0|3:0,2:0:0:0:
323,157,82314,1,2,3:0:0:0:
325,181,82397,1,2,3:0:0:0:
327,205,82480,1,2,3:0:0:0:
330,229,82563,1,2,3:0:0:0:
332,254,82647,1,4,1:2:0:0:
256,192,82814,12,2,85009,2:3:0:0:
76,148,85314,6,0,L|98:290,1,144.500002756119,2|0,1:3|1:3,2:0:0:0:
183,87,85981,2,0,L|205:229,1,144.500002756119,2|0,1:3|1:3,2:0:0:0:
439,216,86648,6,0,P|404:237|387:268,1,72.2500013780594,2|0,3:0|2:0,2:0:0:0:
305,225,86981,2,0,P|295:264|305:298,1,72.2500013780594,2|0,1:3|2:0,2:0:0:0:
216,326,87314,2,0,P|237:360|268:378,1,72.2500013780594,2|0,3:0|3:0,2:0:0:0:
436,314,87648,1,2,3:0:0:0:
429,297,87731,1,0,3:0:0:0:
418,282,87814,1,0,3:0:0:0:
404,271,87897,1,0,3:0:0:0:
388,263,87981,38,0,P|351:287|301:293,1,85,4|0,3:2|2:0,2:0:0:0:
147,252,88314,2,0,L|142:209,3,42.5,8|0|0|0,2:0|2:0|2:0|2:0,2:0:0:0:
94,136,88648,1,0,3:0:0:0:
123,124,88731,1,0,2:0:0:0:
155,123,88814,1,0,2:0:0:0:
185,134,88897,1,0,2:0:0:0:
209,154,88981,2,0,P|241:165|280:164,3,42.5,8|0|0|0,2:0|2:0|2:0|2:0,2:0:0:0:
255,239,89314,6,0,P|275:235|295:227,3,42.5,0|0|0|0,3:0|2:0|2:0|2:0,2:0:0:0:
365,186,89648,2,0,P|351:169|334:156,3,42.5,8|0|0|0,2:0|2:0|2:0|2:0,2:0:0:0:
265,118,89981,2,0,P|257:137|255:159,3,42.5,0|0|0|0,3:0|2:0|2:0|2:0,2:0:0:0:
232,235,90314,1,8,2:0:0:0:
243,275,90397,1,0,2:0:0:0:
270,307,90480,1,2,2:0:0:0:
308,325,90563,1,0,2:0:0:0:
351,325,90648,6,0,L|360:266,3,42.5,0|0|0|0,3:0|2:0|2:0|2:0,2:0:0:0:
443,276,90981,2,0,L|434:216,3,42.5,8|0|0|0,2:0|2:0|2:0|2:0,2:0:0:0:
473,154,91314,2,0,P|439:127|417:117,3,42.5,0|0|0|0,3:0|2:0|2:0|2:0,2:0:0:0:
400,52,91648,2,0,P|356:56|334:65,3,42.5,8|0|0|0,2:0|2:0|2:0|2:0,2:0:0:0:
291,132,91981,6,0,P|268:108|248:74,3,42.5,0|0|0|0,3:0|2:0|2:0|2:0,2:0:0:0:
196,161,92314,2,0,P|188:128|187:89,3,42.5,8|0|0|0,2:0|2:0|2:0|2:0,2:0:0:0:
98,138,92648,2,0,P|107:106|126:71,3,42.5,0|0|0|0,3:0|2:0|2:0|2:0,2:0:0:0:
25,67,92981,2,0,P|52:33|117:7,1,85,8|2,2:0|2:0,2:0:0:0:
146,248,93314,37,4,3:2:0:0:
293,13,93648,2,0,L|309:119,1,80.7499978437424,10|2,2:0|2:0,2:0:0:0:
323,247,93981,1,2,3:2:0:0:
313,167,94148,1,2,2:0:0:0:
404,281,94314,1,10,2:0:0:0:
394,361,94481,1,2,2:0:0:0:
248,263,94648,6,0,P|215:244|149:237,1,80.7499978437424,2|0,3:2|2:0,2:0:0:0:
107,286,94898,1,0,2:0:0:0:
107,286,94981,2,0,L|97:388,1,80.7499978437424,10|0,2:0|2:0,2:0:0:0:
261,254,95314,2,0,P|270:191|247:114,1,121.124996765614,2|0,3:2|2:0,2:0:0:0:
203,84,95648,2,0,P|201:43|222:-8,1,80.7499978437424,10|2,2:0|2:0,2:0:0:0:
288,57,95898,1,2,2:0:0:0:
288,57,95981,5,2,3:2:0:0:
38,194,96314,2,0,P|84:226|121:237,1,80.7499978437424,8|0,2:0|2:0,2:0:0:0:
290,255,96648,1,2,3:2:0:0:
204,221,96814,1,2,2:0:0:0:
285,334,96981,1,10,2:0:0:0:
371,300,97147,1,2,2:0:0:0:
200,361,97314,6,0,P|139:354|92:339,1,80.7499978437424,2|0,3:2|2:0,2:0:0:0:
67,294,97564,1,2,2:0:0:0:
67,294,97648,2,0,L|60:185,1,80.7499978437424,8|2,2:0|2:0,2:0:0:0:
138,68,97981,2,0,L|146:194,1,121.124996765614,2|0,3:2|2:0,2:0:0:0:
171,263,98314,2,0,L|177:168,1,80.7499978437424,10|2,2:0|2:0,2:0:0:0:
318,76,98648,38,0,P|397:84|457:150,1,161.499995687485,6|12,3:2|2:0,2:0:0:0:
384,322,99314,2,0,P|374:282|374:217,1,80.7499978437424,0|0,3:0|2:0,2:0:0:0:
264,234,99648,2,0,P|270:203|286:178,3,40.3749989218712,8|0|0|0,2:0|2:0|2:0|2:0,2:0:0:0:
356,159,99981,6,0,P|408:164|445:198,1,80.7499978437424,2|0,3:2|2:0,2:0:0:0:
384,322,100314,2,0,P|332:317|295:283,1,80.7499978437424,10|0,2:0|2:0,2:0:0:0:
162,252,100648,1,2,3:2:0:0:
65,280,100814,1,2,2:0:0:0:
140,348,100981,1,8,2:0:0:0:
94,182,101148,1,2,2:0:0:0:
231,314,101314,6,0,P|242:270|270:215,1,80.7499978437424,6|0,3:2|3:0,2:0:0:0:
57,293,101648,2,0,P|46:249|18:194,1,80.7499978437424,12|0,3:2|3:0,2:0:0:0:
309,301,101981,1,4,3:2:0:0:
334,211,102148,1,0,3:0:0:0:
230,328,102314,1,12,3:2:0:0:
200,187,102481,1,0,3:0:0:0:
322,308,102648,6,0,P|349:312|377:309,3,40.3749989218712,6|0|0|0,3:2|3:0|3:0|3:0,2:0:0:0:
411,249,102981,2,0,P|427:227|439:201,3,40.3749989218712,12|0|0|0,3:2|3:0|3:0|3:0,2:0:0:0:
381,154,103314,2,0,L|373:99,3,40.3749989218712,2|0|2|0,3:0|3:0|3:0|3:0,2:0:0:0:
277,124,103648,6,0,L|269:177,2,53.8333318958283,10|2|2,3:0|2:0|2:0,2:0:0:0:
224,63,103981,22,0,P|203:54|169:51,2,42.5,4|0|0,3:2|2:0|2:0,2:0:0:0:
24,129,104314,2,0,P|45:120|79:117,2,42.5,8|0|0,2:0|2:0|2:0,2:0:0:0:
202,229,104647,5,0,3:0:0:0:
194,136,104814,1,0,2:0:0:0:
306,195,104981,5,8,2:0:0:0:
298,288,105148,1,0,2:0:0:0:
409,168,105314,6,0,L|403:103,1,42.5,0|0,3:0|2:0,2:0:0:0:
318,77,105481,1,0,2:0:0:0:
318,77,105564,1,0,2:0:0:0:
318,77,105648,2,0,L|312:142,2,42.5,8|0|0,2:0|2:0|2:0,2:0:0:0:
200,221,105981,1,0,3:0:0:0:
175,201,106064,1,0,2:0:0:0:
146,189,106147,1,0,2:0:0:0:
114,184,106230,1,0,2:0:0:0:
83,188,106314,1,10,2:3:0:0:
200,221,106648,38,0,L|207:280,1,42.5,4|0,3:2|2:0,2:0:0:0:
103,96,106981,6,0,L|108:53,1,42.5,8|0,2:0|2:0,2:0:0:0:
212,225,107314,5,0,3:0:0:0:
302,210,107481,1,0,2:0:0:0:
393,303,107647,5,8,2:0:0:0:
303,288,107814,1,0,2:0:0:0:
212,382,107981,38,0,P|207:361|206:334,3,42.5,0|0|0|0,3:0|2:0|2:0|2:0,2:0:0:0:
130,305,108314,2,0,P|141:286|159:266,3,42.5,8|0|0|0,2:0|2:0|2:0|2:0,2:0:0:0:
91,202,108648,54,0,P|126:181|171:173,3,56.6666666666667,2|2|2|10,3:0|3:0|3:0|2:0,2:0:0:0:
309,269,109314,22,0,L|317:218,3,42.5,4|0|0|0,3:2|2:0|3:0|2:0,2:0:0:0:
395,187,109648,2,0,L|401:145,3,42.5,12|0|0|0,3:2|2:0|3:0|2:0,2:0:0:0:
459,79,109981,1,4,3:2:0:0:
334,109,110148,1,0,3:0:0:0:
473,66,110314,1,12,3:2:0:0:
348,36,110481,1,0,3:0:0:0:
421,148,110648,6,0,P|417:182|405:210,3,42.5,4|0|0|0,3:2|2:0|3:0|2:0,2:0:0:0:
464,245,110981,2,0,P|435:263|405:271,3,42.5,12|0|0|0,3:2|2:0|3:0|2:0,2:0:0:0:
358,323,111314,1,4,3:2:0:0:
315,315,111397,1,0,2:0:0:0:
280,291,111480,1,0,3:0:0:0:
258,256,111564,1,0,2:0:0:0:
253,214,111647,2,0,L|245:111,1,85,14|0,3:2|3:0,2:0:0:0:
68,32,111981,6,0,L|60:73,3,42.5,4|0|0|0,3:2|3:0|3:0|3:0,2:0:0:0:
0,115,112314,2,0,L|7:156,3,42.5,12|0|0|0,3:2|3:0|3:0|3:0,2:0:0:0:
3,235,112647,1,4,3:2:0:0:
113,157,112814,1,0,3:0:0:0:
46,308,112981,1,12,3:2:0:0:
7,156,113147,1,0,3:0:0:0:
136,231,113314,6,0,L|199:221,1,42.5,14|10,3:0|2:3,2:0:0:0:
241,344,113564,2,0,L|262:261,1,85,10|10,2:3|2:3,2:0:0:0:
283,246,113814,1,10,2:3:0:0:
296,243,113897,1,10,2:3:0:0:
310,240,113980,1,14,2:3:0:0:
445,270,114314,37,0,2:0:0:0:
436,271,114397,1,0,2:0:0:0:
427,274,114480,1,0,2:0:0:0:
419,279,114563,1,0,2:0:0:0:
412,286,114647,1,0,2:0:0:0:
104,37,119981,6,0,L|219:20,1,89.2499972763062,2|0,3:0|1:3,2:0:0:0:
257,68,120231,1,0,1:3:0:0:
257,68,120314,2,0,L|240:183,1,89.2499972763062,2|0,3:0|1:3,2:0:0:0:
140,237,120648,2,0,L|126:325,1,89.2499972763062,2|0,3:0|1:3,2:0:0:0:
190,369,120897,1,0,1:3:0:0:
191,369,120981,2,0,L|279:355,1,89.2499972763062,2|0,3:0|1:3,2:0:0:0:
416,270,121314,5,2,3:0:0:0:
401,375,121481,1,0,1:3:0:0:
293,343,121648,2,0,L|286:285,3,44.6249986381531,2|0|0|0,3:0|2:0|1:3|1:3,2:0:0:0:
252,225,121981,2,0,P|318:223|361:250,1,89.2499972763062,2|2,3:0|1:2,2:0:0:0:
207,357,122314,1,2,3:0:0:0:
149,261,122481,1,2,1:2:0:0:
43,374,122648,6,0,L|52:306,3,44.6249986381531,2|0|0|0,3:0|2:0|1:3|1:3,2:0:0:0:
15,257,122981,2,0,L|24:189,3,44.6249986381531,2|0|0|0,3:0|2:0|1:3|1:3,2:0:0:0:
12,130,123314,2,0,P|75:142|140:100,1,133.874995914459,2|2,3:0|1:2,2:0:0:0:
204,65,123648,2,0,P|211:119|194:164,1,89.2499972763062,2|2,3:0|1:2,2:0:0:0:
132,301,123981,38,0,L|126:244,3,44.6249986381531,2|0|2|0,3:0|3:0|3:2|3:0,2:0:0:0:
218,320,124314,2,0,L|212:377,3,44.6249986381531,2|0|2|0,3:0|3:0|3:2|3:0,2:0:0:0:
291,269,124648,2,0,P|331:265|361:278,1,57.374998249054,2|0,3:0|2:0,2:0:0:0:
347,270,125314,5,4,3:2:0:0:
457,158,125481,2,0,L|511:152,1,40.3749989218712,0|0,2:0|2:0,2:0:0:0:
389,196,125647,2,0,L|309:188,1,80.7499978437424,8|0,2:0|2:0,2:0:0:0:
202,75,125981,2,0,L|282:67,1,80.7499978437424,0|0,3:0|2:0,2:0:0:0:
160,218,126314,2,0,L|80:210,1,80.7499978437424,8|0,2:0|2:0,2:0:0:0:
1,77,126648,6,0,P|21:77|40:83,3,40.3749989218712,0|0|0|0,3:0|2:0|2:0|3:0,2:0:0:0:
106,121,126981,2,0,P|126:120|145:114,3,40.3749989218712,8|0|0|0,2:0|2:0|2:0|3:0,2:0:0:0:
214,80,127314,2,0,L|205:0,1,80.7499978437424,0|0,3:0|3:0,2:0:0:0:
288,9,127564,1,0,2:0:0:0:
288,9,127647,2,0,L|301:114,1,80.7499978437424,10|0,2:3|3:0,2:0:0:0:
318,237,127981,5,4,3:2:0:0:
428,74,128147,2,0,L|432:33,1,40.3749989218712,0|0,2:0|2:0,2:0:0:0:
383,138,128314,2,0,L|378:178,3,40.3749989218712,8|0|0|0,2:0|2:0|2:0|2:0,2:0:0:0:
326,232,128647,2,0,P|278:243|238:241,1,80.7499978437424,0|0,3:0|2:0,2:0:0:0:
113,142,128981,2,0,P|161:131|201:133,1,80.7499978437424,8|0,2:0|2:0,2:0:0:0:
176,272,129314,38,0,P|170:250|171:221,3,40.3749989218712,0|0|0|0,3:0|2:0|2:0|2:0,2:0:0:0:
240,190,129648,2,0,P|248:212|245:245,2,53.8333318958283,8|0|0,2:0|3:0|1:3,2:0:0:0:
173,282,129981,2,0,L|82:295,1,80.7499978437424,0|0,3:0|2:0,2:0:0:0:
16,316,130231,1,0,2:0:0:0:
16,316,130314,2,0,L|107:303,1,80.7499978437424,10|2,2:3|2:0,2:0:0:0:
230,376,130647,6,0,P|249:334|252:276,1,80.7499978437424,4|0,3:2|2:0,2:0:0:0:
415,211,130981,2,0,P|408:171|391:134,1,80.7499978437424,8|0,2:0|2:0,2:0:0:0:
267,30,131314,1,4,3:2:0:0:
288,161,131481,1,0,2:0:0:0:
361,31,131647,1,8,2:0:0:0:
283,174,131814,1,0,2:0:0:0:
192,86,131981,6,0,P|152:71|90:68,1,80.7499978437424,4|0,3:2|2:0,2:0:0:0:
175,254,132314,2,0,P|157:215|115:169,1,80.7499978437424,8|0,2:0|2:0,2:0:0:0:
43,189,132564,1,0,2:0:0:0:
43,189,132648,2,0,P|60:227|102:273,1,80.7499978437424,4|0,3:2|2:0,2:0:0:0:
53,338,132898,1,0,2:0:0:0:
53,338,132982,2,0,P|93:353|154:356,1,80.7499978437424,8|2,2:0|2:0,2:0:0:0:
262,252,133314,6,0,L|248:146,1,80.7499978437424,4|0,3:2|2:0,2:0:0:0:
425,289,133648,2,0,L|411:395,1,80.7499978437424,8|0,2:0|2:0,2:0:0:0:
275,260,133981,1,4,3:2:0:0:
374,191,134147,1,0,2:0:0:0:
290,343,134314,1,8,2:0:0:0:
180,244,134481,1,0,2:0:0:0:
358,303,134647,38,0,L|417:296,3,40.3749989218712,0|0|0|0,3:0|2:0|2:0|2:0,2:0:0:0:
479,336,134981,2,0,L|489:248,1,80.7499978437424,8|0,2:0|2:0,2:0:0:0:
501,128,135314,1,0,3:0:0:0:
503,247,135481,1,0,2:0:0:0:
382,147,135648,2,0,L|368:233,1,80.7499978437424,8|2,2:0|2:0,2:0:0:0:
254,358,135981,6,0,P|196:292|94:302,1,191.250007295609,4|0,1:2|2:0,2:0:0:0:
113,150,136648,2,0,P|48:187|13:238,1,127.500004863739,2|2,1:2|1:2,2:0:0:0:
159,371,137314,2,0,P|214:281|202:130,1,255.000009727478,2|2,2:0|1:2,2:0:0:0:
82,65,138314,1,2,1:3:0:0:
289,173,138648,6,0,B|327:176|354:159|354:159|381:143|433:149,1,127.500004863739,2|0,1:3|1:3,2:0:0:0:
298,267,139314,2,0,B|260:270|233:253|233:253|206:237|154:243,1,127.500004863739,2|2,1:3|1:2,2:0:0:0:
127,335,139981,6,0,P|162:320|202:316,1,63.7500024318696,2|0,1:3|2:0,2:0:0:0:
344,173,140314,2,0,P|315:186|283:191,1,63.7500024318696,2|0,1:3|2:0,2:0:0:0:
110,157,140647,2,0,P|106:141|104:125,3,31.8750012159348,2|0|0|0,3:2|3:0|3:0|3:0,2:0:0:0:
48,69,140981,1,2,3:2:0:0:
63,32,141064,1,0,3:0:0:0:
94,8,141147,1,0,3:0:0:0:
133,2,141231,1,0,3:0:0:0:
170,16,141314,38,0,P|227:45|332:46,1,170,4|8,3:2|2:0,2:0:0:0:
477,169,141981,2,0,P|496:141|501:82,1,85,4|0,3:2|2:0,2:0:0:0:
365,262,142314,2,0,P|379:292|428:326,1,85,8|0,2:0|2:0,2:0:0:0:
339,131,142647,6,0,B|282:126|254:154|254:154|220:182|148:163,1,170,4|8,3:2|2:0,2:0:0:0:
9,32,143314,2,0,P|34:66|45:106,1,85,4|0,3:2|2:0,2:0:0:0:
11,297,143647,2,0,P|36:263|48:222,1,85,8|2,2:0|2:0,2:0:0:0:
193,91,143981,5,4,3:2:0:0:
195,120,144064,1,0,2:0:0:0:
198,150,144147,1,0,3:0:0:0:
201,180,144231,1,0,2:0:0:0:
204,210,144314,2,0,L|211:300,1,85,8|0,3:2|3:0,2:0:0:0:
372,360,144647,2,0,P|354:350|313:342,3,42.5,0|0|0|0,3:0|2:0|3:0|2:0,2:0:0:0:
221,297,144981,1,8,3:2:0:0:
189,325,145064,1,0,2:0:0:0:
150,342,145147,1,0,3:0:0:0:
108,345,145231,1,0,2:0:0:0:
67,335,145314,6,0,L|56:234,1,85,0|0,3:0|3:0,2:0:0:0:
9,92,145647,1,8,3:2:0:0:
41,89,145730,1,0,3:0:0:0:
72,96,145813,1,0,3:0:0:0:
99,113,145897,1,0,3:0:0:0:
119,138,145981,2,0,L|128:197,1,42.5,2|0,3:0|3:0,2:0:0:0:
215,21,146148,2,0,L|206:80,1,42.5,2|0,3:0|3:0,2:0:0:0:
311,178,146314,1,10,3:0:0:0:
352,209,146397,1,2,3:0:0:0:
405,215,146480,1,2,3:0:0:0:
453,195,146564,1,2,3:0:0:0:
485,153,146648,38,0,P|454:70|399:149,2,195.500003728867,6|8|0,3:2|2:0|3:0,2:0:0:0:
360,311,147481,1,2,2:0:0:0:
302,179,147647,1,10,2:0:0:0:
440,311,147814,1,2,2:0:0:0:
297,257,147981,6,0,P|251:245|170:247,1,97.7500018644333,2|0,3:2|2:0,2:0:0:0:
42,377,148314,2,0,P|75:343|114:272,1,97.7500018644333,10|0,2:0|2:0,2:0:0:0:
18,121,148648,2,0,L|32:228,1,97.7500018644333,2|0,3:2|2:0,2:0:0:0:
175,356,148981,2,0,L|189:249,1,97.7500018644333,10|2,2:0|2:0,2:0:0:0:
277,69,149314,6,0,P|321:75|389:117,1,97.7500018644333,6|0,3:2|2:0,2:0:0:0:
198,149,149648,2,0,P|154:155|86:197,1,97.7500018644333,14|0,2:0|2:0,2:0:0:0:
264,327,149981,2,0,P|280:285|278:206,1,97.7500018644333,6|0,3:2|2:0,2:0:0:0:
292,148,150231,1,0,2:0:0:0:
292,148,150314,2,0,P|294:196|311:242,1,97.7500018644333,14|0,2:0|2:0,2:0:0:0:
472,293,150648,6,0,P|470:245|453:199,1,97.7500018644333,6|0,3:2|2:0,2:0:0:0:
379,161,150897,1,2,1:3:0:0:
377,177,150981,1,0,2:0:0:0:
512,128,151147,1,2,1:3:0:0:
375,71,151314,2,0,P|324:55|276:53,1,97.7500018644333,6|0,3:2|2:0,2:0:0:0:
203,104,151648,2,0,L|197:173,3,48.8750009322167,2|0|0|0,1:2|1:3|1:3|1:3,2:0:0:0:
116,181,151981,38,0,L|109:65,1,97.7500018644333,6|0,3:2|2:0,2:0:0:0:
34,58,152231,1,2,2:0:0:0:
34,58,152314,2,0,L|39:156,1,97.7500018644333,8|2,2:0|2:0,2:0:0:0:
79,312,152648,2,0,P|119:338|172:352,1,97.7500018644333,6|0,3:2|2:0,2:0:0:0:
248,384,152897,1,0,2:0:0:0:
248,384,152981,2,0,P|294:370|335:344,1,97.7500018644333,10|2,2:0|2:0,2:0:0:0:
345,147,153314,6,0,P|298:160|268:201,1,97.7500018644333,6|0,3:2|2:0,2:0:0:0:
262,289,153564,1,2,2:0:0:0:
262,289,153648,2,0,P|274:241|253:195,1,97.7500018644333,8|2,2:0|2:0,2:0:0:0:
150,111,153981,2,0,L|53:98,1,97.7500018644333,6|0,3:2|2:0,2:0:0:0:
248,184,154314,2,0,L|344:171,1,97.7500018644333,10|2,2:0|2:0,2:0:0:0:
470,66,154648,6,0,P|446:72|426:86,3,48.8750009322167,6|0|0|0,3:2|2:0|2:0|2:0,2:0:0:0:
489,147,154981,2,0,P|477:168|473:192,3,48.8750009322167,8|0|2|2,3:2|2:0|2:0|2:0,2:0:0:0:
396,238,155314,2,0,P|405:289|438:336,1,97.7500018644333,6|2,3:2|2:0,2:0:0:0:
489,203,155647,1,10,3:2:0:0:
354,160,155814,1,2,3:2:0:0:
280,298,155981,5,4,3:2:0:0:
280,298,156064,2,0,P|276:244|263:183,1,97.7500018644333,2|2,3:0|3:0,2:0:0:0:
209,65,156398,2,0,P|202:94|200:121,1,48.8750009322167,2|2,3:0|3:0,2:0:0:0:
118,168,156564,1,2,1:3:0:0:
118,168,156647,2,0,P|110:136|107:103,2,65.1666679096222,2|2|2,1:3|1:3|3:0,2:0:0:0:
46,239,156981,2,0,P|63:284|93:323,1,97.7500018644333,2|0,1:3|2:0,2:0:0:0:
233,351,157314,38,0,L|445:325,2,195.500003728867,6|8|0,3:2|2:0|3:0,2:0:0:0:
42,376,158148,1,2,2:0:0:0:
179,288,158314,1,10,2:0:0:0:
49,258,158481,1,2,2:0:0:0:
190,296,158648,6,0,P|223:249|233:190,1,97.7500018644333,2|0,3:2|2:0,2:0:0:0:
267,85,158981,2,0,P|280:131|309:170,1,97.7500018644333,10|0,2:0|2:0,2:0:0:0:
444,219,159314,2,0,P|471:213|501:191,3,48.8750009322167,2|0|0|0,3:2|3:0|3:0|3:0,2:0:0:0:
512,127,159647,2,0,L|501:241,1,97.7500018644333,10|2,2:0|3:2,2:0:0:0:
337,336,159981,5,6,3:2:0:0:
313,333,160064,1,0,3:0:0:0:
289,329,160147,1,0,3:0:0:0:
265,325,160230,1,0,3:0:0:0:
241,321,160314,2,0,P|185:324|129:350,1,97.7500018644333,4|2,1:3|1:2,2:0:0:0:
73,380,160564,1,2,1:2:0:0:
73,380,160648,2,0,P|70:324|44:268,1,97.7500018644333,6|2,3:2|3:2,2:0:0:0:
163,126,160981,2,0,P|146:171|145:220,1,97.7500018644333,14|2,1:2|3:2,2:0:0:0:
248,325,161314,6,0,L|353:314,1,97.7500018644333,6|0,3:2|2:0,2:0:0:0:
409,360,161564,1,2,1:3:0:0:
407,376,161648,1,0,2:0:0:0:
378,241,161814,1,2,1:3:0:0:
243,316,161981,2,0,L|138:305,1,97.7500018644333,6|0,3:2|2:0,2:0:0:0:
12,361,162314,2,0,P|2:338|0:314,3,48.8750009322167,2|0|2|0,1:2|1:3|1:2|1:3,2:0:0:0:
0,229,162648,38,0,L|15:127,1,97.7500018644333,6|0,3:2|2:0,2:0:0:0:
76,80,162897,1,2,2:0:0:0:
76,80,162981,2,0,P|130:102|190:88,1,97.7500018644333,8|2,2:0|2:0,2:0:0:0:
314,150,163314,2,0,P|357:129|406:132,1,97.7500018644333,6|0,3:2|2:0,2:0:0:0:
480,180,163564,1,0,2:0:0:0:
480,180,163647,2,0,L|490:278,1,97.7500018644333,10|2,2:0|2:0,2:0:0:0:
302,342,163981,6,0,L|292:244,1,97.7500018644333,6|0,3:2|2:0,2:0:0:0:
216,197,164231,1,2,2:0:0:0:
216,197,164315,2,0,P|168:199|110:252,1,97.7500018644333,8|2,2:0|2:0,2:0:0:0:
71,384,164648,2,0,P|93:341|76:264,1,97.7500018644333,6|0,3:2|2:0,2:0:0:0:
21,94,164981,2,0,P|-1:136|15:213,1,97.7500018644333,10|2,2:0|2:0,2:0:0:0:
91,292,165314,6,0,P|113:307|151:313,3,48.8750009322167,6|0|0|0,3:2|2:0|3:0|2:0,2:0:0:0:
206,339,165648,2,0,P|230:333|250:319,3,48.8750009322167,8|0|2|2,3:2|2:0|3:2|2:0,2:0:0:0:
305,247,165981,2,0,L|292:133,1,97.7500018644333,6|2,3:2|3:2,2:0:0:0:
400,312,166314,1,10,3:2:0:0:
426,182,166481,1,2,3:2:0:0:
305,247,166648,5,6,3:2:0:0:
273,264,166731,1,0,3:0:0:0:
237,270,166814,1,0,3:0:0:0:
201,261,166898,1,2,3:2:0:0:
171,241,166981,2,0,L|165:184,3,48.8750009322167,0|0|2|0,3:0|3:0|3:2|3:0,2:0:0:0:
98,135,167314,2,0,L|107:37,1,97.7500018644333,2|2,3:0|3:0,2:0:0:0:
9,241,167647,1,2,3:0:0:0:
7,216,167731,1,2,3:0:0:0:
4,192,167814,1,2,3:0:0:0:
2,168,167897,1,2,3:0:0:0:
0,144,167980,1,6,3:2:0:0:
256,192,168064,12,2,171648,2:0:0:0:
97,117,173314,38,0,P|130:99|211:93,3,118.999996368408,2|2|2|2,3:2|3:2|3:2|3:2,2:0:0:0:
167,177,174648,2,0,P|226:177|279:201,3,118.999996368408,2|2|2|2,3:2|3:2|3:2|3:2,2:0:0:0:
391,332,175981,6,0,L|379:175,1,144.500002756119,2|0,3:2|3:0,2:0:0:0:
436,72,176481,2,0,L|433:111,1,36.1250006890297,0|0,2:0|1:3,2:0:0:0:
369,182,176648,2,0,P|340:187|304:184,3,36.1250006890297,2|0|0|0,1:2|1:3|1:3|1:3,2:0:0:0:
255,211,176981,2,0,P|237:205|221:196,3,36.1250006890297,2|0|2|0,1:2|1:3|1:2|1:3,2:0:0:0:
145,175,177314,6,0,P|132:131|136:78,1,72.2500013780594,2|0,3:2|1:0,2:0:0:0:
34,48,177648,2,0,P|27:64|20:97,1,48.1666675853729,2|0,3:2|1:3,2:0:0:0:
10,268,177981,6,0,L|12:296,14,18.0625003445149,2|0|0|0|0|0|0|0|2|0|0|0|0|0|0,3:2|2:0|2:0|2:0|2:0|2:0|2:0|2:0|3:0|2:0|2:0|2:0|2:0|2:0|2:0,2:0:0:0:
24,300,178648,38,0,L|17:228,1,48.8750009322167,4|0,3:2|2:0,2:0:0:0:
103,195,178814,2,0,B|148:182|197:213|197:213|238:240|307:224,1,195.500003728867,2|0,1:2|1:3,2:0:0:0:
426,173,179314,1,2,3:2:0:0:
440,85,179481,1,2,1:2:0:0:
358,44,179648,1,2,3:2:0:0:
344,132,179815,1,2,1:2:0:0:
449,75,179981,6,0,P|473:66|505:65,4,48.8750009322167,2|0|0|0|0,3:2|2:0|1:3|2:0|3:2,2:0:0:0:
338,138,180481,2,0,P|276:127|232:98,1,97.7500018644333,0|0,1:2|3:2,2:0:0:0:
178,8,180814,2,0,P|173:38|175:67,1,48.8750009322167,2|0,1:2|1:0,2:0:0:0:
75,60,180981,1,0,3:0:0:0:
77,84,181064,1,0,1:3:0:0:
86,107,181147,1,0,1:3:0:0:
99,127,181231,1,0,1:3:0:0:
117,144,181314,5,4,3:2:0:0:
168,263,181481,2,0,P|231:210|313:223,1,170,2|0,1:2|1:0,2:0:0:0:
474,295,181981,2,0,P|487:257|484:192,1,85,2|2,3:2|1:2,2:0:0:0:
404,197,182314,2,0,P|404:239|391:279,1,85,2|2,3:2|1:2,2:0:0:0:
271,338,182648,6,0,P|224:354|117:315,2,127.5,2|2|2,3:2|2:0|1:2,2:0:0:0:
376,263,183314,2,0,L|361:155,1,85,2|0,3:2|1:3,2:0:0:0:
206,241,183648,2,0,L|217:156,1,85,2|0,3:0|1:3,2:0:0:0:
333,56,183981,38,0,P|356:48|397:42,2,42.5,6|0|0,3:2|2:0|1:3,2:0:0:0:
228,145,184314,2,0,P|204:140|165:125,2,42.5,2|0|0,3:2|2:0|1:3,2:0:0:0:
366,128,184648,2,0,P|384:143|410:176,2,42.5,2|0|0,3:2|2:0|1:3,2:0:0:0:
220,63,184981,2,0,P|212:39|206:-1,2,42.5,2|0|0,3:2|2:0|1:3,2:0:0:0:
309,185,185314,6,0,P|321:270|301:371,2,170,2|0|2,3:2|3:0|3:2,2:0:0:0:
200,114,186148,1,0,1:3:0:0:
200,114,186231,1,0,1:3:0:0:
200,114,186314,2,0,L|148:123,3,42.5,2|0|0|0,1:3|1:3|1:3|1:3,2:0:0:0:
69,171,186648,6,0,P|116:192|154:286,1,127.5,6|0,3:2|1:3,2:0:0:0:
210,313,186981,2,0,P|230:276|213:205,1,85,0|0,3:0|1:3,2:0:0:0:
324,145,187314,2,0,P|385:171|461:148,2,127.5,2|2|2,3:2|2:0|1:2,2:0:0:0:
234,21,187981,6,0,L|228:85,3,42.5,4|0|0|0,1:3|1:3|1:3|1:3,2:0:0:0:
148,111,188314,2,0,L|154:175,3,42.5,4|0|0|0,1:3|1:3|1:3|1:3,2:0:0:0:
228,219,188648,37,6,1:2:0:0:
206,220,188731,1,0,1:3:0:0:
187,228,188814,1,0,1:3:0:0:
171,242,188898,1,0,1:3:0:0:
160,260,188981,1,6,1:2:0:0:
155,280,189064,1,0,1:3:0:0:
158,301,189148,1,0,1:3:0:0:
166,321,189231,1,0,1:3:0:0:
181,336,189314,5,6,2:0:0:0:
181,336,189980,2,0,P|231:345|276:324,1,93.5000028533936,2|2,2:0|2:0,2:0:0:0:
367,178,190647,2,0,L|383:384,1,187.000005706787,2|2,2:0|2:0,2:0:0:0:
397,367,191981,6,0,L|384:211,1,140.25000428009,2|0,2:0|2:0,2:0:0:0:
370,150,192648,2,0,P|333:168|318:185,1,46.7500014266968,2|0,2:0|2:0,2:0:0:0:
296,292,192981,2,0,P|298:251|291:230,1,46.7500014266968,2|0,2:0|2:0,2:0:0:0:
247,102,193314,6,0,P|234:148|234:175,1,42.5000016212464,2|0,3:2|1:3,2:0:0:0:
154,295,193648,2,0,P|141:249|138:212,1,85.0000032424928,2|0,1:2|1:3,2:0:0:0:
50,132,193981,2,0,P|54:152|56:173,3,31.8750012159348,2|0|0|0,3:2|3:0|3:0|3:0,2:0:0:0:
124,229,194314,1,2,3:0:0:0:
123,236,194397,1,0,3:0:0:0:
121,244,194480,1,0,3:0:0:0:
120,252,194564,1,0,3:0:0:0:
118,260,194648,38,0,P|200:245|313:237,1,170,4|8,3:2|2:0,2:0:0:0:
443,157,195314,2,0,P|458:196|465:238,1,85,4|0,3:2|2:0,2:0:0:0:
381,257,195648,2,0,P|374:215|358:175,1,85,8|0,2:0|2:0,2:0:0:0:
197,92,195980,6,0,L|14:69,1,170,4|8,3:2|2:0,2:0:0:0:
281,7,196647,2,0,P|304:37|318:83,1,85,4|0,3:2|2:0,2:0:0:0:
425,181,196981,2,0,P|450:146|461:106,1,85,8|2,2:0|2:0,2:0:0:0:
250,242,197314,6,0,P|248:267|255:298,3,42.5,4|0|0|0,3:2|2:0|3:0|2:0,2:0:0:0:
331,310,197648,2,0,P|342:271|332:215,1,85,8|0,3:2|3:0,2:0:0:0:
261,112,197981,1,0,3:0:0:0:
234,107,198064,1,0,2:0:0:0:
208,110,198147,1,0,3:0:0:0:
184,120,198231,1,0,2:0:0:0:
163,137,198314,1,8,3:2:0:0:
142,152,198397,1,0,2:0:0:0:
117,162,198481,1,0,3:0:0:0:
91,164,198564,1,0,2:0:0:0:
64,160,198648,6,0,P|40:103|59:59,1,85,0|0,3:0|3:0,2:0:0:0:
228,185,198981,1,8,3:2:0:0:
231,217,199064,1,0,3:0:0:0:
224,248,199148,1,0,3:0:0:0:
207,275,199231,1,0,3:0:0:0:
182,295,199314,38,0,L|117:302,1,42.5,2|0,3:0|3:0,2:0:0:0:
0,250,199481,2,0,L|42:246,1,42.5,2|0,3:0|3:0,2:0:0:0:
220,360,199648,1,10,3:0:0:0:
242,337,199731,1,2,3:0:0:0:
271,324,199814,1,2,3:0:0:0:
302,321,199898,1,2,3:0:0:0:
333,328,199981,5,4,3:2:0:0:
256,192,200314,12,2,202314,3:0:0:0:
164,308,202648,6,0,L|161:355,1,44.6249986381531,0|2,2:0|2:0,2:0:0:0:
170,367,202981,6,0,L|191:154,1,195.500003728867,12|0,3:2|3:0,2:0:0:0:
284,37,203482,1,2,2:0:0:0:
206,184,203648,1,10,2:0:0:0:
110,58,203815,1,2,2:0:0:0:
248,110,203982,38,0,P|287:113|371:66,1,97.7500018644333,2|0,3:2|2:0,2:0:0:0:
497,18,204314,2,0,P|458:15|374:62,1,97.7500018644333,10|0,2:0|2:0,2:0:0:0:
453,206,204648,2,0,L|468:79,1,97.7500018644333,2|0,3:2|2:0,2:0:0:0:
331,281,204981,2,0,L|346:408,1,97.7500018644333,10|2,2:0|2:0,2:0:0:0:
228,135,205315,6,0,P|177:113|113:118,1,97.7500018644333,6|0,3:2|2:0,2:0:0:0:
50,252,205648,2,0,P|101:274|165:269,1,97.7500018644333,14|0,2:0|2:0,2:0:0:0:
355,197,205981,2,0,P|306:199|262:219,1,97.7500018644333,6|0,3:2|2:0,2:0:0:0:
246,305,206232,1,0,2:0:0:0:
246,305,206315,2,0,L|252:191,1,97.7500018644333,14|0,2:0|2:0,2:0:0:0:
88,106,206648,6,0,L|100:217,1,97.7500018644333,6|0,3:2|2:0,2:0:0:0:
36,286,206898,2,0,P|90:285|176:346,1,146.62500279665,2|2,1:3|1:3,2:0:0:0:
294,235,207315,2,0,P|321:274|328:322,1,97.7500018644333,6|0,3:2|2:0,2:0:0:0:
453,374,207648,2,0,P|463:345|463:309,3,48.8750009322167,2|0|0|0,1:2|1:3|1:3|1:3,2:0:0:0:
499,257,207981,6,0,P|468:217|461:152,1,97.7500018644333,6|0,3:2|2:0,2:0:0:0:
492,96,208232,1,2,2:0:0:0:
492,96,208314,2,0,P|472:142|420:181,1,97.7500018644333,8|2,2:0|2:0,2:0:0:0:
283,229,208648,2,0,L|173:214,1,97.7500018644333,6|0,3:2|2:0,2:0:0:0:
100,198,208898,1,0,2:0:0:0:
100,198,208981,2,0,L|210:183,1,97.7500018644333,10|2,2:0|2:0,2:0:0:0:
358,169,209315,38,0,P|375:213|350:288,1,97.7500018644333,6|0,3:2|2:0,2:0:0:0:
293,321,209565,1,2,2:0:0:0:
293,321,209649,2,0,P|275:276|300:201,1,97.7500018644333,8|2,2:0|2:0,2:0:0:0:
484,337,209982,2,0,L|380:350,1,97.7500018644333,6|0,3:2|2:0,2:0:0:0:
196,308,210314,2,0,L|300:321,1,97.7500018644333,10|2,2:0|2:0,2:0:0:0:
458,249,210648,6,0,P|472:218|475:184,3,48.8750009322167,6|0|0|0,3:2|2:0|2:0|2:0,2:0:0:0:
512,140,210981,2,0,P|506:116|495:94,3,48.8750009322167,8|0|2|2,3:2|2:0|2:0|2:0,2:0:0:0:
440,31,211314,2,0,L|376:39,3,48.8750009322167,6|0|2|0,3:2|2:0|2:0|3:0,2:0:0:0:
324,104,211648,2,0,L|260:96,3,48.8750009322167,10|0|2|0,3:2|2:0|3:2|2:0,2:0:0:0:
202,46,211982,5,4,3:2:0:0:
202,46,212065,2,0,P|148:53|102:99,1,97.7500018644333,2|2,3:0|3:0,2:0:0:0:
29,199,212398,2,0,P|22:170|20:143,1,48.8750009322167,2|2,3:0|3:0,2:0:0:0:
125,233,212565,1,2,1:3:0:0:
125,233,212648,2,0,P|128:198|137:164,2,65.1666679096222,2|2|2,1:3|1:3|3:0,2:0:0:0:
201,298,212982,2,0,P|218:252|248:213,1,97.7500018644333,2|0,1:3|2:0,2:0:0:0:
401,164,213315,6,0,P|427:243|433:378,2,195.500003728867,6|8|0,3:2|2:0|3:0,2:0:0:0:
330,47,214149,1,2,2:0:0:0:
289,202,214315,1,10,2:0:0:0:
345,40,214482,1,2,2:0:0:0:
204,159,214649,38,0,P|156:171|108:169,1,97.7500018644333,2|0,3:2|2:0,2:0:0:0:
4,44,214981,2,0,P|51:31|99:33,1,97.7500018644333,10|0,2:0|2:0,2:0:0:0:
217,175,215315,2,0,P|216:205|208:237,3,48.8750009322167,2|0|0|0,3:2|3:0|3:0|3:0,2:0:0:0:
152,285,215648,2,0,P|193:256|266:259,1,97.7500018644333,10|2,2:0|3:2,2:0:0:0:
404,328,215981,5,6,3:2:0:0:
401,304,216065,1,0,3:0:0:0:
397,280,216148,1,0,3:0:0:0:
393,256,216231,1,0,3:0:0:0:
389,232,216315,2,0,L|370:114,1,97.7500018644333,4|2,1:3|1:2,2:0:0:0:
327,74,216565,1,2,1:2:0:0:
327,74,216648,2,0,P|363:46|427:34,1,97.7500018644333,6|2,3:2|3:2,2:0:0:0:
216,163,216981,2,0,P|177:133|130:122,1,97.7500018644333,14|2,1:2|3:2,2:0:0:0:
376,219,217314,6,0,P|417:190|475:174,1,97.7500018644333,6|0,3:2|2:0,2:0:0:0:
510,253,217564,2,0,P|451:264|394:346,1,146.62500279665,2|2,1:3|1:3,2:0:0:0:
243,384,217982,2,0,P|229:337|234:289,1,97.7500018644333,6|0,3:2|2:0,2:0:0:0:
267,145,218315,2,0,P|264:169|255:191,3,48.8750009322167,2|0|2|0,1:2|1:3|1:2|1:3,2:0:0:0:
177,236,218648,6,0,P|128:238|84:218,1,97.7500018644333,6|0,3:2|2:0,2:0:0:0:
51,153,218898,1,2,2:0:0:0:
51,153,218982,2,0,L|59:49,1,97.7500018644333,8|2,2:0|2:0,2:0:0:0:
177,236,219314,2,0,L|185:340,1,97.7500018644333,6|0,3:2|2:0,2:0:0:0:
257,377,219565,1,0,2:0:0:0:
257,377,219648,2,0,L|267:279,1,97.7500018644333,10|2,2:0|2:0,2:0:0:0:
348,162,219982,38,0,P|396:164|454:217,1,97.7500018644333,6|0,3:2|2:0,2:0:0:0:
459,277,220232,1,2,2:0:0:0:
459,277,220314,2,0,P|411:275|353:222,1,97.7500018644333,8|2,2:0|2:0,2:0:0:0:
310,58,220649,2,0,L|333:175,1,97.7500018644333,6|0,3:2|2:0,2:0:0:0:
229,332,220981,2,0,L|252:215,1,97.7500018644333,10|2,2:0|2:0,2:0:0:0:
390,159,221314,6,0,L|316:170,3,48.8750009322167,6|0|0|0,3:2|2:0|3:0|2:0,2:0:0:0:
260,226,221648,2,0,L|186:215,3,48.8750009322167,8|0|2|2,3:2|2:0|3:2|2:0,2:0:0:0:
106,252,221981,2,0,P|82:203|89:131,1,97.7500018644333,6|2,3:2|3:2,2:0:0:0:
197,67,222315,1,10,3:2:0:0:
97,177,222482,1,2,3:2:0:0:
196,48,222648,5,6,3:2:0:0:
230,35,222731,1,0,3:0:0:0:
266,31,222814,1,0,3:0:0:0:
303,33,222897,1,2,3:2:0:0:
338,42,222982,2,0,P|361:58|382:64,3,48.8750009322167,0|0|2|0,3:0|3:0|3:2|3:0,2:0:0:0:
473,109,223314,2,0,P|500:59|493:-8,1,97.7500018644333,2|2,3:0|3:0,2:0:0:0:
372,170,223648,1,2,3:0:0:0:
374,194,223731,1,2,3:0:0:0:
376,218,223814,1,2,3:0:0:0:
379,242,223897,1,2,3:0:0:0:
381,267,223981,6,0,P|284:248|171:237,1,178.499994552612,6|8,3:2|2:0,2:0:0:0:
45,353,224648,2,0,P|97:346|149:336,1,89.2499972763062,0|0,3:0|2:0,2:0:0:0:
297,267,224981,2,0,P|253:259|208:254,1,89.2499972763062,8|0,2:0|2:0,2:0:0:0:
45,353,225314,38,0,P|25:298|33:231,1,89.2499972763062,0|0,3:0|2:0,2:0:0:0:
0,194,225564,1,0,2:0:0:0:
0,194,225648,2,0,P|29:145|64:118,1,89.2499972763062,8|0,2:0|2:0,2:0:0:0:
196,61,225981,6,0,P|233:105|295:132,1,89.2499972763062,0|0,3:0|2:0,2:0:0:0:
310,178,226231,1,0,2:0:0:0:
310,178,226315,2,0,P|367:176|407:160,1,89.2499972763062,8|2,2:0|2:0,2:0:0:0:
499,25,226648,6,0,L|486:143,1,89.2499972763062,4|0,3:0|2:0,2:0:0:0:
400,360,226981,2,0,L|387:242,1,89.2499972763062,12|0,2:0|2:0,2:0:0:0:
253,23,227314,6,0,L|240:141,1,89.2499972763062,4|0,3:2|2:0,2:0:0:0:
154,358,227648,2,0,L|141:240,1,89.2499972763062,12|0,2:0|2:0,2:0:0:0:
8,105,227981,70,0,P|70:126|97:163,1,89.2499972763062,4|0,3:2|2:0,2:0:0:0:
67,225,228231,1,2,3:0:0:0:
68,214,228314,1,8,2:0:0:0:
87,49,228481,1,2,3:0:0:0:
228,120,228648,2,0,P|254:119|275:113,3,44.6249986381531,4|0|0|0,3:2|2:0|2:0|3:0,2:0:0:0:
358,125,228981,1,10,1:3:0:0:
375,111,229064,1,0,1:3:0:0:
389,93,229147,1,2,1:2:0:0:
398,73,229231,1,0,1:3:0:0:
403,51,229314,6,0,L|421:209,2,146.62500279665,6|2|2,3:2|2:0|2:0,2:0:0:0:
510,133,229981,2,0,L|493:343,1,195.500003728867,6|10,3:2|2:0,2:0:0:0:
213,339,230648,38,0,P|171:290|141:200,2,146.62500279665,6|2|2,3:2|2:0|2:0,2:0:0:0:
378,297,231314,2,0,P|294:272|244:194,1,146.62500279665,6|0,3:2|2:0,2:0:0:0:
255,208,231648,1,10,2:0:0:0:
307,69,231814,1,2,2:0:0:0:
187,163,231981,6,0,P|135:178|81:178,1,97.7500018644333,6|0,3:2|3:0,2:0:0:0:
306,155,232314,2,0,P|358:170|412:170,1,97.7500018644333,12|0,3:2|3:0,2:0:0:0:
126,273,232648,2,0,P|74:255|30:224,1,97.7500018644333,4|0,3:2|3:0,2:0:0:0:
367,265,232981,2,0,P|418:247|462:216,1,97.7500018644333,12|0,3:2|3:0,2:0:0:0:
500,24,233314,6,0,L|490:93,3,48.8750009322167,6|0|0|0,3:2|3:0|3:0|3:0,2:0:0:0:
398,105,233648,2,0,L|408:174,3,48.8750009322167,8|0|0|0,3:0|3:0|3:0|3:0,2:0:0:0:
313,205,233981,5,2,3:0:0:0:
294,203,234064,1,2,3:0:0:0:
276,201,234147,1,2,3:0:0:0:
258,199,234231,1,2,3:0:0:0:
240,197,234314,2,0,L|179:191,1,48.8750009322167,10|0,3:0|3:0,2:0:0:0:
52,118,234481,2,0,L|113:112,1,48.8750009322167,2|0,3:0|3:0,2:0:0:0:
113,291,234648,38,0,P|27:270|9:207,2,144.500002756119,6|2|2,1:3|1:3|1:3,2:0:0:0:
86,219,235648,1,2,1:3:0:0:
246,337,235981,6,0,P|332:316|350:253,2,144.500002756119,10|2|2,2:3|1:3|1:3,2:0:0:0:
273,265,236981,1,2,1:2:0:0:
113,291,237314,6,0,P|27:270|9:207,1,144.500002756119,2|2,1:3|1:3,2:0:0:0:
211,108,237981,1,2,1:3:0:0:
200,194,238148,1,2,1:3:0:0:
298,52,238314,1,2,1:3:0:0:
309,138,238481,1,2,1:3:0:0:
407,85,238648,22,0,L|472:73,2,48.1666675853729,4|0|0,1:2|3:0|3:0,2:0:0:0:
320,128,238981,2,0,L|255:116,2,48.1666675853729,4|0|0,1:2|3:0|3:0,2:0:0:0:
407,171,239314,2,0,L|472:159,2,48.1666675853729,4|0|0,1:2|3:0|3:0,2:0:0:0:
333,238,239648,1,4,1:2:0:0:
256,192,239981,12,0,241981,3:0:0:0:
247,159,242314,22,0,L|241:104,3,36.1250006890297,0|0|0|0,1:0|1:0|1:0|1:0,2:0:0:0:
271,52,242648,6,0,L|264:-10,1,48.8750009322167,2|2,1:3|1:3,2:0:0:0:
150,42,242898,6,0,L|101:3,1,48.8750009322167,2|2,1:3|1:3,2:0:0:0:
59,120,243148,6,0,L|-3:127,1,48.8750009322167,2|2,1:3|1:3,2:0:0:0:
49,240,243398,38,0,L|10:288,1,48.8750009322167,2|2,1:3|1:3,2:0:0:0:
127,332,243648,6,0,L|134:394,2,48.8750009322167,2|2|2,1:3|1:3|1:3,2:0:0:0:
282,356,243981,5,2,2:0:0:0:
292,350,244064,1,2,2:0:0:0:
304,346,244148,1,2,2:0:0:0:
316,344,244231,1,2,2:0:0:0:
328,344,244314,6,0,B|370:305|439:306|439:306|501:308|560:252|564:165|427:97|386:207|414:214|414:214|423:228|517:131|350:54|272:127|287:209|320:253|320:253|338:282|330:330,1,803.249975486756,4|0,1:3|2:0,2:0:0:0:
243,349,249648,38,2,P|257:311|222:264,1,101.999996887207,0|0,2:0|2:0,2:0:0:0:
