osu file format v14

[General]
AudioFilename: audio.mp3
AudioLeadIn: 0
PreviewTime: 46917
Countdown: 1
SampleSet: Soft
StackLeniency: 0.7
Mode: 0
LetterboxInBreaks: 0
WidescreenStoryboard: 0

[Editor]
Bookmarks: 55127
DistanceSpacing: 0.6
BeatDivisor: 4
GridSize: 4
TimelineZoom: 1.9

[Metadata]
Title:Namida no Mukou
TitleUnicode:Namida no Mukou
Artist:Stereopony
ArtistUnicode:Stereopony
Creator:Pawlyk here
Version:My Story
Source:
Tags:A Hydrangea Blooms
BeatmapID:1916956
BeatmapSetID:917973

[Difficulty]
HPDrainRate:6
CircleSize:4.3
OverallDifficulty:7.6
ApproachRate:8.3
SliderMultiplier:1.8
SliderTickRate:1

[Events]
//Background and Video events
0,0,"758079.jpg",0,0
//Break Periods
//Storyboard Layer 0 (Background)
//Storyboard Layer 1 (Fail)
//Storyboard Layer 2 (Pass)
//Storyboard Layer 3 (Foreground)
//Storyboard Sound Samples

[TimingPoints]
667,444.444444444444,4,2,1,50,1,0
667,-133.333333333333,4,2,1,50,0,0
1443,-100,4,2,1,5,0,0
1555,444.444444444444,4,2,1,50,1,0
2888,-111.111111111111,4,2,1,50,0,0
5110,-125,4,2,1,50,0,0
7777,-111.111111111111,4,2,1,50,0,0
12221,-99.9999999999999,4,2,1,50,0,0
14666,-90.9090909090909,4,2,1,50,0,0
14999,-100,4,2,1,50,0,0
19999,-111.111111111111,4,2,1,50,0,0
33554,-105.263157894737,4,2,1,50,0,0
40666,-100,4,2,1,50,0,0
45777,-83.3333333333333,4,2,1,50,0,0
47777,-90.9090909090909,4,2,1,60,0,1
59999,-80,4,2,1,60,0,1
61999,-86.9565217391304,4,2,1,60,0,1
69554,-90.9090909090909,4,2,1,60,0,1
72666,-100,4,2,1,50,0,0

[HitObjects]
231,210,889,5,0,0:0:0:0:
316,265,1111,2,0,P|329:201|302:141,1,101.250003862381
316,158,1555,2,0,B|244:187|171:186|237:116|165:109|59:124|63:201|65:260|180:306|198:238|198:216,1,360,6|0,0:0|0:0,0:0:0:0:
200,320,2666,1,0,2:0:0:0:
200,320,2888,2,0,P|151:331|99:312,1,80.9999975280763,0|0,2:0|2:0,2:0:0:0:
269,272,3332,5,6,0:0:0:0:
269,272,3554,2,0,B|307:274|333:294|333:294|352:272|352:272|391:284|423:274,2,161.999995056153
268,370,4888,1,0,0:0:0:0:
200,320,5110,2,0,L|194:165,1,144,6|0,0:0|0:0,0:0:0:0:
101,263,5777,1,2,0:0:0:0:
101,263,5999,2,0,L|91:171,1,72
133,86,6443,1,0,0:0:0:0:
194,176,6666,6,0,L|354:153,2,144,2|0|0,0:0|0:0|0:0,0:0:0:0:
249,327,7999,1,0,0:0:0:0:
314,245,8221,2,0,P|361:243|387:306,1,121.499996292114
381,331,8666,2,0,L|474:335,1,80.9999975280763,6|0,0:0|0:0,0:0:0:0:
474,172,9110,1,8,0:0:0:0:
339,148,9332,1,0,0:0:0:0:
339,148,9443,2,0,L|251:148,1,80.9999975280763
251,218,9777,2,0,L|148:217,1,80.9999975280763,0|8,0:0|0:0,0:0:0:0:
61,178,10221,1,0,2:0:0:0:
61,178,10443,6,0,P|48:216|58:255,1,80.9999975280763,4|0,2:0|2:0,2:0:0:0:
139,343,10888,1,8,0:0:0:0:
253,258,11110,1,0,0:0:0:0:
253,258,11221,1,8,0:0:0:0:
253,258,11332,6,0,L|249:195,3,40.4999987640381,8|0|8|0,0:0|0:0|0:0|0:0,0:0:0:0:
284,340,11777,1,8,2:0:0:0:
327,351,11888,1,8,2:0:0:0:
369,339,11999,1,8,2:0:0:0:
398,306,12110,1,0,2:0:0:0:
404,258,12221,6,0,L|393:171,1,45,6|0,2:0|2:0,2:0:0:0:
487,191,12443,2,0,L|481:126,1,45,2|0,0:0|0:0,0:0:0:0:
363,143,12666,2,0,L|243:126,1,90,8|0,0:0|0:0,0:0:0:0:
242,130,12999,1,0,0:0:0:0:
242,130,13110,2,0,L|248:174,1,45
163,168,13332,2,0,L|157:123,1,45
99,51,13554,6,0,P|40:71|40:197,1,180,8|2,0:0|0:0,0:0:0:0:
163,168,14221,1,0,0:0:0:0:
163,168,14332,1,0,0:0:0:0:
163,168,14443,2,0,L|101:172,1,45,8|0,0:0|0:0,0:0:0:0:
88,299,14666,2,0,B|161:267|161:328|234:289,1,148.50000453186,6|0,0:0|0:0,0:0:0:0:
259,276,15110,1,2,0:0:0:0:
163,168,15332,2,0,P|155:121|178:76,1,90,8|0,0:0|0:0,0:0:0:0:
234,130,15666,1,0,0:0:0:0:
234,130,15777,6,0,L|311:127,1,45,6|0,0:0|0:0,0:0:0:0:
323,210,15999,2,0,L|392:206,1,45,0|2,0:0|0:0,0:0:0:0:
446,123,16221,1,8,0:0:0:0:
324,38,16443,1,0,0:0:0:0:
324,38,16554,1,0,0:0:0:0:
324,38,16666,2,0,L|325:93,1,45
234,130,16888,2,0,L|176:117,1,45,2|2,0:0|0:0,0:0:0:0:
104,125,17110,6,0,P|69:191|111:261,1,135,10|0,0:0|0:0,0:0:0:0:
108,262,17554,1,6,0:0:0:0:
250,204,17777,1,0,0:0:0:0:
250,204,17888,1,0,0:0:0:0:
250,204,17999,2,0,L|251:256,1,45,8|0,0:0|0:0,0:0:0:0:
292,339,18221,2,0,B|208:308|240:378|132:335,1,135,6|0,0:0|0:0,0:0:0:0:
135,339,18666,1,8,0:0:0:0:
161,169,18888,1,8,0:0:0:0:
161,169,18999,1,8,0:0:0:0:
161,169,19110,1,8,0:0:0:0:
4,250,19332,5,0,0:0:0:0:
81,85,19666,1,0,0:0:0:0:
160,235,19999,2,0,B|243:217|240:272|332:239,1,161.999995056153
330,159,20666,2,0,P|333:88|389:51,1,121.499996292114,8|0,0:0|0:0,0:0:0:0:
398,124,21110,6,0,L|399:240,1,80.9999975280763,2|0,0:0|0:0,0:0:0:0:
435,243,21443,2,0,L|432:133,1,80.9999975280763,2|0,0:0|0:0,0:0:0:0:
433,66,21777,1,2,0:0:0:0:
330,159,21999,1,0,0:0:0:0:
330,159,22221,1,0,0:0:0:0:
311,33,22443,2,0,P|262:28|209:45,1,80.9999975280763,8|0,0:0|0:0,0:0:0:0:
156,106,22888,5,2,0:0:0:0:
349,211,23221,1,2,0:0:0:0:
184,323,23554,2,0,P|215:245|130:215,1,161.999995056153,2|0,0:0|0:0,0:0:0:0:
64,219,24221,2,0,P|18:181|29:102,1,121.499996292114,8|0,0:0|0:0,0:0:0:0:
43,105,24666,6,0,L|155:83,1,80.9999975280763,2|0,0:0|0:0,0:0:0:0:
130,37,24999,2,0,L|51:52,1,80.9999975280763,2|0,0:0|0:0,0:0:0:0:
16,122,25332,1,2,0:0:0:0:
139,167,25554,1,0,0:0:0:0:
139,167,25777,1,2,0:0:0:0:
63,246,25999,2,0,L|75:336,1,80.9999975280763,8|0,0:0|0:0,0:0:0:0:
139,167,26443,5,6,0:0:0:0:
222,314,26777,1,2,0:0:0:0:
351,131,27110,2,0,P|382:179|302:253,1,161.999995056153,2|0,0:0|0:0,0:0:0:0:
252,152,27777,2,0,P|242:78|276:15,1,121.499996292114,8|0,0:0|0:0,0:0:0:0:
320,39,28221,2,0,L|436:43,1,80.9999975280763,2|0,0:0|0:0,0:0:0:0:
452,89,28554,2,0,L|345:86,1,80.9999975280763,2|0,0:0|0:0,0:0:0:0:
270,32,28888,5,2,0:0:0:0:
354,154,29110,1,0,0:0:0:0:
354,154,29332,1,0,0:0:0:0:
250,228,29554,2,0,L|133:217,1,80.9999975280763,8|0,0:0|0:0,0:0:0:0:
50,210,29999,5,2,0:0:0:0:
253,119,30332,1,2,0:0:0:0:
172,314,30666,2,0,P|150:217|184:153,1,161.999995056153,6|0,0:0|0:0,0:0:0:0:
255,223,31332,2,0,L|394:212,1,121.499996292114,8|0,0:0|0:0,0:0:0:0:
408,209,31777,2,0,P|418:163|388:102,1,80.9999975280763,2|0,0:0|0:0,0:0:0:0:
456,122,32110,2,0,P|463:177|450:235,1,80.9999975280763,2|0,0:0|0:0,0:0:0:0:
430,303,32443,5,2,0:0:0:0:
355,160,32666,1,0,0:0:0:0:
460,202,32888,1,8,0:0:0:0:
344,283,33110,1,8,0:0:0:0:
271,173,33332,1,8,0:0:0:0:
271,173,33443,1,0,0:0:0:0:
271,173,33554,6,0,P|213:154|131:191,1,128.249996575356,14|2,0:0|0:0,0:0:0:0:
119,187,33999,2,0,P|72:196|25:180,1,85.4999977169037,8|2,0:0|0:0,0:0:0:0:
77,81,34443,1,0,0:0:0:0:
36,186,34666,1,2,0:0:0:0:
158,82,34888,1,8,0:0:0:0:
6,48,35110,1,0,0:0:0:0:
110,154,35332,6,0,P|177:146|258:163,1,128.249996575356,6|2,0:0|0:0,0:0:0:0:
292,208,35777,2,0,P|314:161|298:110,1,85.4999977169037,8|2,2:0|2:0,2:0:0:0:
250,6,36221,2,0,P|232:55|251:116,1,85.4999977169037,0|2,2:0|2:0,2:0:0:0:
292,208,36666,1,8,2:0:0:0:
397,127,36888,1,0,2:0:0:0:
446,258,37110,6,0,P|454:318|443:385,1,128.249996575356,6|2,2:0|2:0,2:0:0:0:
382,358,37554,2,0,P|387:311|379:263,1,85.4999977169037,8|2,2:0|2:0,2:0:0:0:
297,363,37999,1,0,0:0:0:0:
297,363,38221,1,2,0:0:0:0:
181,303,38443,2,0,P|164:342|166:384,1,85.4999977169037,10|0,2:0|2:0,2:0:0:0:
86,251,38888,6,0,P|64:189|99:118,1,128.249996575356,6|2,0:0|0:0,0:0:0:0:
163,188,39332,2,0,L|250:187,1,85.4999977169037,8|0,0:0|0:0,0:0:0:0:
216,102,39777,1,0,0:0:0:0:
216,102,39888,1,0,0:0:0:0:
216,102,39999,2,0,L|173:102,1,42.7499988584519,2|0,0:0|0:0,0:0:0:0:
299,117,40221,2,0,P|300:76|276:40,1,85.4999977169037,8|2,2:0|0:0,0:0:0:0:
248,187,40666,5,6,0:0:0:0:
382,156,40888,1,0,0:0:0:0:
382,156,40999,1,0,0:0:0:0:
382,156,41110,2,0,P|435:143|480:159,1,90,8|0,0:0|0:0,0:0:0:0:
508,208,41443,2,0,L|495:331,1,90,4|0,0:0|0:0,0:0:0:0:
449,346,41777,1,0,0:0:0:0:
355,248,41999,1,8,0:0:0:0:
273,361,42221,1,0,0:0:0:0:
273,361,42332,1,0,0:0:0:0:
273,361,42443,6,0,P|226:351|185:363,1,90,6|0,0:0|0:0,0:0:0:0:
173,237,42888,2,0,P|177:180|154:129,1,90,8|0,0:0|0:0,0:0:0:0:
79,146,43221,2,0,P|64:103|84:44,1,90,4|0,0:0|0:0,0:0:0:0:
140,2,43554,1,0,0:0:0:0:
166,149,43777,1,8,0:0:0:0:
271,50,43999,1,0,0:0:0:0:
72,60,44221,5,8,0:0:0:0:
187,218,44443,1,8,0:0:0:0:
271,50,44666,1,8,0:0:0:0:
105,181,44888,1,0,0:0:0:0:
267,288,45110,1,8,0:0:0:0:
187,92,45332,1,8,0:0:0:0:
370,93,45554,1,0,0:0:0:0:
236,191,45777,6,0,B|150:223|150:161|51:204,1,161.999995056153,6|0,0:0|0:0,0:0:0:0:
6,188,46221,2,0,P|-6:234|3:298,1,107.999996704102,10|0,0:0|0:0,0:0:0:0:
75,296,46554,2,0,P|60:248|94:179,1,107.999996704102,6|0,0:0|0:0,0:0:0:0:
145,247,46888,2,0,L|139:404,1,107.999996704102,6|0,0:0|0:0,0:0:0:0:
261,232,47332,5,8,0:0:0:0:
298,226,47443,1,8,0:0:0:0:
335,228,47554,1,8,0:0:0:0:
372,236,47666,1,8,0:0:0:0:
405,245,47777,6,0,P|430:185|402:122,1,99.0000030212403,6|0,0:0|0:0,0:0:0:0:
372,360,48221,2,0,P|445:362|500:314,1,148.50000453186,8|0,0:0|0:0,0:0:0:0:
511,292,48666,1,2,0:0:0:0:
350,287,48888,1,2,0:0:0:0:
350,287,49110,6,0,L|229:277,1,99.0000030212403,12|0,0:0|0:0,0:0:0:0:
254,145,49554,2,0,L|310:132,1,49.5000015106202,6|0,0:0|0:0,0:0:0:0:
189,229,49777,2,0,P|131:236|82:212,1,99.0000030212403,0|8,0:0|0:0,0:0:0:0:
114,62,50221,2,0,P|147:121|144:169,1,99.0000030212403,0|2,0:0|0:0,0:0:0:0:
23,274,50666,2,0,P|6:228|17:180,1,99.0000030212403,2|8,2:0|0:0,0:0:0:0:
114,62,51110,1,0,0:0:0:0:
189,229,51332,6,0,L|357:210,1,148.50000453186,6|0,0:0|0:0,0:0:0:0:
358,214,51777,1,8,0:0:0:0:
238,152,51999,1,0,0:0:0:0:
238,152,52110,1,0,0:0:0:0:
238,152,52221,2,0,L|123:166,1,99.0000030212403,2|0,0:0|0:0,0:0:0:0:
304,286,52666,1,8,0:0:0:0:
434,258,52888,6,0,P|442:207|422:163,1,99.0000030212403,2|0,0:0|0:0,0:0:0:0:
304,286,53332,2,0,L|325:383,1,99.0000030212403,0|8,0:0|0:0,0:0:0:0:
177,247,53777,2,0,P|143:169|202:72,1,198.000006042481,6|0,0:0|0:0,0:0:0:0:
324,109,54443,1,8,2:0:0:0:
358,112,54554,1,8,2:0:0:0:
392,112,54666,1,8,2:0:0:0:
426,113,54777,1,0,2:0:0:0:
460,113,54888,6,0,L|477:15,1,99.0000030212403,6|0,2:0|2:0,2:0:0:0:
324,109,55332,1,8,0:0:0:0:
226,28,55554,1,0,0:0:0:0:
226,28,55666,2,0,P|171:19|119:36,1,99.0000030212403
180,103,55999,2,0,P|212:154|199:220,1,99.0000030212403,2|8,2:0|2:0,2:0:0:0:
108,280,56443,1,0,2:0:0:0:
108,280,56554,1,0,2:0:0:0:
108,280,56666,6,0,L|-14:264,1,99.0000030212403,2|2,2:0|2:0,2:0:0:0:
160,324,57110,2,0,P|216:336|270:316,1,99.0000030212403,8|0,0:0|0:0,0:0:0:0:
321,283,57443,2,0,L|345:413,1,99.0000030212403
410,278,57777,1,2,0:0:0:0:
252,237,57999,1,8,0:0:0:0:
390,136,58221,1,0,0:0:0:0:
321,283,58443,5,6,0:0:0:0:
214,149,58666,1,8,0:0:0:0:
214,149,58888,1,8,0:0:0:0:
416,197,59110,1,6,0:0:0:0:
255,325,59332,1,8,0:0:0:0:
255,325,59554,1,8,0:0:0:0:
306,101,59777,1,0,0:0:0:0:
426,283,59999,6,0,P|359:267|335:158,1,168.75,2|0,0:0|0:0,0:0:0:0:
390,147,60443,2,0,P|407:83|378:30,1,112.5,6|8,0:0|0:0,0:0:0:0:
306,101,60777,2,0,L|172:90,1,112.5,6|0,0:0|0:0,0:0:0:0:
118,38,61110,1,10,0:0:0:0:
146,181,61332,1,8,0:0:0:0:
185,163,61443,1,8,0:0:0:0:
224,182,61554,1,8,0:0:0:0:
234,224,61665,1,8,0:0:0:0:
208,259,61776,1,8,0:0:0:0:
164,261,61887,1,0,0:0:0:0:
125,247,61999,6,0,P|67:237|14:263,1,103.500001974106,6|0,0:0|0:0,0:0:0:0:
138,375,62443,2,0,L|232:376,1,51.7500009870529,8|0,0:0|0:0,0:0:0:0:
258,302,62666,2,0,P|354:319|349:393,1,155.250002961159,6|0,0:0|0:0,0:0:0:0:
258,302,63110,1,2,0:0:0:0:
360,228,63332,2,0,P|377:167|346:110,1,103.500001974106,8|0,0:0|0:0,0:0:0:0:
247,52,63777,5,2,0:0:0:0:
234,186,63999,2,0,P|169:200|121:184,1,103.500001974106,2|8,0:0|0:0,0:0:0:0:
304,176,64443,2,0,P|348:225|358:274,1,103.500001974106,2|0,0:0|0:0,0:0:0:0:
186,120,64888,2,0,P|172:55|188:7,1,103.500001974106,2|8,0:0|0:0,0:0:0:0:
234,186,65332,5,0,0:0:0:0:
312,69,65554,6,0,B|394:114|393:46|493:81,1,155.250002961159,6|0,0:0|0:0,0:0:0:0:
498,80,65999,1,8,0:0:0:0:
483,206,66221,1,2,0:0:0:0:
483,206,66443,2,0,P|421:198|377:224,1,103.500001974106,2|0,0:0|0:0,0:0:0:0:
279,320,66888,2,0,L|269:184,1,103.500001974106,12|0,0:0|0:0,0:0:0:0:
261,81,67332,5,10,0:0:0:0:
385,215,67554,1,2,0:0:0:0:
210,190,67777,1,0,0:0:0:0:
352,66,67999,2,0,P|275:7|201:74,1,207.000003948212,14|2,0:0|0:0,0:0:0:0:
180,228,68666,1,8,0:0:0:0:
144,234,68777,1,8,0:0:0:0:
108,239,68888,1,8,0:0:0:0:
72,242,68999,1,0,0:0:0:0:
36,245,69110,6,0,L|20:138,1,103.500001974106,14|0,0:0|0:0,0:0:0:0:
180,228,69554,2,0,P|195:268|185:334,1,99.0000030212403,10|0,0:0|0:0,0:0:0:0:
261,311,69888,2,0,L|385:300,1,99.0000030212403,2|0,0:0|0:0,0:0:0:0:
404,299,70221,1,2,0:0:0:0:
316,216,70443,1,8,0:0:0:0:
433,150,70666,1,0,0:0:0:0:
433,150,70777,1,0,0:0:0:0:
433,150,70888,6,0,P|443:87|423:33,1,99.0000030212403,6|0,0:0|0:0,0:0:0:0:
297,10,71332,1,8,0:0:0:0:
252,134,71554,1,8,0:0:0:0:
252,134,71666,1,8,0:0:0:0:
252,134,71777,2,0,L|187:135,3,49.5000015106202,8|0|8|0,0:0|0:0|0:0|0:0,0:0:0:0:
129,86,72221,1,8,0:0:0:0:
114,122,72332,1,8,0:0:0:0:
113,161,72443,1,8,0:0:0:0:
129,197,72554,1,8,0:0:0:0:
164,215,72666,6,0,L|237:216,1,45,10|0,0:0|0:0,0:0:0:0:
265,305,72888,2,0,L|184:302,1,45,2|0,0:0|0:0,0:0:0:0:
98,302,73110,1,8,0:0:0:0:
