osu file format v14

[General]
AudioFilename: audio.mp3
AudioLeadIn: 0
PreviewTime: -1
Countdown: 0
SampleSet: Soft
StackLeniency: 0.7
Mode: 3
LetterboxInBreaks: 0
SpecialStyle: 0
WidescreenStoryboard: 1

[Editor]
DistanceSpacing: 1.4
BeatDivisor: 4
GridSize: 4
TimelineZoom: 1.1

[Metadata]
Title:evangelize (blurry images)
TitleUnicode:evangelize (blurry images)
Artist:stereoberry
ArtistUnicode:stereoberry
Creator:Tidek
Version:clarity (NSV)
Source:BMS
Tags:sv
BeatmapID:1222764
BeatmapSetID:577748

[Difficulty]
HPDrainRate:8
CircleSize:4
OverallDifficulty:9
ApproachRate:5
SliderMultiplier:1.4
SliderTickRate:1

[Events]
//Background and Video events
0,0,"title.jpg",0,0
//Break Periods
//Storyboard Layer 0 (Background)
//Storyboard Layer 1 (Fail)
//Storyboard Layer 2 (Pass)
//Storyboard Layer 3 (Foreground)
//Storyboard Sound Samples

[TimingPoints]
873,444.444444444444,4,2,0,5,1,0

[HitObjects]
320,192,873,5,0,0:0:0:0:
192,192,1317,1,0,0:0:0:0:
64,192,1761,1,0,0:0:0:0:
448,192,1761,1,0,0:0:0:0:
320,192,3317,1,0,0:0:0:0:
64,192,3539,1,0,0:0:0:0:
192,192,3539,1,0,0:0:0:0:
320,192,4428,1,0,0:0:0:0:
192,192,4872,1,0,0:0:0:0:
64,192,5317,1,0,0:0:0:0:
448,192,5317,1,0,0:0:0:0:
192,192,6650,1,0,0:0:0:0:
320,192,7095,1,0,0:0:0:0:
448,192,7095,1,0,0:0:0:0:
448,192,7984,1,0,0:0:0:0:
320,192,8428,1,0,0:0:0:0:
192,192,8872,1,0,0:0:0:0:
448,192,8872,1,0,0:0:0:0:
64,192,10650,1,0,0:0:0:0:
320,192,10650,1,0,0:0:0:0:
448,192,11539,1,0,0:0:0:0:
192,192,12428,1,0,0:0:0:0:
64,192,12428,1,0,0:0:0:0:
320,192,13984,1,0,0:0:0:0:
64,192,14206,1,0,0:0:0:0:
192,192,14650,1,0,0:0:0:0:
320,192,15095,1,0,0:0:0:0:
448,192,15539,1,0,0:0:0:0:
192,192,15984,1,0,0:0:0:0:
320,192,15984,1,0,0:0:0:0:
64,192,15984,1,0,0:0:0:0:
64,192,16206,1,0,0:0:0:0:
64,192,16428,1,0,0:0:0:0:
64,192,16650,1,0,0:0:0:0:
64,192,16872,1,0,0:0:0:0:
64,192,17095,1,0,0:0:0:0:
64,192,17317,1,0,0:0:0:0:
64,192,17539,1,0,0:0:0:0:
320,192,17539,1,0,0:0:0:0:
192,192,17761,1,0,0:0:0:0:
320,192,17761,1,0,0:0:0:0:
448,192,17761,1,0,0:0:0:0:
448,192,17984,1,0,0:0:0:0:
448,192,18206,1,0,0:0:0:0:
448,192,18428,1,0,0:0:0:0:
448,192,18650,1,0,0:0:0:0:
192,192,18650,1,0,0:0:0:0:
448,192,18872,1,0,0:0:0:0:
448,192,19095,1,0,0:0:0:0:
64,192,19095,1,0,0:0:0:0:
448,192,19317,1,0,0:0:0:0:
64,192,19539,1,0,0:0:0:0:
192,192,19539,1,0,0:0:0:0:
320,192,19539,1,0,0:0:0:0:
192,192,19761,1,0,0:0:0:0:
192,192,19984,1,0,0:0:0:0:
192,192,20206,1,0,0:0:0:0:
192,192,20428,1,0,0:0:0:0:
192,192,20650,1,0,0:0:0:0:
192,192,20872,1,0,0:0:0:0:
448,192,20872,1,0,0:0:0:0:
192,192,21095,1,0,0:0:0:0:
64,192,21317,1,0,0:0:0:0:
320,192,21317,1,0,0:0:0:0:
448,192,21317,1,0,0:0:0:0:
320,192,21539,1,0,0:0:0:0:
320,192,21761,1,0,0:0:0:0:
320,192,21984,1,0,0:0:0:0:
64,192,21984,1,0,0:0:0:0:
320,192,22206,1,0,0:0:0:0:
320,192,22428,1,0,0:0:0:0:
320,192,22650,1,0,0:0:0:0:
192,192,22650,1,0,0:0:0:0:
320,192,22872,1,0,0:0:0:0:
64,192,23095,1,0,0:0:0:0:
192,192,23095,1,0,0:0:0:0:
448,192,23095,1,0,0:0:0:0:
64,192,23317,1,0,0:0:0:0:
64,192,23539,1,0,0:0:0:0:
64,192,23761,1,0,0:0:0:0:
64,192,23984,1,0,0:0:0:0:
64,192,24206,1,0,0:0:0:0:
64,192,24428,1,0,0:0:0:0:
320,192,24428,1,0,0:0:0:0:
64,192,24650,1,0,0:0:0:0:
192,192,24872,1,0,0:0:0:0:
320,192,24872,1,0,0:0:0:0:
448,192,24872,1,0,0:0:0:0:
448,192,25095,1,0,0:0:0:0:
448,192,25317,1,0,0:0:0:0:
448,192,25539,1,0,0:0:0:0:
448,192,25761,1,0,0:0:0:0:
64,192,25761,1,0,0:0:0:0:
448,192,25984,1,0,0:0:0:0:
448,192,26206,1,0,0:0:0:0:
448,192,26428,1,0,0:0:0:0:
64,192,26650,1,0,0:0:0:0:
192,192,26650,1,0,0:0:0:0:
320,192,26650,1,0,0:0:0:0:
192,192,26872,1,0,0:0:0:0:
192,192,27095,1,0,0:0:0:0:
192,192,27317,1,0,0:0:0:0:
192,192,27539,1,0,0:0:0:0:
192,192,27761,1,0,0:0:0:0:
192,192,27984,1,0,0:0:0:0:
192,192,28206,1,0,0:0:0:0:
64,192,28428,1,0,0:0:0:0:
320,192,28428,1,0,0:0:0:0:
320,192,28650,1,0,0:0:0:0:
320,192,28872,1,0,0:0:0:0:
320,192,29095,1,0,0:0:0:0:
320,192,29317,1,0,0:0:0:0:
320,192,29539,1,0,0:0:0:0:
320,192,29761,1,0,0:0:0:0:
320,192,29984,1,0,0:0:0:0:
192,192,30206,1,0,0:0:0:0:
448,192,30206,1,0,0:0:0:0:
64,192,30206,128,0,31984:0:0:0:0:
320,192,30428,1,0,0:0:0:0:
448,192,30428,1,0,0:0:0:0:
192,192,30650,1,0,0:0:0:0:
448,192,30650,1,0,0:0:0:0:
320,192,30872,1,0,0:0:0:0:
192,192,30872,1,0,0:0:0:0:
448,192,31095,1,0,0:0:0:0:
192,192,31317,1,0,0:0:0:0:
320,192,31317,1,0,0:0:0:0:
192,192,31539,1,0,0:0:0:0:
448,192,31539,1,0,0:0:0:0:
320,192,31761,1,0,0:0:0:0:
448,192,31761,1,0,0:0:0:0:
192,192,31984,1,0,0:0:0:0:
320,192,31984,1,0,0:0:0:0:
448,192,31984,128,0,33761:0:0:0:0:
64,192,32206,1,0,0:0:0:0:
192,192,32206,1,0,0:0:0:0:
64,192,32428,1,0,0:0:0:0:
320,192,32428,1,0,0:0:0:0:
192,192,32650,1,0,0:0:0:0:
320,192,32650,1,0,0:0:0:0:
64,192,32872,1,0,0:0:0:0:
192,192,33095,1,0,0:0:0:0:
320,192,33095,1,0,0:0:0:0:
64,192,33317,1,0,0:0:0:0:
320,192,33317,1,0,0:0:0:0:
64,192,33539,1,0,0:0:0:0:
192,192,33539,128,0,33650:0:0:0:0:
64,192,33761,1,0,0:0:0:0:
192,192,33761,1,0,0:0:0:0:
320,192,33761,128,0,37317:0:0:0:0:
192,192,33984,1,0,0:0:0:0:
448,192,33984,1,0,0:0:0:0:
64,192,34206,1,0,0:0:0:0:
448,192,34206,1,0,0:0:0:0:
64,192,34428,1,0,0:0:0:0:
192,192,34428,1,0,0:0:0:0:
448,192,34650,1,0,0:0:0:0:
64,192,34872,1,0,0:0:0:0:
192,192,34872,1,0,0:0:0:0:
64,192,35095,1,0,0:0:0:0:
448,192,35095,1,0,0:0:0:0:
192,192,35317,1,0,0:0:0:0:
448,192,35317,1,0,0:0:0:0:
64,192,35539,1,0,0:0:0:0:
192,192,35539,1,0,0:0:0:0:
64,192,35761,1,0,0:0:0:0:
448,192,35761,1,0,0:0:0:0:
64,192,35984,1,0,0:0:0:0:
192,192,35984,1,0,0:0:0:0:
192,192,36206,1,0,0:0:0:0:
448,192,36206,1,0,0:0:0:0:
64,192,36428,1,0,0:0:0:0:
448,192,36428,1,0,0:0:0:0:
192,192,36650,1,0,0:0:0:0:
448,192,36650,1,0,0:0:0:0:
64,192,36872,1,0,0:0:0:0:
192,192,36872,1,0,0:0:0:0:
64,192,37095,1,0,0:0:0:0:
448,192,37095,1,0,0:0:0:0:
192,192,37317,1,0,0:0:0:0:
448,192,37317,1,0,0:0:0:0:
64,192,37317,128,0,39095:0:0:0:0:
192,192,37539,1,0,0:0:0:0:
320,192,37539,1,0,0:0:0:0:
192,192,37761,1,0,0:0:0:0:
448,192,37761,1,0,0:0:0:0:
320,192,37984,1,0,0:0:0:0:
448,192,37984,1,0,0:0:0:0:
192,192,38206,1,0,0:0:0:0:
320,192,38428,1,0,0:0:0:0:
448,192,38428,1,0,0:0:0:0:
192,192,38650,1,0,0:0:0:0:
448,192,38650,1,0,0:0:0:0:
192,192,38872,1,0,0:0:0:0:
320,192,38872,1,0,0:0:0:0:
192,192,39095,1,0,0:0:0:0:
320,192,39095,1,0,0:0:0:0:
448,192,39095,128,0,40872:0:0:0:0:
64,192,39317,1,0,0:0:0:0:
320,192,39317,1,0,0:0:0:0:
64,192,39539,1,0,0:0:0:0:
192,192,39539,1,0,0:0:0:0:
192,192,39761,1,0,0:0:0:0:
320,192,39761,1,0,0:0:0:0:
64,192,39984,1,0,0:0:0:0:
192,192,40206,1,0,0:0:0:0:
320,192,40206,1,0,0:0:0:0:
64,192,40428,1,0,0:0:0:0:
192,192,40428,1,0,0:0:0:0:
64,192,40650,1,0,0:0:0:0:
320,192,40650,128,0,40761:0:0:0:0:
64,192,40872,1,0,0:0:0:0:
192,192,40872,128,0,42650:0:0:0:0:
320,192,41095,1,0,0:0:0:0:
448,192,41095,1,0,0:0:0:0:
64,192,41317,1,0,0:0:0:0:
448,192,41317,1,0,0:0:0:0:
64,192,41539,1,0,0:0:0:0:
320,192,41539,1,0,0:0:0:0:
448,192,41761,1,0,0:0:0:0:
64,192,41984,1,0,0:0:0:0:
320,192,41984,1,0,0:0:0:0:
64,192,42206,1,0,0:0:0:0:
448,192,42206,1,0,0:0:0:0:
320,192,42428,1,0,0:0:0:0:
448,192,42428,1,0,0:0:0:0:
320,192,42650,128,0,43984:0:0:0:0:
64,192,42650,1,0,0:0:0:0:
448,192,42650,1,0,0:0:0:0:
64,192,42872,1,0,0:0:0:0:
192,192,42872,1,0,0:0:0:0:
64,192,43095,1,0,0:0:0:0:
448,192,43095,1,0,0:0:0:0:
192,192,43317,1,0,0:0:0:0:
448,192,43317,1,0,0:0:0:0:
64,192,43539,1,0,0:0:0:0:
192,192,43539,1,0,0:0:0:0:
64,192,43761,1,0,0:0:0:0:
448,192,43761,1,0,0:0:0:0:
448,192,43984,1,0,0:0:0:0:
64,192,43984,128,0,44206:0:0:0:0:
192,192,43984,1,0,0:0:0:0:
320,192,44206,1,0,0:0:0:0:
192,192,44317,1,0,0:0:0:0:
64,192,44428,1,0,0:0:0:0:
448,192,44428,1,0,0:0:0:0:
320,192,44428,1,0,0:0:0:0:
320,192,44650,1,0,0:0:0:0:
64,192,44761,1,0,0:0:0:0:
448,192,44761,1,0,0:0:0:0:
192,192,44761,1,0,0:0:0:0:
192,192,44984,128,0,45095:0:0:0:0:
320,192,45095,1,0,0:0:0:0:
448,192,45095,1,0,0:0:0:0:
64,192,45206,1,0,0:0:0:0:
192,192,45317,1,0,0:0:0:0:
320,192,45317,1,0,0:0:0:0:
448,192,45317,1,0,0:0:0:0:
64,192,45761,1,0,0:0:0:0:
192,192,45761,1,0,0:0:0:0:
320,192,45872,1,0,0:0:0:0:
448,192,45984,1,0,0:0:0:0:
64,192,45984,128,0,46206:0:0:0:0:
320,192,46206,1,0,0:0:0:0:
448,192,46206,1,0,0:0:0:0:
192,192,46428,1,0,0:0:0:0:
64,192,46539,1,0,0:0:0:0:
320,192,46539,1,0,0:0:0:0:
448,192,46539,1,0,0:0:0:0:
320,192,46761,128,0,46872:0:0:0:0:
64,192,46872,1,0,0:0:0:0:
192,192,46872,1,0,0:0:0:0:
448,192,46984,1,0,0:0:0:0:
64,192,47095,1,0,0:0:0:0:
192,192,47095,1,0,0:0:0:0:
320,192,47095,1,0,0:0:0:0:
320,192,47539,1,0,0:0:0:0:
448,192,47539,1,0,0:0:0:0:
192,192,47650,1,0,0:0:0:0:
64,192,47761,1,0,0:0:0:0:
448,192,47761,128,0,47984:0:0:0:0:
64,192,47984,1,0,0:0:0:0:
192,192,47984,1,0,0:0:0:0:
320,192,48206,1,0,0:0:0:0:
192,192,48317,1,0,0:0:0:0:
64,192,48317,1,0,0:0:0:0:
448,192,48317,1,0,0:0:0:0:
192,192,48539,128,0,48650:0:0:0:0:
320,192,48650,1,0,0:0:0:0:
448,192,48650,1,0,0:0:0:0:
64,192,48761,1,0,0:0:0:0:
192,192,48872,1,0,0:0:0:0:
320,192,48872,1,0,0:0:0:0:
448,192,48872,1,0,0:0:0:0:
64,192,49317,1,0,0:0:0:0:
192,192,49317,1,0,0:0:0:0:
320,192,49428,1,0,0:0:0:0:
64,192,49539,128,0,49761:0:0:0:0:
448,192,49539,1,0,0:0:0:0:
320,192,49761,1,0,0:0:0:0:
448,192,49761,1,0,0:0:0:0:
192,192,49984,1,0,0:0:0:0:
64,192,50095,1,0,0:0:0:0:
320,192,50095,1,0,0:0:0:0:
448,192,50095,1,0,0:0:0:0:
320,192,50317,128,0,50428:0:0:0:0:
64,192,50428,1,0,0:0:0:0:
192,192,50428,1,0,0:0:0:0:
448,192,50539,1,0,0:0:0:0:
320,192,50650,1,0,0:0:0:0:
64,192,50650,128,0,50872:0:0:0:0:
448,192,50872,1,0,0:0:0:0:
192,192,50872,1,0,0:0:0:0:
320,192,50872,1,0,0:0:0:0:
64,192,51095,1,0,0:0:0:0:
192,192,51095,1,0,0:0:0:0:
320,192,51206,1,0,0:0:0:0:
64,192,51317,128,0,51539:0:0:0:0:
448,192,51317,1,0,0:0:0:0:
320,192,51539,1,0,0:0:0:0:
448,192,51539,1,0,0:0:0:0:
192,192,51761,1,0,0:0:0:0:
64,192,51872,1,0,0:0:0:0:
320,192,51872,1,0,0:0:0:0:
448,192,51872,1,0,0:0:0:0:
320,192,52095,128,0,52206:0:0:0:0:
64,192,52206,1,0,0:0:0:0:
192,192,52206,1,0,0:0:0:0:
448,192,52317,1,0,0:0:0:0:
64,192,52428,1,0,0:0:0:0:
192,192,52428,1,0,0:0:0:0:
320,192,52428,1,0,0:0:0:0:
320,192,52872,1,0,0:0:0:0:
448,192,52872,1,0,0:0:0:0:
192,192,52984,1,0,0:0:0:0:
64,192,53095,1,0,0:0:0:0:
448,192,53095,128,0,53317:0:0:0:0:
64,192,53317,1,0,0:0:0:0:
192,192,53317,1,0,0:0:0:0:
320,192,53539,1,0,0:0:0:0:
64,192,53650,1,0,0:0:0:0:
192,192,53650,1,0,0:0:0:0:
448,192,53650,1,0,0:0:0:0:
192,192,53872,128,0,53984:0:0:0:0:
320,192,53984,1,0,0:0:0:0:
448,192,53984,1,0,0:0:0:0:
64,192,54095,1,0,0:0:0:0:
192,192,54206,1,0,0:0:0:0:
320,192,54206,1,0,0:0:0:0:
448,192,54206,1,0,0:0:0:0:
64,192,54650,1,0,0:0:0:0:
192,192,54650,1,0,0:0:0:0:
320,192,54761,1,0,0:0:0:0:
448,192,54872,1,0,0:0:0:0:
64,192,54872,128,0,55095:0:0:0:0:
320,192,55095,1,0,0:0:0:0:
448,192,55095,1,0,0:0:0:0:
192,192,55317,1,0,0:0:0:0:
64,192,55428,1,0,0:0:0:0:
320,192,55428,1,0,0:0:0:0:
448,192,55428,1,0,0:0:0:0:
64,192,55650,1,0,0:0:0:0:
448,192,55650,1,0,0:0:0:0:
192,192,55650,1,0,0:0:0:0:
320,192,55761,1,0,0:0:0:0:
64,192,55984,1,0,0:0:0:0:
448,192,56095,1,0,0:0:0:0:
320,192,56095,1,0,0:0:0:0:
192,192,56095,1,0,0:0:0:0:
320,192,56317,1,0,0:0:0:0:
192,192,56317,1,0,0:0:0:0:
64,192,56317,1,0,0:0:0:0:
448,192,56428,1,0,0:0:0:0:
64,192,56539,128,0,56761:0:0:0:0:
192,192,56539,128,0,56761:0:0:0:0:
320,192,56761,1,0,0:0:0:0:
192,192,56872,128,0,57095:0:0:0:0:
64,192,56872,128,0,57095:0:0:0:0:
448,192,57095,1,0,0:0:0:0:
320,192,57095,1,0,0:0:0:0:
448,192,57206,1,0,0:0:0:0:
320,192,57206,1,0,0:0:0:0:
192,192,57317,1,0,0:0:0:0:
64,192,57317,1,0,0:0:0:0:
192,192,57428,1,0,0:0:0:0:
64,192,57428,1,0,0:0:0:0:
448,192,57539,128,0,57761:0:0:0:0:
320,192,57539,128,0,57761:0:0:0:0:
192,192,57761,1,0,0:0:0:0:
64,192,57761,1,0,0:0:0:0:
192,192,57872,1,0,0:0:0:0:
64,192,57872,1,0,0:0:0:0:
320,192,57984,1,0,0:0:0:0:
448,192,57984,1,0,0:0:0:0:
448,192,58095,1,0,0:0:0:0:
320,192,58095,1,0,0:0:0:0:
64,192,58206,1,0,0:0:0:0:
192,192,58206,1,0,0:0:0:0:
64,192,58428,128,0,58650:0:0:0:0:
448,192,58428,1,0,0:0:0:0:
192,192,58650,1,0,0:0:0:0:
448,192,58650,1,0,0:0:0:0:
320,192,58650,1,0,0:0:0:0:
192,192,58872,1,0,0:0:0:0:
64,192,58984,1,0,0:0:0:0:
320,192,58984,1,0,0:0:0:0:
448,192,58984,1,0,0:0:0:0:
192,192,59206,128,0,59317:0:0:0:0:
320,192,59317,1,0,0:0:0:0:
448,192,59317,1,0,0:0:0:0:
64,192,59428,1,0,0:0:0:0:
192,192,59539,1,0,0:0:0:0:
448,192,59539,128,0,59761:0:0:0:0:
64,192,59761,1,0,0:0:0:0:
192,192,59761,1,0,0:0:0:0:
320,192,59761,1,0,0:0:0:0:
320,192,59984,1,0,0:0:0:0:
448,192,59984,1,0,0:0:0:0:
192,192,60095,1,0,0:0:0:0:
64,192,60206,1,0,0:0:0:0:
448,192,60206,128,0,60428:0:0:0:0:
64,192,60428,1,0,0:0:0:0:
192,192,60428,1,0,0:0:0:0:
320,192,60650,1,0,0:0:0:0:
448,192,60650,1,0,0:0:0:0:
192,192,60761,1,0,0:0:0:0:
64,192,60761,1,0,0:0:0:0:
192,192,60984,1,0,0:0:0:0:
320,192,60984,1,0,0:0:0:0:
320,192,61206,1,0,0:0:0:0:
448,192,61206,1,0,0:0:0:0:
192,192,61317,1,0,0:0:0:0:
64,192,61317,128,0,61539:0:0:0:0:
192,192,61539,1,0,0:0:0:0:
320,192,61539,1,0,0:0:0:0:
448,192,61539,1,0,0:0:0:0:
64,192,61761,1,0,0:0:0:0:
192,192,61761,1,0,0:0:0:0:
320,192,61984,1,0,0:0:0:0:
448,192,61984,1,0,0:0:0:0:
320,192,62095,1,0,0:0:0:0:
448,192,62095,1,0,0:0:0:0:
64,192,62206,1,0,0:0:0:0:
192,192,62206,1,0,0:0:0:0:
64,192,62428,1,0,0:0:0:0:
320,192,62428,1,0,0:0:0:0:
448,192,62428,1,0,0:0:0:0:
192,192,62650,1,0,0:0:0:0:
448,192,62650,1,0,0:0:0:0:
320,192,62724,1,0,0:0:0:0:
192,192,62798,1,0,0:0:0:0:
320,192,62872,1,0,0:0:0:0:
64,192,62872,128,0,63095:0:0:0:0:
192,192,63095,1,0,0:0:0:0:
320,192,63095,1,0,0:0:0:0:
448,192,63095,1,0,0:0:0:0:
192,192,63317,1,0,0:0:0:0:
64,192,63428,1,0,0:0:0:0:
320,192,63428,1,0,0:0:0:0:
448,192,63428,1,0,0:0:0:0:
320,192,63650,1,0,0:0:0:0:
192,192,63761,1,0,0:0:0:0:
448,192,63761,128,0,63984:0:0:0:0:
64,192,63984,1,0,0:0:0:0:
192,192,63984,1,0,0:0:0:0:
320,192,64095,1,0,0:0:0:0:
448,192,64095,1,0,0:0:0:0:
192,192,64317,1,0,0:0:0:0:
320,192,64317,1,0,0:0:0:0:
64,192,64428,128,0,64650:0:0:0:0:
448,192,64428,1,0,0:0:0:0:
320,192,64650,1,0,0:0:0:0:
448,192,64650,1,0,0:0:0:0:
192,192,64761,1,0,0:0:0:0:
64,192,64761,1,0,0:0:0:0:
192,192,64984,1,0,0:0:0:0:
320,192,64984,1,0,0:0:0:0:
64,192,65095,1,0,0:0:0:0:
448,192,65095,128,0,65317:0:0:0:0:
64,192,65317,1,0,0:0:0:0:
192,192,65317,1,0,0:0:0:0:
320,192,65391,1,0,0:0:0:0:
448,192,65391,1,0,0:0:0:0:
192,192,65465,1,0,0:0:0:0:
64,192,65465,1,0,0:0:0:0:
320,192,65539,1,0,0:0:0:0:
448,192,65539,1,0,0:0:0:0:
64,192,65761,1,0,0:0:0:0:
192,192,65761,1,0,0:0:0:0:
320,192,65984,1,0,0:0:0:0:
64,192,66095,1,0,0:0:0:0:
192,192,66095,1,0,0:0:0:0:
448,192,66095,1,0,0:0:0:0:
320,192,66317,128,0,66428:0:0:0:0:
192,192,66428,1,0,0:0:0:0:
64,192,66428,1,0,0:0:0:0:
448,192,66539,1,0,0:0:0:0:
64,192,66650,128,0,66872:0:0:0:0:
320,192,66650,1,0,0:0:0:0:
320,192,66872,1,0,0:0:0:0:
192,192,66872,1,0,0:0:0:0:
448,192,66872,1,0,0:0:0:0:
64,192,67095,1,0,0:0:0:0:
192,192,67095,1,0,0:0:0:0:
320,192,67206,1,0,0:0:0:0:
448,192,67317,1,0,0:0:0:0:
64,192,67317,128,0,67539:0:0:0:0:
320,192,67539,1,0,0:0:0:0:
448,192,67539,1,0,0:0:0:0:
192,192,67761,1,0,0:0:0:0:
64,192,67761,1,0,0:0:0:0:
448,192,67872,1,0,0:0:0:0:
320,192,67872,1,0,0:0:0:0:
320,192,68095,1,0,0:0:0:0:
192,192,68095,1,0,0:0:0:0:
192,192,68317,1,0,0:0:0:0:
64,192,68317,1,0,0:0:0:0:
320,192,68428,1,0,0:0:0:0:
448,192,68428,128,0,68650:0:0:0:0:
64,192,68650,1,0,0:0:0:0:
192,192,68650,1,0,0:0:0:0:
320,192,68650,1,0,0:0:0:0:
320,192,68872,1,0,0:0:0:0:
448,192,68872,1,0,0:0:0:0:
192,192,69095,1,0,0:0:0:0:
64,192,69095,1,0,0:0:0:0:
192,192,69206,1,0,0:0:0:0:
64,192,69206,1,0,0:0:0:0:
320,192,69317,1,0,0:0:0:0:
448,192,69317,1,0,0:0:0:0:
192,192,69539,1,0,0:0:0:0:
448,192,69539,1,0,0:0:0:0:
64,192,69539,1,0,0:0:0:0:
64,192,69761,1,0,0:0:0:0:
320,192,69761,1,0,0:0:0:0:
192,192,69835,1,0,0:0:0:0:
320,192,69910,1,0,0:0:0:0:
192,192,69984,1,0,0:0:0:0:
448,192,69984,128,0,70206:0:0:0:0:
320,192,70206,1,0,0:0:0:0:
192,192,70206,1,0,0:0:0:0:
64,192,70206,1,0,0:0:0:0:
320,192,70428,1,0,0:0:0:0:
192,192,70539,1,0,0:0:0:0:
64,192,70539,1,0,0:0:0:0:
448,192,70539,1,0,0:0:0:0:
192,192,70761,1,0,0:0:0:0:
64,192,70872,128,0,71095:0:0:0:0:
320,192,70872,1,0,0:0:0:0:
320,192,71095,1,0,0:0:0:0:
448,192,71095,1,0,0:0:0:0:
192,192,71206,1,0,0:0:0:0:
64,192,71206,1,0,0:0:0:0:
192,192,71428,1,0,0:0:0:0:
320,192,71428,1,0,0:0:0:0:
64,192,71539,1,0,0:0:0:0:
448,192,71539,128,0,71761:0:0:0:0:
64,192,71761,1,0,0:0:0:0:
192,192,71761,1,0,0:0:0:0:
448,192,71872,1,0,0:0:0:0:
320,192,71872,1,0,0:0:0:0:
320,192,72095,1,0,0:0:0:0:
192,192,72095,1,0,0:0:0:0:
448,192,72206,1,0,0:0:0:0:
64,192,72206,128,0,72428:0:0:0:0:
320,192,72428,1,0,0:0:0:0:
448,192,72428,1,0,0:0:0:0:
64,192,72502,1,0,0:0:0:0:
192,192,72502,1,0,0:0:0:0:
448,192,72576,1,0,0:0:0:0:
320,192,72576,1,0,0:0:0:0:
64,192,72650,1,0,0:0:0:0:
192,192,72650,1,0,0:0:0:0:
64,192,72872,1,0,0:0:0:0:
192,192,72872,1,0,0:0:0:0:
320,192,72872,1,0,0:0:0:0:
448,192,72872,1,0,0:0:0:0:
192,192,73095,1,0,0:0:0:0:
320,192,73206,1,0,0:0:0:0:
64,192,73206,1,0,0:0:0:0:
448,192,73206,1,0,0:0:0:0:
192,192,73428,128,0,73539:0:0:0:0:
448,192,73539,1,0,0:0:0:0:
320,192,73539,1,0,0:0:0:0:
64,192,73650,1,0,0:0:0:0:
448,192,73761,128,0,73984:0:0:0:0:
192,192,73761,1,0,0:0:0:0:
320,192,73984,1,0,0:0:0:0:
192,192,73984,1,0,0:0:0:0:
64,192,73984,1,0,0:0:0:0:
448,192,74206,1,0,0:0:0:0:
320,192,74206,1,0,0:0:0:0:
192,192,74317,1,0,0:0:0:0:
64,192,74428,1,0,0:0:0:0:
448,192,74428,128,0,74650:0:0:0:0:
192,192,74650,1,0,0:0:0:0:
64,192,74650,1,0,0:0:0:0:
192,192,74761,1,0,0:0:0:0:
320,192,74872,1,0,0:0:0:0:
448,192,74872,1,0,0:0:0:0:
64,192,74984,1,0,0:0:0:0:
192,192,74984,1,0,0:0:0:0:
192,192,75206,1,0,0:0:0:0:
320,192,75206,1,0,0:0:0:0:
320,192,75428,1,0,0:0:0:0:
448,192,75428,1,0,0:0:0:0:
192,192,75539,1,0,0:0:0:0:
64,192,75539,128,0,75761:0:0:0:0:
448,192,75761,1,0,0:0:0:0:
320,192,75761,1,0,0:0:0:0:
192,192,75761,1,0,0:0:0:0:
192,192,75984,1,0,0:0:0:0:
64,192,75984,1,0,0:0:0:0:
320,192,76206,1,0,0:0:0:0:
448,192,76206,1,0,0:0:0:0:
320,192,76317,1,0,0:0:0:0:
448,192,76317,1,0,0:0:0:0:
192,192,76428,1,0,0:0:0:0:
64,192,76428,1,0,0:0:0:0:
320,192,76650,1,0,0:0:0:0:
64,192,76650,1,0,0:0:0:0:
448,192,76650,1,0,0:0:0:0:
448,192,76872,1,0,0:0:0:0:
192,192,76872,1,0,0:0:0:0:
320,192,76947,1,0,0:0:0:0:
192,192,77021,1,0,0:0:0:0:
320,192,77095,1,0,0:0:0:0:
64,192,77095,128,0,77317:0:0:0:0:
320,192,77317,1,0,0:0:0:0:
192,192,77317,1,0,0:0:0:0:
448,192,77317,1,0,0:0:0:0:
192,192,77539,1,0,0:0:0:0:
448,192,77650,1,0,0:0:0:0:
64,192,77650,1,0,0:0:0:0:
320,192,77650,1,0,0:0:0:0:
320,192,77872,1,0,0:0:0:0:
192,192,77984,1,0,0:0:0:0:
448,192,77984,128,0,78206:0:0:0:0:
64,192,78206,1,0,0:0:0:0:
192,192,78206,1,0,0:0:0:0:
320,192,78317,1,0,0:0:0:0:
448,192,78317,1,0,0:0:0:0:
320,192,78539,1,0,0:0:0:0:
192,192,78539,1,0,0:0:0:0:
448,192,78650,1,0,0:0:0:0:
64,192,78650,128,0,78872:0:0:0:0:
448,192,78872,1,0,0:0:0:0:
320,192,78872,1,0,0:0:0:0:
64,192,78984,1,0,0:0:0:0:
192,192,78984,1,0,0:0:0:0:
192,192,79206,1,0,0:0:0:0:
320,192,79206,1,0,0:0:0:0:
64,192,79317,1,0,0:0:0:0:
448,192,79317,128,0,79539:0:0:0:0:
192,192,79539,1,0,0:0:0:0:
64,192,79539,1,0,0:0:0:0:
448,192,79613,1,0,0:0:0:0:
320,192,79613,1,0,0:0:0:0:
64,192,79687,1,0,0:0:0:0:
192,192,79687,1,0,0:0:0:0:
448,192,79761,1,0,0:0:0:0:
320,192,79761,1,0,0:0:0:0:
64,192,79984,1,0,0:0:0:0:
192,192,79984,1,0,0:0:0:0:
320,192,80206,1,0,0:0:0:0:
64,192,80317,1,0,0:0:0:0:
448,192,80317,1,0,0:0:0:0:
192,192,80317,1,0,0:0:0:0:
320,192,80539,128,0,80650:0:0:0:0:
192,192,80650,1,0,0:0:0:0:
64,192,80650,1,0,0:0:0:0:
448,192,80761,1,0,0:0:0:0:
320,192,80872,1,0,0:0:0:0:
64,192,80872,128,0,81095:0:0:0:0:
448,192,81095,1,0,0:0:0:0:
320,192,81095,1,0,0:0:0:0:
192,192,81095,1,0,0:0:0:0:
192,192,81317,1,0,0:0:0:0:
64,192,81317,1,0,0:0:0:0:
320,192,81428,1,0,0:0:0:0:
64,192,81539,128,0,81761:0:0:0:0:
448,192,81539,1,0,0:0:0:0:
448,192,81761,1,0,0:0:0:0:
320,192,81761,1,0,0:0:0:0:
320,192,81872,1,0,0:0:0:0:
64,192,81984,1,0,0:0:0:0:
192,192,81984,1,0,0:0:0:0:
320,192,82095,1,0,0:0:0:0:
448,192,82095,1,0,0:0:0:0:
192,192,82317,1,0,0:0:0:0:
320,192,82317,1,0,0:0:0:0:
64,192,82539,1,0,0:0:0:0:
192,192,82539,1,0,0:0:0:0:
448,192,82650,128,0,82872:0:0:0:0:
320,192,82650,1,0,0:0:0:0:
320,192,82872,1,0,0:0:0:0:
192,192,82872,1,0,0:0:0:0:
64,192,82872,1,0,0:0:0:0:
448,192,83095,1,0,0:0:0:0:
320,192,83095,1,0,0:0:0:0:
64,192,83317,1,0,0:0:0:0:
192,192,83317,1,0,0:0:0:0:
64,192,83428,1,0,0:0:0:0:
192,192,83428,1,0,0:0:0:0:
448,192,83539,1,0,0:0:0:0:
320,192,83539,1,0,0:0:0:0:
64,192,83761,1,0,0:0:0:0:
448,192,83761,1,0,0:0:0:0:
192,192,83761,1,0,0:0:0:0:
320,192,83984,1,0,0:0:0:0:
64,192,83984,1,0,0:0:0:0:
192,192,84058,1,0,0:0:0:0:
320,192,84132,1,0,0:0:0:0:
448,192,84206,128,0,84428:0:0:0:0:
192,192,84206,1,0,0:0:0:0:
64,192,84428,1,0,0:0:0:0:
320,192,84428,1,0,0:0:0:0:
192,192,84428,1,0,0:0:0:0:
320,192,84650,1,0,0:0:0:0:
192,192,84761,1,0,0:0:0:0:
448,192,84761,1,0,0:0:0:0:
64,192,84761,1,0,0:0:0:0:
192,192,84984,1,0,0:0:0:0:
64,192,85095,128,0,85317:0:0:0:0:
320,192,85095,1,0,0:0:0:0:
320,192,85317,1,0,0:0:0:0:
448,192,85317,1,0,0:0:0:0:
192,192,85391,1,0,0:0:0:0:
64,192,85391,1,0,0:0:0:0:
320,192,85465,1,0,0:0:0:0:
448,192,85465,1,0,0:0:0:0:
192,192,85539,1,0,0:0:0:0:
64,192,85539,1,0,0:0:0:0:
320,192,85761,1,0,0:0:0:0:
448,192,85761,1,0,0:0:0:0:
192,192,85984,1,0,0:0:0:0:
320,192,85984,1,0,0:0:0:0:
64,192,86206,1,0,0:0:0:0:
448,192,86206,1,0,0:0:0:0:
192,192,86206,128,0,86317:0:0:0:0:
320,192,86650,128,0,86761:0:0:0:0:
64,192,86650,1,0,0:0:0:0:
64,192,87095,1,0,0:0:0:0:
192,192,87095,1,0,0:0:0:0:
320,192,87095,1,0,0:0:0:0:
448,192,87095,1,0,0:0:0:0:
192,192,87317,1,0,0:0:0:0:
64,192,87428,1,0,0:0:0:0:
320,192,87428,1,0,0:0:0:0:
448,192,87428,1,0,0:0:0:0:
448,192,87650,128,0,87761:0:0:0:0:
64,192,87761,1,0,0:0:0:0:
192,192,87761,1,0,0:0:0:0:
320,192,87872,1,0,0:0:0:0:
448,192,87984,1,0,0:0:0:0:
192,192,87984,128,0,88206:0:0:0:0:
320,192,88206,1,0,0:0:0:0:
448,192,88206,1,0,0:0:0:0:
64,192,88206,1,0,0:0:0:0:
192,192,88428,1,0,0:0:0:0:
64,192,88428,1,0,0:0:0:0:
320,192,88539,1,0,0:0:0:0:
192,192,88650,128,0,88872:0:0:0:0:
448,192,88650,1,0,0:0:0:0:
320,192,88872,1,0,0:0:0:0:
448,192,88872,1,0,0:0:0:0:
320,192,89095,1,0,0:0:0:0:
64,192,89206,1,0,0:0:0:0:
192,192,89206,1,0,0:0:0:0:
448,192,89206,1,0,0:0:0:0:
64,192,89428,128,0,89539:0:0:0:0:
320,192,89539,1,0,0:0:0:0:
448,192,89539,1,0,0:0:0:0:
192,192,89650,1,0,0:0:0:0:
320,192,89761,128,0,89984:0:0:0:0:
64,192,89761,1,0,0:0:0:0:
64,192,89984,1,0,0:0:0:0:
192,192,89984,1,0,0:0:0:0:
448,192,89984,1,0,0:0:0:0:
320,192,90206,1,0,0:0:0:0:
448,192,90206,1,0,0:0:0:0:
192,192,90317,1,0,0:0:0:0:
320,192,90428,128,0,90650:0:0:0:0:
64,192,90428,1,0,0:0:0:0:
192,192,90650,1,0,0:0:0:0:
64,192,90650,1,0,0:0:0:0:
192,192,90872,1,0,0:0:0:0:
64,192,90984,1,0,0:0:0:0:
320,192,90984,1,0,0:0:0:0:
448,192,90984,1,0,0:0:0:0:
64,192,91206,1,0,0:0:0:0:
192,192,91206,1,0,0:0:0:0:
448,192,91206,1,0,0:0:0:0:
320,192,91317,1,0,0:0:0:0:
64,192,91539,1,0,0:0:0:0:
192,192,91650,1,0,0:0:0:0:
448,192,91650,1,0,0:0:0:0:
320,192,91650,1,0,0:0:0:0:
192,192,91872,1,0,0:0:0:0:
64,192,91872,1,0,0:0:0:0:
320,192,91872,1,0,0:0:0:0:
448,192,91984,1,0,0:0:0:0:
64,192,92095,128,0,92317:0:0:0:0:
192,192,92095,128,0,92317:0:0:0:0:
320,192,92317,1,0,0:0:0:0:
64,192,92428,128,0,92650:0:0:0:0:
192,192,92428,128,0,92650:0:0:0:0:
320,192,92650,1,0,0:0:0:0:
448,192,92650,1,0,0:0:0:0:
320,192,92761,1,0,0:0:0:0:
448,192,92761,1,0,0:0:0:0:
64,192,92872,1,0,0:0:0:0:
192,192,92872,1,0,0:0:0:0:
192,192,92984,1,0,0:0:0:0:
64,192,92984,1,0,0:0:0:0:
320,192,93095,128,0,93317:0:0:0:0:
448,192,93095,128,0,93317:0:0:0:0:
64,192,93317,1,0,0:0:0:0:
192,192,93317,1,0,0:0:0:0:
192,192,93428,1,0,0:0:0:0:
64,192,93428,1,0,0:0:0:0:
320,192,93539,1,0,0:0:0:0:
448,192,93539,1,0,0:0:0:0:
320,192,93650,1,0,0:0:0:0:
448,192,93650,1,0,0:0:0:0:
192,192,93761,1,0,0:0:0:0:
64,192,93761,1,0,0:0:0:0:
192,192,93984,128,0,94206:0:0:0:0:
448,192,93984,1,0,0:0:0:0:
320,192,94206,1,0,0:0:0:0:
448,192,94206,1,0,0:0:0:0:
320,192,94428,1,0,0:0:0:0:
64,192,94539,1,0,0:0:0:0:
192,192,94539,1,0,0:0:0:0:
448,192,94539,1,0,0:0:0:0:
64,192,94761,128,0,94872:0:0:0:0:
320,192,94872,1,0,0:0:0:0:
448,192,94872,1,0,0:0:0:0:
192,192,94984,1,0,0:0:0:0:
64,192,95095,1,0,0:0:0:0:
320,192,95095,128,0,95317:0:0:0:0:
64,192,95317,1,0,0:0:0:0:
192,192,95317,1,0,0:0:0:0:
448,192,95317,1,0,0:0:0:0:
320,192,95539,1,0,0:0:0:0:
448,192,95539,1,0,0:0:0:0:
192,192,95650,1,0,0:0:0:0:
64,192,95761,1,0,0:0:0:0:
320,192,95761,128,0,95984:0:0:0:0:
192,192,95984,1,0,0:0:0:0:
64,192,95984,1,0,0:0:0:0:
192,192,96206,1,0,0:0:0:0:
64,192,96317,1,0,0:0:0:0:
320,192,96317,1,0,0:0:0:0:
448,192,96317,1,0,0:0:0:0:
448,192,96539,128,0,96650:0:0:0:0:
64,192,96650,1,0,0:0:0:0:
192,192,96650,1,0,0:0:0:0:
320,192,96761,1,0,0:0:0:0:
192,192,96872,128,0,97095:0:0:0:0:
448,192,96872,1,0,0:0:0:0:
64,192,97095,1,0,0:0:0:0:
320,192,97095,1,0,0:0:0:0:
448,192,97095,1,0,0:0:0:0:
64,192,97317,1,0,0:0:0:0:
192,192,97317,1,0,0:0:0:0:
320,192,97428,1,0,0:0:0:0:
192,192,97539,128,0,97761:0:0:0:0:
448,192,97539,1,0,0:0:0:0:
320,192,97761,1,0,0:0:0:0:
448,192,97761,1,0,0:0:0:0:
320,192,97984,1,0,0:0:0:0:
192,192,98095,1,0,0:0:0:0:
64,192,98095,1,0,0:0:0:0:
448,192,98095,1,0,0:0:0:0:
64,192,98317,1,0,0:0:0:0:
320,192,98317,1,0,0:0:0:0:
448,192,98317,1,0,0:0:0:0:
192,192,98428,1,0,0:0:0:0:
448,192,98650,1,0,0:0:0:0:
64,192,98761,1,0,0:0:0:0:
192,192,98761,1,0,0:0:0:0:
320,192,98761,1,0,0:0:0:0:
192,192,98984,1,0,0:0:0:0:
320,192,98984,1,0,0:0:0:0:
448,192,98984,1,0,0:0:0:0:
64,192,99095,1,0,0:0:0:0:
320,192,99206,128,0,99428:0:0:0:0:
448,192,99206,128,0,99428:0:0:0:0:
192,192,99428,1,0,0:0:0:0:
320,192,99539,128,0,99761:0:0:0:0:
448,192,99539,128,0,99761:0:0:0:0:
64,192,99761,1,0,0:0:0:0:
192,192,99761,1,0,0:0:0:0:
192,192,99872,1,0,0:0:0:0:
64,192,99872,1,0,0:0:0:0:
320,192,99984,1,0,0:0:0:0:
448,192,99984,1,0,0:0:0:0:
448,192,100095,1,0,0:0:0:0:
320,192,100095,1,0,0:0:0:0:
192,192,100206,128,0,100428:0:0:0:0:
64,192,100206,128,0,100428:0:0:0:0:
320,192,100428,1,0,0:0:0:0:
448,192,100428,1,0,0:0:0:0:
320,192,100539,1,0,0:0:0:0:
448,192,100539,1,0,0:0:0:0:
192,192,100650,1,0,0:0:0:0:
64,192,100650,1,0,0:0:0:0:
64,192,100761,1,0,0:0:0:0:
192,192,100761,1,0,0:0:0:0:
320,192,100872,1,0,0:0:0:0:
448,192,100872,1,0,0:0:0:0:
64,192,101095,1,0,0:0:0:0:
320,192,101095,128,0,101317:0:0:0:0:
192,192,101317,1,0,0:0:0:0:
64,192,101317,1,0,0:0:0:0:
192,192,101539,1,0,0:0:0:0:
64,192,101650,1,0,0:0:0:0:
448,192,101650,1,0,0:0:0:0:
320,192,101650,1,0,0:0:0:0:
320,192,101872,128,0,101984:0:0:0:0:
192,192,101984,1,0,0:0:0:0:
64,192,101984,1,0,0:0:0:0:
448,192,102095,1,0,0:0:0:0:
320,192,102206,1,0,0:0:0:0:
64,192,102206,128,0,102428:0:0:0:0:
192,192,102428,1,0,0:0:0:0:
320,192,102428,1,0,0:0:0:0:
448,192,102428,1,0,0:0:0:0:
64,192,102650,1,0,0:0:0:0:
192,192,102650,1,0,0:0:0:0:
320,192,102761,1,0,0:0:0:0:
64,192,102872,128,0,103095:0:0:0:0:
448,192,102872,1,0,0:0:0:0:
320,192,103095,1,0,0:0:0:0:
448,192,103095,1,0,0:0:0:0:
320,192,103317,1,0,0:0:0:0:
64,192,103428,1,0,0:0:0:0:
192,192,103428,1,0,0:0:0:0:
448,192,103428,1,0,0:0:0:0:
192,192,103650,128,0,103761:0:0:0:0:
320,192,103761,1,0,0:0:0:0:
448,192,103761,1,0,0:0:0:0:
64,192,103872,1,0,0:0:0:0:
448,192,103984,128,0,104206:0:0:0:0:
192,192,103984,1,0,0:0:0:0:
64,192,104206,1,0,0:0:0:0:
192,192,104206,1,0,0:0:0:0:
320,192,104206,1,0,0:0:0:0:
320,192,104428,1,0,0:0:0:0:
448,192,104428,1,0,0:0:0:0:
192,192,104539,1,0,0:0:0:0:
64,192,104650,1,0,0:0:0:0:
448,192,104650,128,0,104872:0:0:0:0:
192,192,104872,1,0,0:0:0:0:
64,192,104872,1,0,0:0:0:0:
192,192,105095,1,0,0:0:0:0:
64,192,105206,1,0,0:0:0:0:
320,192,105206,1,0,0:0:0:0:
448,192,105206,1,0,0:0:0:0:
64,192,105428,1,0,0:0:0:0:
448,192,105428,1,0,0:0:0:0:
192,192,105428,1,0,0:0:0:0:
320,192,105539,1,0,0:0:0:0:
64,192,105761,1,0,0:0:0:0:
192,192,105872,1,0,0:0:0:0:
320,192,105872,1,0,0:0:0:0:
448,192,105872,1,0,0:0:0:0:
192,192,106095,1,0,0:0:0:0:
64,192,106095,1,0,0:0:0:0:
320,192,106095,1,0,0:0:0:0:
448,192,106206,1,0,0:0:0:0:
64,192,106317,128,0,106539:0:0:0:0:
192,192,106317,128,0,106539:0:0:0:0:
320,192,106539,1,0,0:0:0:0:
192,192,106650,128,0,106872:0:0:0:0:
64,192,106650,128,0,106872:0:0:0:0:
320,192,106872,1,0,0:0:0:0:
448,192,106872,1,0,0:0:0:0:
448,192,106984,1,0,0:0:0:0:
320,192,106984,1,0,0:0:0:0:
64,192,107095,1,0,0:0:0:0:
192,192,107095,1,0,0:0:0:0:
64,192,107206,1,0,0:0:0:0:
192,192,107206,1,0,0:0:0:0:
320,192,107317,128,0,107539:0:0:0:0:
448,192,107317,128,0,107539:0:0:0:0:
192,192,107539,1,0,0:0:0:0:
64,192,107539,1,0,0:0:0:0:
64,192,107650,1,0,0:0:0:0:
192,192,107650,1,0,0:0:0:0:
320,192,107761,1,0,0:0:0:0:
448,192,107761,1,0,0:0:0:0:
448,192,107872,1,0,0:0:0:0:
320,192,107872,1,0,0:0:0:0:
64,192,107984,1,0,0:0:0:0:
192,192,107984,1,0,0:0:0:0:
64,192,108206,128,0,108428:0:0:0:0:
448,192,108206,1,0,0:0:0:0:
192,192,108428,1,0,0:0:0:0:
320,192,108428,1,0,0:0:0:0:
448,192,108428,1,0,0:0:0:0:
192,192,108761,1,0,0:0:0:0:
64,192,108761,1,0,0:0:0:0:
448,192,109095,1,0,0:0:0:0:
320,192,109095,1,0,0:0:0:0:
192,192,109428,1,0,0:0:0:0:
64,192,109428,1,0,0:0:0:0:
64,192,109761,128,0,109872:0:0:0:0:
448,192,109761,1,0,0:0:0:0:
192,192,110206,128,0,110317:0:0:0:0:
320,192,110206,1,0,0:0:0:0:
64,192,111095,1,0,0:0:0:0:
320,192,111095,128,0,111206:0:0:0:0:
192,192,111984,1,0,0:0:0:0:
448,192,111984,128,0,112095:0:0:0:0:
320,192,113317,128,0,113428:0:0:0:0:
64,192,113317,1,0,0:0:0:0:
448,192,113539,1,0,0:0:0:0:
192,192,113539,128,0,113650:0:0:0:0:
192,192,115095,128,0,115206:0:0:0:0:
320,192,115095,1,0,0:0:0:0:
64,192,115539,128,0,115650:0:0:0:0:
448,192,115539,1,0,0:0:0:0:
320,192,115539,1,0,0:0:0:0:
