osu file format v14

[General]
AudioFilename: audio.mp3
AudioLeadIn: 0
PreviewTime: 149711
Countdown: 0
SampleSet: Soft
StackLeniency: 0
Mode: 0
LetterboxInBreaks: 0
WidescreenStoryboard: 1

[Editor]
DistanceSpacing: 0.6
BeatDivisor: 4
GridSize: 8
TimelineZoom: 3.899998

[Metadata]
Title:METHOD_HYMME_LAIDERONETTE/.
TitleUnicode:METHOD_HYMME_LAIDERONETTE/.
Artist:stellatram
ArtistUnicode:stellatram
Creator:Reywateil
Version:ag cYAzYA hymmnos r.w. ttu gral/.
Source:
Tags:a_hisa PARADIGM SHIFT ~cenjue innna, cenjue ciel~ 奈雪ニーカ nayuki nīka niika Ilya イリヤ folk fantasy japanese hymmnos new testament of pastalie conlang doujin M3-34
BeatmapID:4140610
BeatmapSetID:1992686

[Difficulty]
HPDrainRate:5
CircleSize:3.8
OverallDifficulty:8.5
ApproachRate:9.1
SliderMultiplier:1.3
SliderTickRate:0.5

[Events]
//Background and Video events
0,0,"23i.png",0,0
//Break Periods
//Storyboard Layer 0 (Background)
//Storyboard Layer 1 (Fail)
//Storyboard Layer 2 (Pass)
//Storyboard Layer 3 (Foreground)
//Storyboard Layer 4 (Overlay)
//Storyboard Sound Samples

[TimingPoints]
912,400,3,2,1,25,1,0
912,-303.030303030303,4,2,1,25,0,0
20112,-190.47619047619,4,2,1,40,0,0
29712,-190.47619047619,4,2,1,50,0,0
38112,-136.054421768707,4,2,1,60,0,0
39312,-190.47619047619,4,2,1,50,0,0
46512,-115.606936416185,4,2,1,60,0,0
48912,-298.507462686567,4,2,1,35,0,0
58512,-229.885057471264,4,2,1,45,0,0
68112,-93.4579439252336,4,2,1,55,0,0
77312,-190.47619047619,4,2,1,55,0,0
77612,-190.47619047619,4,2,2,5,0,0
77712,-67.7966101694915,4,2,1,60,0,0
88412,-67.7966101694915,4,2,2,5,0,0
88512,-67.7966101694915,4,2,1,60,0,0
89712,-57.1428571428571,4,2,1,60,0,0
91712,-50,4,2,1,60,0,0
92012,-66.6666666666667,4,2,2,5,0,0
92111,300,3,2,3,65,1,0
92111,-74.626865671642,3,2,3,65,0,0
95711,-68.0272108843535,4,2,3,65,0,0
99311,-58.8235294117645,4,2,3,70,0,0
106511,-50,4,2,3,80,0,0
109661,-100,4,2,3,80,0,0
110111,-50,4,2,3,80,0,0
111911,-42.5531914893617,4,2,3,80,0,0
113711,-50,4,2,3,80,0,0
116861,-100,4,2,3,80,0,0
117311,-50,4,2,3,80,0,0
119111,-42.5531914893617,4,2,3,80,0,0
120911,-42.5531914893617,4,2,3,85,0,0
121061,-42.5531914893617,4,2,2,5,0,0
121811,-42.5531914893617,4,2,3,85,0,0
121961,-42.5531914893617,4,2,2,5,0,0
122411,-42.5531914893617,4,2,3,85,0,0
122561,-42.5531914893617,4,2,2,5,0,0
122711,-42.5531914893617,4,2,3,85,0,0
122861,-42.5531914893617,4,2,2,5,0,0
123311,-42.5531914893617,4,2,3,85,0,0
123461,-42.5531914893617,4,2,2,5,0,0
123611,-42.5531914893617,4,2,3,85,0,0
123761,-42.5531914893617,4,2,2,5,0,0
123911,-42.5531914893617,4,2,3,85,0,0
124061,-42.5531914893617,4,2,2,5,0,0
124211,-42.5531914893617,4,2,3,85,0,0
124361,-42.5531914893617,4,2,2,5,0,0
124511,-42.5531914893617,4,2,3,85,0,0
124661,-42.5531914893617,4,2,2,5,0,0
125411,-42.5531914893617,4,2,3,85,0,0
125561,-42.5531914893617,4,2,2,5,0,0
126011,-42.5531914893617,4,2,3,85,0,0
126161,-42.5531914893617,4,2,2,5,0,0
126311,-42.5531914893617,4,2,3,85,0,0
126461,-42.5531914893617,4,2,2,5,0,0
126911,-42.5531914893617,4,2,3,85,0,0
127061,-42.5531914893617,4,2,2,5,0,0
127211,-42.5531914893617,4,2,3,85,0,0
127361,-42.5531914893617,4,2,2,5,0,0
127511,-42.5531914893617,4,2,3,85,0,0
127661,-42.5531914893617,4,2,2,5,0,0
127811,-42.5531914893617,4,2,3,85,0,0
127961,-42.5531914893617,4,2,2,5,0,0
128111,-42.5531914893617,4,2,3,85,0,0
128261,-42.5531914893617,4,2,2,5,0,0
128411,-42.5531914893617,4,2,3,85,0,0
128861,-42.5531914893617,4,2,2,5,0,0
129011,-42.5531914893617,4,2,3,85,0,0
129161,-42.5531914893617,4,2,2,5,0,0
129611,-42.5531914893617,4,2,3,85,0,0
129761,-42.5531914893617,4,2,2,5,0,0
129911,-42.5531914893617,4,2,3,85,0,0
130061,-42.5531914893617,4,2,2,5,0,0
130211,-42.5531914893617,4,2,3,85,0,0
130361,-42.5531914893617,4,2,2,5,0,0
130511,-42.5531914893617,4,2,3,85,0,0
130661,-42.5531914893617,4,2,2,5,0,0
130811,-42.5531914893617,4,2,3,85,0,0
130961,-42.5531914893617,4,2,2,5,0,0
131111,-42.5531914893617,4,2,3,85,0,0
131261,-42.5531914893617,4,2,2,5,0,0
131411,-42.5531914893617,4,2,3,85,0,0
131561,-42.5531914893617,4,2,2,5,0,0
131711,-42.5531914893617,4,2,3,85,0,0
131861,-42.5531914893617,4,2,2,5,0,0
132311,-42.5531914893617,4,2,3,85,0,0
132461,-42.5531914893617,4,2,2,5,0,0
132611,-42.5531914893617,4,2,3,85,0,0
132761,-42.5531914893617,4,2,2,5,0,0
133211,-42.5531914893617,4,2,3,85,0,0
133361,-42.5531914893617,4,2,2,5,0,0
133511,-42.5531914893617,4,2,3,85,0,0
133661,-42.5531914893617,4,2,2,5,0,0
133811,-42.5531914893617,4,2,3,85,0,0
133961,-42.5531914893617,4,2,2,5,0,0
134111,-42.5531914893617,4,2,3,85,0,0
134261,-42.5531914893617,4,2,2,5,0,0
134411,-42.5531914893617,4,2,3,85,0,0
135236,-42.5531914893617,4,2,2,5,0,0
135311,-150.375939849624,4,2,3,40,0,0
142511,-120.481927710843,4,2,3,50,0,0
149711,-285.714285714286,3,2,3,45,0,0
152411,-666.666666666667,3,2,3,45,0,0
154211,-45.4545454545455,3,2,3,80,0,1
157361,-95.238095238095,3,2,3,80,0,1
157811,-50,3,2,3,80,0,1
160961,-95.238095238095,3,2,3,80,0,1
161411,-50,3,2,3,80,0,1
162911,-95.238095238095,3,2,3,80,0,1
163211,-45.4545454545455,3,2,3,80,0,1
164111,-42.5531914893617,3,2,3,80,0,1
165011,-45.4545454545455,3,2,3,80,0,1
168311,-95.238095238095,3,2,3,80,0,1
168611,-50,3,2,3,80,0,1
169961,-95.238095238095,3,2,3,80,0,1
170411,-50,3,2,3,80,0,1
173111,-50,3,2,3,80,0,1
174011,-42.5531914893617,3,2,3,80,0,1
174894,-40,3,2,3,80,0,1
175811,-50,3,2,3,80,0,1
175886,-50,3,2,1,60,0,0
176711,-74.074074074074,3,2,1,60,0,0
177611,-93.4579439252335,3,2,1,60,0,0
179411,-93.4579439252335,3,2,1,60,0,0
183011,-93.4579439252335,3,2,1,65,0,0
185261,-92.5925925925925,3,2,2,5,0,0
185411,-92.5925925925925,3,2,1,65,0,0
189311,-66.6666666666665,3,2,1,65,0,0
189911,-55.5555555555555,3,2,1,65,0,0
190211,-188.679245283019,3,2,1,65,0,0
190286,-188.679245283019,3,2,1,40,0,0
197411,-370.37037037037,3,2,1,40,0,0
198011,-370.37037037037,3,2,2,5,0,0
198311,-115.606936416185,3,2,1,15,0,0
198461,-76.923076923077,3,2,1,20,0,0
198611,-76.923076923077,3,2,1,25,0,0
198761,-76.923076923077,3,2,1,30,0,0
198911,-76.923076923077,3,2,1,35,0,0
199061,-76.923076923077,3,2,1,40,0,0
199211,-76.923076923077,3,2,1,45,0,0
199361,-76.923076923077,3,2,1,50,0,0
199511,-76.923076923077,3,2,1,55,0,0
199661,-76.923076923077,3,2,2,5,0,0
199811,-370.37037037037,3,2,1,60,0,0
200036,-250,3,2,2,5,0,0
200111,-39.8406374501992,3,2,3,80,0,1
203411,-93.4579439252335,3,2,3,80,0,1
203711,-42.5531914893617,3,2,3,80,0,1
206861,-93.4579439252335,3,2,3,80,0,1
207306,-42.5531914893617,3,2,3,80,0,1
208811,-93.4579439252335,3,2,3,80,0,1
209111,-43.4782608695652,3,2,3,80,0,1
210011,-39.2156862745098,3,2,3,80,0,1
210911,-39.2156862745098,3,2,3,80,0,1
214061,-93.4579439252335,3,2,3,80,0,1
214511,-47.6190476190476,3,2,3,80,0,1
214961,-43.4782608695652,3,2,3,80,0,1
215861,-93.4579439252335,3,2,3,80,0,1
216311,-47.6190476190476,3,2,3,80,0,1
216761,-42.5531914893617,3,2,3,80,0,1
219911,-37.7358490566038,3,2,3,80,0,1
220811,-35.7142857142857,3,2,3,80,0,1
221711,-35.7142857142857,3,2,3,85,0,1
225310,-41.6666666666667,3,2,3,85,0,1
226210,-50,3,2,3,85,0,1
226811,-58.4795321637425,3,2,3,85,0,1
228011,-74.074074074074,3,2,3,85,0,1
228986,-100,3,2,3,50,0,0
231611,-114.942528735632,3,2,3,50,0,0
232211,-71.4285714285715,3,2,2,5,0,0
232248,-71.4285714285715,3,2,3,50,0,0
232736,-71.4285714285715,3,2,2,5,0,0
232811,-71.4285714285715,3,2,3,55,0,0
232961,-71.4285714285715,3,2,3,60,0,0
233111,-71.4285714285715,3,2,3,65,0,0
233261,-71.4285714285715,3,2,3,70,0,0
233411,-58.8235294117645,3,2,3,80,0,1
236561,-38.4615384615385,3,2,2,5,0,1
236711,-93.4579439252335,3,2,3,80,0,1
237011,-58.8235294117645,3,2,3,80,0,1
240611,-46.5116279069767,3,2,3,80,0,1
244211,-46.5116279069767,3,2,3,80,0,0
246911,-40,3,2,3,80,0,0
247211,-40,3,2,3,80,0,0
247286,-40,3,2,2,5,0,0
247361,-34.4827586206897,3,2,3,80,0,0
247436,-34.4827586206897,3,2,2,5,0,0
247511,-30.3030303030303,3,2,3,80,0,0
247586,-30.3030303030303,3,2,2,5,0,0
247661,-27.027027027027,3,2,3,80,0,0
247736,-27.027027027027,3,2,2,5,0,0
247811,-50,3,2,3,80,0,1
250511,-62.5,3,2,3,80,0,1
250811,-50,3,2,3,80,0,1
255011,-41.6666666666667,3,2,3,80,0,1
258611,-41.6666666666667,3,2,3,80,0,0
261311,-36.101083032491,3,2,3,90,0,1
261461,-23.8095238095238,3,2,2,5,0,0
261611,-36.101083032491,3,2,3,90,0,1
261761,-23.8095238095238,3,2,2,5,0,0

[Colours]
Combo1 : 239,80,112
Combo2 : 255,247,136
Combo3 : 145,247,232
Combo4 : 70,174,251

[HitObjects]
22,41,912,6,0,P|156:68|292:89,1,257.399999214478,0|2,0:0|0:0,0:0:0:0:
497,122,5712,6,0,P|434:42|419:144,1,257.399999214478,0|2,0:0|0:0,0:0:0:0:
417,142,9312,1,2,0:0:0:0:
226,265,10512,6,0,P|356:230|497:206,1,257.399999214478,0|2,0:0|0:0,0:0:0:0:
194,383,15312,6,0,B|180:316|96:299|113:323|14:305|10:206,1,257.399999214478,0|2,0:0|0:0,0:0:0:0:
12,223,18912,1,2,0:0:0:0:
26,73,20112,6,0,P|22:54|12:22,1,34.1249989585877
93,9,20512,2,0,P|98:35|112:79,2,68.2499979171754,2|0|0,0:0|0:0|0:0,0:0:0:0:
188,107,21712,6,0,P|255:91|324:81,1,136.499995834351,2|0,0:0|0:0,0:0:0:0:
441,218,22912,6,0,P|444:200|450:180,1,34.1249989585877,0|2,0:0|0:0,0:0:0:0:
371,164,23312,2,0,P|368:182|362:202,1,34.1249989585877,0|2,0:0|0:0,0:0:0:0:
380,277,23712,5,0,0:0:0:0:
383,284,23912,1,0,0:0:0:0:
412,358,24112,1,2,0:0:0:0:
415,365,24312,1,2,0:0:0:0:
479,314,24512,6,0,P|487:312|492:308,3,11.3749996528626,2|2|2|2,0:0|0:0|0:0|0:0,0:0:0:0:
330,349,24912,6,0,P|300:340|219:323,1,102.374996875763
157,360,25712,2,0,P|138:324|136:322,1,34.1249989585877
89,269,26112,2,0,P|62:277|-6:291,1,68.2499979171754,2|0,0:0|0:0,0:0:0:0:
169,248,26912,6,0,P|188:212|190:210,1,34.1249989585877,0|2,0:0|0:0,0:0:0:0:
95,216,27312,2,0,P|104:201|110:185,1,34.1249989585877,0|2,0:0|0:0,0:0:0:0:
50,132,27712,5,0,0:0:0:0:
48,122,27912,1,0,0:0:0:0:
157,112,28112,1,2,0:0:0:0:
153,93,28312,1,2,0:0:0:0:
268,98,28512,1,0,0:0:0:0:
258,51,28712,1,2,0:0:0:0:
375,62,28912,1,2,0:0:0:0:
371,43,29112,1,0,0:0:0:0:
477,33,29312,6,0,P|503:39|523:41,1,34.1249989585877,0|2,0:0|0:0,0:0:0:0:
438,151,29712,6,0,P|403:157|370:166,1,68.2499979171754,4|0,0:0|0:0,0:0:0:0:
341,153,30312,1,0,0:0:0:0:
426,243,30512,1,2,0:0:0:0:
426,243,30912,6,0,P|460:233|495:226,1,68.2499979171754,2|0,0:0|0:0,0:0:0:0:
507,199,31512,1,0,0:0:0:0:
477,323,31712,2,0,P|473:311|479:323,1,34.1249989585877,2|0,0:0|0:0,0:0:0:0:
335,355,32112,6,0,P|321:332|329:358,1,68.2499979171754,2|0,0:0|0:0,0:0:0:0:
268,179,32912,1,0,0:0:0:0:
264,168,33112,1,0,0:0:0:0:
398,119,33312,2,0,P|361:128|339:105,1,68.2499979171754,2|0,0:0|0:0,0:0:0:0:
148,129,34112,5,0,0:0:0:0:
144,140,34312,1,0,0:0:0:0:
14,193,34512,2,0,P|-4:115|-7:107,2,68.2499979171754,2|0|0,0:0|0:0|0:0,0:0:0:0:
108,59,35712,1,0,0:0:0:0:
49,295,36112,2,0,P|40:328|34:362,2,68.2499979171754,2|0|0,0:0|0:0|0:0,0:0:0:0:
27,271,37112,1,0,0:0:0:0:
120,343,37312,1,2,0:0:0:0:
133,341,37712,5,2,0:0:0:0:
222,328,37912,1,0,0:0:0:0:
380,381,38112,2,0,B|383:325|429:297|431:306|495:290|489:202,1,191.099991106339,2|0,0:0|0:0,0:0:0:0:
500,227,39312,5,2,0:0:0:0:
385,163,39712,1,0,0:0:0:0:
308,185,40112,1,0,0:0:0:0:
440,87,40512,2,0,P|402:78|364:61,1,68.2499979171754
358,39,41112,1,0,0:0:0:0:
385,163,41312,1,2,0:0:0:0:
205,145,41712,6,0,P|167:157|131:177,1,68.2499979171754,2|0,0:0|0:0,0:0:0:0:
130,204,42312,1,0,0:0:0:0:
144,83,42512,2,0,P|145:67|148:83,1,34.1249989585877,0|2,0:0|0:0,0:0:0:0:
14,46,42912,2,0,P|2:21|7:48,1,68.2499979171754,2|0,0:0|0:0,0:0:0:0:
42,245,43712,5,0,0:0:0:0:
45,260,43912,1,0,0:0:0:0:
0,337,44112,2,0,P|42:342|78:355,1,68.2499979171754,2|0,0:0|0:0,0:0:0:0:
97,335,44712,1,0,0:0:0:0:
204,315,44912,1,2,0:0:0:0:
361,382,45312,1,0,0:0:0:0:
485,348,45712,1,0,0:0:0:0:
512,272,46112,1,0,0:0:0:0:
349,372,46512,6,0,B|362:293|304:269|300:283|255:231|268:164,1,224.900005490723,2|0,0:0|0:0,0:0:0:0:
239,152,47512,1,0,0:0:0:0:
353,196,47712,2,0,P|368:135|393:74,1,112.450002745361,2|0,0:0|0:0,0:0:0:0:
276,30,48312,2,0,P|293:64|282:28,1,112.450002745361
132,123,48912,6,0,P|81:108|3:91,1,130.649993819962,4|2,0:0|0:0,0:0:0:0:
201,54,50912,2,0,P|209:77|225:101,1,43.5499979399873,0|2,0:0|0:0,0:0:0:0:
61,142,52112,2,0,P|53:165|37:189,1,43.5499979399873,0|2,0:0|0:0,0:0:0:0:
183,214,53312,5,0,0:0:0:0:
189,227,53712,2,0,B|236:227|257:244|252:246|277:265|322:261,1,130.649993819962,0|2,0:0|0:0,0:0:0:0:
496,351,55712,2,0,P|476:358|457:369,1,43.5499979399873,0|2,0:0|0:0,0:0:0:0:
418,212,56912,2,0,P|398:205|379:194,1,43.5499979399873,0|2,0:0|0:0,0:0:0:0:
290,335,58112,5,0,0:0:0:0:
280,330,58512,2,0,P|242:158|229:109,1,226.200001898346
41,0,60912,2,0,P|11:138|0:177,1,169.650001423759
171,262,63312,6,0,P|125:210|101:283,1,169.650001423759
22,322,64912,2,0,B|67:301|119:317|147:355|147:355|162:306|205:272|258:272,1,282.750002372932
272,186,67312,2,0,P|302:202|334:212,1,56.5500004745865
377,384,68112,5,4,3:2:0:0:
387,376,68712,1,0,0:0:0:0:
482,356,68912,1,2,3:2:0:0:
346,300,69112,1,0,0:0:0:0:
268,320,69312,2,0,P|255:261|229:185,1,139.099995755005,2|0,3:2|0:0,0:0:0:0:
247,161,69912,1,0,0:0:0:0:
357,185,70112,2,0,P|370:130|388:93,1,69.5499978775025,2|0,3:2|0:0,0:0:0:0:
273,10,70512,5,0,3:0:0:0:
276,26,70912,1,0,3:0:0:0:
356,3,71112,1,0,3:0:0:0:
187,38,71312,2,0,P|177:16|182:39,1,69.5499978775025,2|0,3:2|0:0,0:0:0:0:
13,96,71712,2,0,B|54:88|82:112|73:115|96:133|137:129|137:129|92:104|83:59,1,208.649993632508,0|0,3:0|0:0,0:0:0:0:
25,175,72512,5,2,3:2:0:0:
21,208,72712,1,0,0:0:0:0:
153,153,72912,5,4,3:2:0:0:
158,168,73312,1,2,3:2:0:0:
248,192,73512,1,0,0:0:0:0:
104,247,73712,2,0,P|98:289|85:331,1,69.5499978775025,2|0,3:2|0:0,0:0:0:0:
237,216,74112,2,0,P|250:282|281:363,1,139.099995755005,0|0,3:0|0:0,0:0:0:0:
301,365,74712,1,0,0:0:0:0:
174,356,74912,2,0,P|167:380|178:357,1,69.5499978775025,2|0,3:2|0:0,0:0:0:0:
338,268,75312,5,0,3:0:0:0:
345,282,75712,1,0,3:0:0:0:
450,270,75912,1,0,3:0:0:0:
482,110,76112,2,0,P|491:69|508:27,1,69.5499978775025,2|0,3:2|0:0,0:0:0:0:
385,185,76512,2,0,B|390:119|343:95|339:103|295:73|303:-7,1,208.649993632508,0|0,3:0|0:0,0:0:0:0:
356,83,77312,6,0,P|334:82|311:105,1,51.1874984378815,2|0,0:0|0:0,0:0:0:0:
265,218,77712,6,0,P|187:198|54:171,1,191.75000621748,4|0,3:2|3:0,0:0:0:0:
0,161,78312,1,0,3:0:0:0:
162,159,78512,2,0,P|209:137|201:69,1,95.87500310874,2|0,3:2|0:0,0:0:0:0:
125,0,78912,1,0,3:0:0:0:
127,13,79312,5,2,3:2:0:0:
89,343,79712,2,0,P|41:354|-6:376,1,95.87500310874,0|0,3:0|0:0,0:0:0:0:
100,252,80112,1,0,3:0:0:0:
115,254,80312,1,0,0:0:0:0:
177,384,80512,1,0,3:0:0:0:
255,372,80712,1,0,0:0:0:0:
290,191,80912,2,0,B|297:154|336:128|357:177|312:180,1,95.3333362426759,2|0,3:2|0:0,0:0:0:0:
129,141,81312,2,0,B|148:64|54:29|22:64|22:122|62:130,1,191.75000621748,0|2,3:0|3:2,0:0:0:0:
36,129,82112,5,2,3:2:0:0:
117,248,82312,1,0,0:0:0:0:
196,232,82512,2,0,P|212:147|247:38,1,191.75000621748,2|0,3:2|3:0,0:0:0:0:
217,20,83112,1,0,3:0:0:0:
385,0,83312,5,2,0:0:0:0:
403,80,83512,1,0,3:0:0:0:
512,201,83712,2,0,B|463:197|430:240|437:242|425:299|320:287,1,191.75000621748,2|0,3:2|0:0,0:0:0:0:
512,327,84512,6,0,P|465:288|412:297,1,95.87500310874,0|0,3:0|0:0,0:0:0:0:
356,184,84912,2,0,P|314:268|249:345,1,191.75000621748,0|0,3:0|0:0,0:0:0:0:
184,384,85512,1,0,3:0:0:0:
264,269,85712,2,0,P|198:267|149:249,1,95.87500310874,2|0,3:2|0:0,0:0:0:0:
55,215,86112,2,0,P|28:111|-2:30,1,191.75000621748,0|0,3:0|0:0,0:0:0:0:
256,0,86912,5,2,3:2:0:0:
220,343,87312,1,0,3:0:0:0:
205,353,87712,1,0,3:0:0:0:
111,345,87912,1,0,3:0:0:0:
0,241,88112,2,0,P|72:222|158:192,1,143.81250466311,2|0,3:2|0:0,0:0:0:0:
167,213,88512,6,0,P|207:169|265:184,1,95.87500310874,0|0,3:0|0:0,0:0:0:0:
301,0,88912,2,0,P|341:43|399:28,1,95.87500310874,0|0,3:0|0:0,0:0:0:0:
364,237,89312,2,0,P|352:190|326:133,1,95.87500310874,2|0,3:2|0:0,0:0:0:0:
512,48,89712,6,0,P|474:196|459:287,1,227.500002169609,0|0,3:0|3:0,0:0:0:0:
447,347,90312,1,0,3:0:0:0:
290,376,90512,2,0,P|228:348|225:307,1,113.750001084805,0|0,3:0|0:0,0:0:0:0:
142,383,90912,2,0,P|231:358|247:214,1,227.500002169609,2|0,3:2|3:0,0:0:0:0:
231,166,91512,1,0,3:0:0:0:
51,263,91712,2,0,P|28:159|-4:41,1,195,2|0,3:2|0:0,0:0:0:0:
66,0,92111,6,0,P|135:0|152:113,1,174.199991759949,4|2,1:0|0:2,0:0:0:0:
71,12,92561,2,0,P|43:88|106:142,1,174.199991759949,0|2,3:0|0:0,0:0:0:0:
205,33,93011,2,0,P|245:46|312:54,2,87.0999958799746,0|0|0,3:0|3:0|3:0,0:0:0:0:
186,176,93461,2,0,P|296:154|381:145,1,174.199991759949,0|2,3:0|0:0,0:0:0:0:
488,74,93911,6,0,B|503:119|469:157|465:150|419:166|430:249,1,174.199991759949,0|2,3:0|0:0,0:0:0:0:
356,146,94361,2,0,B|341:191|375:229|379:222|425:238|414:321,1,174.199991759949,0|2,3:0|0:0,0:0:0:0:
512,220,94811,1,0,3:0:0:0:
507,232,94961,1,0,3:0:0:0:
511,244,95111,1,0,3:0:0:0:
492,351,95261,2,0,P|413:314|329:292,1,174.199991759949,0|2,3:0|0:0,0:0:0:0:
243,225,95711,6,0,B|179:256|162:331|162:331|131:336|97:383,1,191.099991106339,0|2,3:0|0:0,0:0:0:0:
245,347,96161,2,0,P|204:229|161:176,1,191.099991106339,0|2,3:0|0:0,0:0:0:0:
230,100,96611,2,0,P|251:39|271:3,2,95.5499955531695,0|0|0,3:0|3:0|3:0,0:0:0:0:
97,119,97061,2,0,P|26:112|10:7,1,191.099991106339,0|2,3:0|0:0,0:0:0:0:
136,42,97511,6,0,P|231:67|362:85,1,190.666672485352,0|2,3:0|0:0,0:0:0:0:
254,213,97961,2,0,P|349:188|480:170,1,191.099991106339,0|2,3:0|0:0,0:0:0:0:
465,39,98411,1,0,3:0:0:0:
461,26,98561,1,0,3:0:0:0:
451,36,98711,1,0,3:0:0:0:
320,164,98861,2,0,B|403:134|444:213|424:225|394:259|373:235|360:190,1,191.099991106339,0|0,3:0|0:0,0:0:0:0:
510,183,99311,6,0,P|491:248|480:312,1,110.50000210762,2|0,3:0|0:0,0:0:0:0:
319,355,99611,2,0,P|307:299|291:245,1,110.50000210762,2|0,3:0|0:0,0:0:0:0:
494,302,99911,2,0,P|456:358|405:339,1,110.50000210762,2|0,3:0|0:0,0:0:0:0:
274,249,100211,1,2,3:2:0:0:
277,235,100361,1,0,3:0:0:0:
169,112,100511,2,0,B|134:89|90:147|103:188|158:218|209:202|238:179|250:117,1,221.000004215241,2|0,3:0|0:0,0:0:0:0:
271,86,100961,1,0,3:0:0:0:
432,108,101111,6,0,P|402:142|320:107,1,110.50000210762,2|0,3:0|0:0,0:0:0:0:
213,4,101411,1,2,3:0:0:0:
205,37,101561,1,2,3:2:0:0:
181,13,101711,2,0,P|129:28|37:42,1,110.50000210762,2|0,3:0|0:0,0:0:0:0:
0,183,102011,2,0,P|55:193|109:208,1,110.50000210762,2|0,3:0|0:0,0:0:0:0:
222,239,102311,1,2,3:2:0:0:
230,272,102461,1,0,3:0:0:0:
254,248,102611,1,2,3:0:0:0:
131,353,102911,6,0,P|105:329|134:351,1,110.50000210762,2|0,3:0|0:0,0:0:0:0:
337,329,103211,2,0,P|361:306|333:327,1,110.50000210762,2|0,3:0|0:0,0:0:0:0:
259,384,103511,2,0,B|256:346|235:331|233:337|209:308|210:266,1,110.50000210762,2|0,3:0|0:0,0:0:0:0:
444,317,103811,2,0,B|434:232|486:217|488:224|535:159|504:91,1,221.000004215241,0|0,3:0|0:0,0:0:0:0:
492,38,104261,1,0,3:0:0:0:
402,174,104411,6,0,P|336:152|251:132,1,110.50000210762,2|0,3:0|0:0,0:0:0:0:
352,5,104711,2,0,P|195:48|96:69,1,221.000004215241,2|0,3:0|0:0,0:0:0:0:
54,73,105161,1,0,3:0:0:0:
214,78,105311,2,0,P|178:161|139:168,1,110.50000210762,2|0,3:0|0:0,0:0:0:0:
0,206,105611,5,2,3:2:0:0:
99,223,105761,1,2,3:2:0:0:
166,278,105911,1,2,3:0:0:0:
195,325,106061,1,2,3:2:0:0:
205,369,106211,2,0,P|177:375|145:387,3,55.2500010538101,0|0|0|0,3:0|3:0|3:0|3:0,0:0:0:0:
256,182,106511,6,0,P|328:196|536:224,1,260,4|0,1:0|0:0,0:0:0:0:
387,244,106961,1,0,3:0:0:0:
233,277,107111,2,0,P|171:257|168:151,1,130,0|0,3:0|0:0,0:0:0:0:
63,313,107411,2,0,P|162:245|131:104,1,260,0|0,1:0|0:0,0:0:0:0:
97,56,107861,1,0,3:0:0:0:
0,164,108011,6,0,B|69:147|107:197|50:231|12:205|36:151,1,130,0|0,3:0|0:0,0:0:0:0:
275,82,108311,2,0,B|283:176|179:211|162:140|135:99|191:57|241:4|343:38,1,390,0|0,1:0|0:0,0:0:0:0:
512,0,108911,1,0,3:0:0:0:
495,79,109061,1,0,3:0:0:0:
348,152,109211,2,0,P|470:170|506:287,1,260.000009918213,0|0,1:0|0:0,0:0:0:0:
358,167,109661,6,0,P|309:207|323:280,1,130,0|0,3:0|0:0,0:0:0:0:
279,384,110111,6,0,B|360:403|401:334|392:333|429:279|506:287,1,260,0|0,1:0|0:0,0:0:0:0:
420,353,110561,1,0,3:0:0:0:
248,313,110711,2,0,P|188:294|108:286,1,130,0|0,3:0|0:0,0:0:0:0:
0,374,111011,2,0,P|154:299|369:228,1,390,0|0,1:0|0:0,0:0:0:0:
491,141,111611,1,0,3:0:0:0:
495,128,111761,1,0,3:0:0:0:
294,208,111911,6,0,P|192:221|137:20,1,305.49999533844,4|0,1:0|0:0,0:0:0:0:
177,1,112360,1,0,3:0:0:0:
275,112,112511,2,0,P|220:146|195:71,1,152.74999766922,0|0,3:0|0:0,0:0:0:0:
441,7,112811,2,0,P|405:152|376:314,1,305.49999533844,4|0,1:0|0:0,0:0:0:0:
365,383,113261,1,0,3:0:0:0:
184,254,113411,2,0,P|102:277|18:291,1,152.74999766922,0|0,3:0|0:0,0:0:0:0:
231,375,113711,6,0,B|231:294|304:300|301:345|244:357,1,130,4|0,1:0|0:0,0:0:0:0:
101,237,114011,2,0,B|101:156|28:162|31:207|88:219,1,130,0|0,3:0|0:0,0:0:0:0:
296,118,114311,5,0,3:0:0:0:
240,173,114461,1,0,3:0:0:0:
219,97,114611,2,0,P|196:60|223:94,1,130,0|0,1:0|0:0,0:0:0:0:
360,57,114911,5,0,3:0:0:0:
443,139,115061,1,0,3:0:0:0:
474,25,115211,2,0,P|494:-13|468:22,1,130,0|0,3:0|0:0,0:0:0:0:
316,196,115511,6,0,P|334:280|346:361,1,130,0|0,1:0|0:0,0:0:0:0:
487,385,115811,2,0,P|498:320|512:257,1,130,0|0,3:0|0:0,0:0:0:0:
411,125,116111,1,0,3:0:0:0:
422,204,116261,1,0,3:0:0:0:
240,95,116411,2,0,P|218:223|190:350,1,260,0|0,1:0|0:0,0:0:0:0:
29,384,116861,6,0,P|18:320|4:256,1,130,0|0,3:0|0:0,0:0:0:0:
10,47,117311,6,0,P|22:166|141:173,1,260,4|0,1:0|0:0,0:0:0:0:
202,120,117761,1,0,3:0:0:0:
357,216,117911,2,0,P|281:219|262:155,1,130,0|0,3:0|0:0,0:0:0:0:
312,12,118211,2,0,B|365:-36|456:-17|487:66|453:126|453:126|453:126|365:131|367:222,1,390,0|0,1:0|0:0,0:0:0:0:
220,270,118811,1,0,3:0:0:0:
225,285,118961,1,0,3:0:0:0:
403,358,119111,6,0,B|402:315|428:284|433:298|459:262|455:218,1,152.74999766922,4|0,1:0|0:0,0:0:0:0:
259,178,119411,2,0,B|259:135|233:104|228:118|202:82|207:37,1,152.74999766922,0|0,3:0|0:0,0:0:0:0:
381,110,119711,1,0,3:0:0:0:
376,125,119861,1,0,3:0:0:0:
324,309,120011,2,0,P|147:353|-2:392,1,305.49999533844,4|0,1:0|0:0,0:0:0:0:
0,310,120461,1,0,3:0:0:0:
109,326,120611,1,0,3:0:0:0:
195,260,120761,1,0,3:0:0:0:
405,343,120911,6,0,P|429:266|460:184,1,152.74999766922,4|0,1:0|0:0,0:0:0:0:
447,197,121811,2,0,P|429:275|415:362,1,152.74999766922,4|0,1:0|0:0,0:0:0:0:
313,147,122411,6,0,P|397:119|407:62,1,152.74999766922,4|0,1:0|0:0,0:0:0:0:
351,8,122711,2,0,P|267:36|257:93,1,152.74999766922,4|0,1:0|0:0,0:0:0:0:
65,187,123311,6,0,P|82:108|96:21,1,152.74999766922,4|0,1:0|0:0,0:0:0:0:
62,38,123611,2,0,P|79:116|93:203,1,152.74999766922,4|0,1:0|0:0,0:0:0:0:
261,376,123911,2,0,P|243:297|229:210,1,152.74999766922,4|0,1:0|0:0,0:0:0:0:
326,111,124211,2,0,P|252:127|177:140,1,152.74999766922,4|0,1:0|0:0,0:0:0:0:
0,298,124511,6,0,P|73:281|151:269,1,152.74999766922,4|0,1:0|0:0,0:0:0:0:
151,293,125411,2,0,P|77:280|-1:271,1,152.74999766922,4|0,1:0|0:0,0:0:0:0:
221,374,126011,6,0,P|315:347|320:274,1,152.74999766922,4|0,1:0|0:0,0:0:0:0:
405,283,126311,2,0,P|499:310|504:383,1,152.74999766922,4|0,1:0|0:0,0:0:0:0:
289,215,126911,6,0,B|301:193|319:181|319:181|326:111|350:51,1,152.74999766922,4|0,1:0|0:0,0:0:0:0:
365,0,127211,2,0,B|377:21|378:43|378:43|435:83|475:135,1,152.74999766922,4|0,1:0|0:0,0:0:0:0:
512,174,127511,2,0,B|487:174|467:164|467:164|404:193|339:202,1,152.74999766922,4|0,1:0|0:0,0:0:0:0:
259,58,127811,2,0,B|234:57|214:67|214:67|151:38|86:29,1,152.74999766922,4|0,1:0|0:0,0:0:0:0:
89,221,128111,6,0,B|181:198|157:111|106:143|99:182|124:210,1,152.74999766922,4|0,1:0|0:0,0:0:0:0:
0,261,128411,1,0,3:0:0:0:
87,235,128561,1,0,3:0:0:0:
155,294,128711,2,0,B|247:317|223:404|172:372|165:333|190:305,1,152.74999766922,4|0,1:0|0:0,0:0:0:0:
344,153,129011,2,0,B|304:152|279:192|287:193|266:230|199:226,1,152.74999766922,4|0,1:0|0:0,0:0:0:0:
511,362,129611,6,0,B|471:363|446:323|454:322|433:285|366:289,1,152.74999766922,4|0,1:0|0:0,0:0:0:0:
259,166,129911,2,0,P|180:130|195:42,1,152.74999766922,4|0,1:0|0:0,0:0:0:0:
235,19,130211,2,0,P|314:55|299:143,1,152.74999766922,4|0,1:0|0:0,0:0:0:0:
235,339,130511,2,0,P|125:323|48:319,1,152.74999766922,4|0,1:0|0:0,0:0:0:0:
0,169,130811,2,0,P|75:162|154:148,1,152.74999766922,4|0,1:0|0:0,0:0:0:0:
277,248,131111,2,0,P|352:254|429:266,1,152.74999766922,4|0,1:0|0:0,0:0:0:0:
512,78,131411,2,0,P|437:90|361:96,1,152.74999766922,4|0,1:0|0:0,0:0:0:0:
228,1,131711,6,0,P|206:47|223:0,1,152.74999766922,4|0,1:0|0:0,0:0:0:0:
150,196,132311,2,0,B|145:157|112:129|109:135|75:115|72:54,1,152.74999766922,4|0,1:0|0:0,0:0:0:0:
279,226,132611,2,0,B|284:187|317:159|320:165|354:145|357:84,1,152.74999766922,4|0,1:0|0:0,0:0:0:0:
55,209,133211,6,0,P|80:282|94:356,1,152.74999766922,4|0,1:0|0:0,0:0:0:0:
370,234,133511,2,0,P|345:309|331:383,1,152.74999766922,4|0,1:0|0:0,0:0:0:0:
105,369,133811,2,0,P|131:321|241:347,1,152.74999766922,4|0,1:0|0:0,0:0:0:0:
380,242,134111,2,0,P|451:251|493:191,1,152.74999766922,4|0,1:0|0:0,0:0:0:0:
508,5,134411,6,0,B|511:57|461:78|462:64|405:87|412:157|412:157|258:-20|-1:3|-1:3|97:28|150:118,1,840.12498718071,4|0,1:0|0:0,0:0:0:0:
201,48,135311,6,0,P|102:82|97:223,1,259.34998931511,4|2,1:0|0:0,0:0:0:0:
2,118,137111,2,0,P|105:98|180:218,1,259.34998931511,0|2,0:0|0:0,0:0:0:0:
310,329,138911,6,0,P|233:303|134:290,1,172.89999287674
83,375,139811,2,0,P|63:333|28:284,2,86.4499964383699,2|0|0,0:0|0:0|0:0,0:0:0:0:
210,333,140711,2,0,P|254:195|308:85,1,259.34998931511,2|2,0:0|0:0,0:0:0:0:
136,30,142511,6,0,B|100:39|62:19|51:-18|51:-18|61:18|40:56|2:66,1,215.800003128204,2|0,0:0|0:0,0:0:0:0:
84,112,143411,1,2,0:0:0:0:
256,152,144011,6,0,P|253:132|262:150,1,53.9500007820511
376,174,144311,6,0,B|412:183|450:163|461:126|461:126|451:162|472:200|510:210,1,215.800003128204,2|0,0:0|0:0,0:0:0:0:
428,256,145211,1,2,0:0:0:0:
256,344,145811,6,0,P|257:324|250:342,1,53.9500007820511
99,384,146111,5,2,0:0:0:0:
120,307,146411,1,0,0:0:0:0:
177,364,146711,1,0,0:0:0:0:
460,343,147011,5,2,0:0:0:0:
426,219,147311,1,0,0:0:0:0:
335,310,147611,6,0,P|333:290|341:308,1,53.9500007820511
250,274,147911,1,2,0:0:0:0:
227,180,148211,6,0,P|230:159|221:177,1,53.9500007820511
77,234,148511,2,0,P|76:213|83:232,1,53.9500007820511
0,162,148811,6,0,B|36:150|59:115|58:80|58:80|67:118|100:143|136:143,1,215.800003128204,2|0,0:0|0:0,0:0:0:0:
87,339,149711,5,4,0:2:0:0:
92,324,150011,1,0,0:0:0:0:
105,337,150311,1,0,0:0:0:0:
258,354,150611,6,0,P|292:360|308:367,2,45.4999986114502,2|0|0,0:0|0:0|0:0,0:0:0:0:
21,252,151511,5,2,0:0:0:0:
26,271,151811,1,0,0:0:0:0:
39,258,152111,1,0,0:0:0:0:
288,261,152411,6,0,P|321:259|347:248,1,58.4999982147217,2|0,0:0|0:0,0:0:0:0:
256,16,153911,5,2,0:0:0:0:
256,2,154211,6,0,P|398:41|394:163,1,286.000008728028,4|0,1:0|0:0,0:0:0:0:
333,207,154661,1,0,3:0:0:0:
256,16,154811,2,0,P|212:68|241:144,1,143.000004364014,0|0,3:0|0:0,0:0:0:0:
111,257,155111,2,0,P|178:230|258:217,1,143.000004364014,0|0,1:0|0:0,0:0:0:0:
336,65,155411,2,0,P|401:92|471:107,1,143.000004364014,2|0,3:0|0:0,0:0:0:0:
503,235,155711,5,0,3:0:0:0:
499,250,155861,1,0,3:0:0:0:
336,330,156011,2,0,B|260:283|328:177|448:246|427:327|408:379,1,286.000008728028,0|0,1:0|0:0,0:0:0:0:
279,254,156461,5,0,3:0:0:0:
447,322,156611,1,2,3:0:0:0:
451,337,156761,1,0,3:0:0:0:
238,382,156911,2,0,B|238:287|165:259|164:274|111:222|128:129,1,286.000008728028,0|0,1:0|0:0,0:0:0:0:
38,218,157361,5,0,3:0:0:0:
25,295,157511,2,0,B|30:272|39:263|40:266|51:247|48:217,1,68.2499979171754,2|0,3:2|0:0,0:0:0:0:
224,188,157811,6,0,P|246:149|221:185,1,130,0|0,1:0|0:0,0:0:0:0:
18,102,158111,1,0,3:0:0:0:
22,116,158261,1,0,3:0:0:0:
138,81,158411,1,2,3:0:0:0:
6,115,158561,1,0,3:0:0:0:
166,2,158711,2,0,P|311:29|456:53,1,260,4|0,1:0|0:0,0:0:0:0:
512,0,159161,5,0,3:0:0:0:
490,155,159311,2,0,P|423:165|343:187,1,130,2|0,3:0|0:0,0:0:0:0:
322,0,159611,2,0,P|381:14|394:78,1,130,0|0,1:0|0:0,0:0:0:0:
202,147,159911,2,0,P|185:88|233:47,1,130,2|0,3:0|0:0,0:0:0:0:
426,194,160211,1,0,3:0:0:0:
407,271,160361,1,0,3:0:0:0:
241,305,160511,2,0,B|234:268|208:246|208:246|326:239|333:371,1,260,4|0,1:0|0:0,0:0:0:0:
451,383,160961,5,0,3:0:0:0:
493,320,161111,2,0,P|470:363|456:400,1,68.2499979171754,2|0,3:2|0:0,0:0:0:0:
156,311,161411,6,0,P|90:331|20:359,1,130,0|0,1:0|0:0,0:0:0:0:
271,157,161711,2,0,P|205:137|135:109,1,130,0|0,1:0|0:0,0:0:0:0:
60,249,162011,1,2,3:0:0:0:
34,173,162161,1,2,3:0:0:0:
157,298,162311,2,0,B|157:262|178:238|181:244|202:213|195:163,1,130,0|0,1:0|0:0,0:0:0:0:
360,154,162611,2,0,B|360:118|339:94|336:100|315:69|322:19,1,130,0|0,1:0|0:0,0:0:0:0:
107,111,162911,6,0,P|126:96|110:115,1,68.2499979171754,2|0,3:0|0:0,0:0:0:0:
450,42,163211,6,0,P|412:12|446:46,1,143.000004364014,4|0,1:0|0:0,0:0:0:0:
290,229,163511,5,2,3:0:0:0:
286,212,163661,1,0,3:0:0:0:
445,288,163811,1,2,3:0:0:0:
474,170,163961,1,0,3:0:0:0:
285,361,164111,6,0,P|180:372|134:202,1,305.49999533844,4|0,1:0|0:0,0:0:0:0:
19,344,164561,1,0,3:0:0:0:
24,349,164636,1,0,3:0:0:0:
30,353,164711,2,0,P|127:326|140:250,1,152.74999766922,4|0,3:2|3:0,0:0:0:0:
268,99,165011,6,0,B|221:85|191:36|204:-13|204:-13|183:29|129:51|82:31,1,286.000008728028,4|0,1:0|0:0,0:0:0:0:
7,0,165461,1,0,3:0:0:0:
156,119,165611,2,0,B|101:107|40:168|118:194|122:142,1,143.000004364014,0|0,3:0|0:0,0:0:0:0:
362,38,165911,2,0,B|307:49|246:-11|324:-37|328:14,1,143.000004364014,0|0,1:0|0:0,0:0:0:0:
475,186,166211,2,0,P|419:174|329:168,1,143.000004364014,2|0,3:0|0:0,0:0:0:0:
156,263,166511,5,0,3:0:0:0:
152,278,166661,1,0,3:0:0:0:
26,181,166811,2,0,P|157:203|151:352,1,286.000008728028,0|0,1:0|0:0,0:0:0:0:
201,200,167261,1,0,3:0:0:0:
57,296,167411,1,2,3:0:0:0:
61,311,167561,1,0,3:0:0:0:
250,365,167711,2,0,P|370:367|388:180,1,286.000008728028,0|0,1:0|0:0,0:0:0:0:
478,111,168161,5,0,3:0:0:0:
512,178,168311,2,0,P|484:156|473:124,1,68.2499979171754,2|0,3:2|0:0,0:0:0:0:
297,0,168611,6,0,B|302:71|241:109|239:97|166:132|172:232,1,260.000009918213,4|0,1:0|0:0,0:0:0:0:
228,272,169061,1,0,3:0:0:0:
381,149,169211,2,0,P|322:185|261:200,1,130,2|0,3:0|0:0,0:0:0:0:
9,272,169511,2,0,B|-41:258|-39:195|9:140|113:214|118:268|83:355,1,260,4|0,1:0|0:0,0:0:0:0:
203,376,169961,5,0,3:0:0:0:
281,384,170111,2,0,P|236:369|196:370,1,68.2499979171754,2|0,3:2|0:0,0:0:0:0:
105,292,170411,6,0,P|236:251|378:224,1,260,4|0,1:0|0:0,0:0:0:0:
428,191,170861,1,0,3:0:0:0:
382,15,171011,2,0,P|319:41|307:102,1,130,2|0,3:0|0:0,0:0:0:0:
506,201,171311,2,0,P|498:77|384:28,1,260,4|0,1:0|0:0,0:0:0:0:
206,84,171761,5,0,0:0:0:0:
3,54,171911,1,2,3:2:0:0:
0,40,172061,1,2,3:2:0:0:
139,0,172211,6,0,P|119:79|111:173,1,130,0|0,1:0|0:0,0:0:0:0:
30,159,172511,2,0,P|50:238|58:332,1,130,2|0,3:0|0:0,0:0:0:0:
230,384,172811,5,0,3:0:0:0:
244,306,172961,1,0,3:0:0:0:
83,221,173111,6,0,P|90:255|182:252,1,130,0|0,1:0|0:0,0:0:0:0:
312,361,173411,2,0,P|344:371|388:290,1,130,2|0,3:0|0:0,0:0:0:0:
512,183,173711,5,0,3:0:0:0:
488,50,173861,1,0,3:0:0:0:
439,233,174011,6,0,P|271:187|85:154,1,305.49999533844,4|0,1:0|0:0,0:0:0:0:
66,145,174461,1,0,3:0:0:0:
272,152,174611,2,0,P|230:248|154:212,1,152.74999766922,2|0,3:0|0:0,0:0:0:0:
120,299,174911,2,0,P|-24:161|29:61,1,325,4|0,1:0|0:0,0:0:0:0:
189,26,175361,1,0,3:0:0:0:
188,33,175436,1,0,3:0:0:0:
188,40,175511,1,2,3:0:0:0:
120,81,175661,1,2,3:0:0:0:
379,12,175811,6,0,B|354:101|441:219|452:179|526:228|510:379,1,390.00001487732,4|0,1:0|0:0,0:0:0:0:
438,384,176411,1,0,0:0:0:0:
512,213,176711,2,0,P|429:239|396:315,1,175.500000669479,2|0,0:0|0:0,0:0:0:0:
472,104,177311,5,0,0:0:0:0:
460,113,177611,2,0,P|357:98|255:76,1,208.649993632508,2|0,0:0|0:0,0:0:0:0:
233,0,178211,1,0,0:0:0:0:
198,166,178511,2,0,P|96:186|48:204,2,139.099995755005,2|0|0,0:0|0:0|0:0,0:0:0:0:
437,70,179411,6,0,P|352:137|368:30,1,278.19999151001,2|0,0:0|0:0,0:0:0:0:
512,193,180311,2,0,B|461:187|426:226|430:228|415:283|329:280,1,208.649993632508,2|0,0:0|0:0,0:0:0:0:
284,344,180911,1,0,0:0:0:0:
442,378,181211,5,0,0:0:0:0:
399,298,181511,5,2,0:0:0:0:
273,195,181811,5,2,0:0:0:0:
506,217,182111,5,0,0:0:0:0:
388,296,182411,5,2,0:0:0:0:
139,334,182711,5,2,0:0:0:0:
321,377,183011,5,4,0:2:0:0:
333,370,183161,1,0,0:0:0:0:
333,384,183311,1,0,0:0:0:0:
290,294,183611,1,0,0:0:0:0:
491,224,183911,6,0,P|458:218|393:197,1,69.5499978775025
287,171,184211,2,0,P|311:196|338:219,1,69.5499978775025
457,312,184511,1,2,0:0:0:0:
388,116,184811,6,0,P|253:147|155:158,1,208.649993632508,2|0,0:0|0:0,0:0:0:0:
147,232,185411,1,0,0:0:0:0:
134,227,185561,1,0,0:0:0:0:
122,219,185711,1,2,0:0:0:0:
268,283,186011,2,0,P|229:302|187:335,1,70.2000017138672,2|0,0:0|0:0,0:0:0:0:
84,379,186311,2,0,P|99:347|119:319,1,70.2000017138672,2|0,0:0|0:0,0:0:0:0:
270,182,186611,5,0,0:0:0:0:
273,195,186761,1,0,0:0:0:0:
283,185,186911,1,0,0:0:0:0:
299,99,187211,1,0,0:0:0:0:
475,7,187511,6,0,P|489:55|514:101,1,70.2000017138672,2|0,0:0|0:0,0:0:0:0:
477,167,187811,2,0,P|449:146|425:121,1,70.2000017138672
320,7,188111,1,2,0:0:0:0:
492,252,188411,6,0,P|470:258|494:256,1,70.2000017138672
397,333,188711,6,0,P|380:316|394:336,1,70.2000017138672,2|0,0:0|0:0,0:0:0:0:
209,381,189011,6,0,P|214:358|204:380,1,70.2000017138672,2|0,0:0|0:0,0:0:0:0:
500,367,189311,6,0,P|508:336|493:366,1,97.50000371933
267,280,189611,6,0,P|298:270|264:274,1,97.50000371933,2|0,0:0|0:0,0:0:0:0:
134,44,189911,6,0,P|156:74|137:40,1,116.999996429443,2|0,0:0|0:0,0:0:0:0:
8,384,190211,6,0,P|46:371|81:368,2,68.9000001051331,4|0|0,0:2|0:0|0:0,0:0:0:0:
0,375,191111,1,2,0:0:0:0:
128,293,191711,6,0,P|106:286|87:275,2,34.4500000525665
132,304,192311,1,0,0:0:0:0:
215,361,192611,1,0,0:0:0:0:
315,364,192911,2,0,B|366:369|339:382|391:385,1,68.9000001051331,2|0,0:0|0:0,0:0:0:0:
309,273,193511,6,0,P|291:278|270:281,2,34.4500000525665
412,292,194111,2,0,P|448:263|465:233,1,68.9000001051331
357,143,194711,2,0,P|369:202|368:224,1,68.9000001051331
454,157,195311,1,0,0:0:0:0:
278,190,195611,5,2,0:0:0:0:
269,204,195911,2,0,P|253:194|227:186,1,34.4500000525665
171,232,196211,2,0,P|162:215|143:195,1,34.4500000525665
76,176,196511,2,0,P|31:167|0:147,2,68.9000001051331
109,82,197411,6,0,P|127:63|106:79,1,70.2000017138672,2|0,0:0|0:0,0:0:0:0:
0,123,198311,6,0,B|130:141|329:69|191:77|376:-7|509:0,1,506.025012354126
394,42,199811,6,0,P|381:42|370:35,1,26.3250006427002,2|0,0:0|0:0,0:0:0:0:
166,3,200111,6,0,P|318:14|351:162,1,326.300001991577,4|0,1:0|0:0,0:0:0:0:
299,221,200561,1,0,3:0:0:0:
158,324,200711,2,0,P|77:295|-5:274,1,163.150000995789,0|0,3:0|0:0,0:0:0:0:
53,61,201011,2,0,P|131:88|211:108,1,163.150000995789,0|0,1:0|0:0,0:0:0:0:
359,318,201311,2,0,P|308:378|229:337,1,163.150000995789,2|0,3:0|0:0,0:0:0:0:
108,208,201611,5,0,3:0:0:0:
105,193,201761,1,0,3:0:0:0:
0,266,201911,2,0,P|214:218|380:191,1,326.300001991577,0|0,1:0|0:0,0:0:0:0:
408,257,202361,1,0,3:0:0:0:
327,115,202511,1,2,3:0:0:0:
330,100,202661,1,0,3:0:0:0:
483,16,202811,2,0,B|519:86|475:170|431:204|351:174|330:96|373:56|452:43,1,326.300001991577,0|0,1:0|0:0,0:0:0:0:
339,6,203261,5,0,3:0:0:0:
261,17,203411,2,0,P|294:10|328:0,1,69.5499978775025,2|0,3:2|0:0,0:0:0:0:
508,217,203711,6,0,P|419:200|319:189,1,152.74999766922,4|0,1:0|0:0,0:0:0:0:
135,177,204011,1,0,3:0:0:0:
132,164,204161,1,0,3:0:0:0:
177,31,204311,1,2,3:0:0:0:
148,166,204461,1,0,3:0:0:0:
181,14,204611,2,0,P|47:25|28:176,1,305.49999533844,4|0,1:0|0:0,0:0:0:0:
66,238,205061,1,0,3:0:0:0:
248,206,205211,6,0,P|224:194|150:270,1,152.74999766922,2|0,3:2|0:0,0:0:0:0:
32,376,205511,2,0,P|75:363|210:354,1,152.74999766922,4|0,1:0|0:0,0:0:0:0:
338,232,205811,2,0,P|381:245|516:254,1,152.74999766922,2|0,3:0|0:0,0:0:0:0:
288,384,206111,1,0,3:0:0:0:
272,309,206261,1,0,3:0:0:0:
456,161,206411,2,0,B|493:217|481:314|376:344|338:296|325:219|419:199,1,305.49999533844,4|0,1:0|0:0,0:0:0:0:
467,292,206861,5,0,3:0:0:0:
494,367,207011,2,0,P|485:332|475:278,1,69.5499978775025,2|0,3:2|0:0,0:0:0:0:
216,151,207311,6,0,P|227:75|234:-31,1,152.74999766922,0|0,1:0|0:0,0:0:0:0:
432,201,207611,2,0,P|421:125|414:19,1,152.74999766922,0|0,1:0|0:0,0:0:0:0:
343,261,207911,1,2,3:0:0:0:
322,183,208061,1,2,3:0:0:0:
189,343,208211,2,0,P|109:334|118:221,1,152.74999766922,0|0,1:0|0:0,0:0:0:0:
138,199,208511,2,0,P|218:208|209:321,1,152.74999766922,0|0,1:0|0:0,0:0:0:0:
69,376,208811,6,0,P|81:360|71:380,1,69.5499978775025,2|0,3:0|0:0,0:0:0:0:
0,82,209111,6,0,P|24:114|5:72,1,149.500002851486,0|0,1:0|0:0,0:0:0:0:
186,137,209411,5,2,3:0:0:0:
192,111,209561,1,0,3:0:0:0:
353,168,209711,1,2,3:0:0:0:
325,43,209861,1,0,3:0:0:0:
211,260,210011,6,0,B|314:228|379:309|362:309|418:385|537:339,1,331.499995573998,4|0,1:0|0:0,0:0:0:0:
427,237,210461,1,0,3:0:0:0:
425,245,210536,1,0,3:0:0:0:
421,253,210611,2,0,B|380:263|358:290|363:294|356:342|257:340,1,165.749997786999,4|0,3:2|3:0,0:0:0:0:
14,384,210911,6,0,B|-39:340|-35:253|35:210|97:227|97:227|137:238|180:214|183:163,1,331.499995573998,4|0,1:0|0:0,0:0:0:0:
199,128,211361,1,0,3:0:0:0:
14,36,211511,2,0,P|46:124|67:214,1,165.749997786999,0|0,3:0|0:0,0:0:0:0:
212,353,211811,2,0,P|232:273|261:196,1,165.749997786999,0|0,1:0|0:0,0:0:0:0:
190,30,212111,2,0,P|175:-19|185:33,1,165.749997786999,2|0,3:0|0:0,0:0:0:0:
19,129,212411,5,0,3:0:0:0:
15,144,212561,1,0,3:0:0:0:
85,226,212711,2,0,P|245:178|411:139,1,331.499995573998,0|0,1:0|0:0,0:0:0:0:
504,207,213161,1,0,3:0:0:0:
333,122,213311,1,2,3:0:0:0:
329,107,213461,1,0,3:0:0:0:
506,0,213611,2,0,B|516:112|440:144|443:129|368:182|380:294,1,331.499995573998,0|0,1:0|0:0,0:0:0:0:
297,354,214061,5,0,3:0:0:0:
223,384,214211,2,0,P|258:371|289:365,1,69.5499978775025,2|0,3:2|0:0,0:0:0:0:
512,273,214511,6,0,P|380:251|241:224,1,272.999991668701,4|0,1:0|0:0,0:0:0:0:
192,284,214961,1,0,3:0:0:0:
69,115,215111,2,0,P|129:107|178:202,1,149.500002851486,2|0,3:0|0:0,0:0:0:0:
260,70,215411,2,0,P|122:96|122:236,1,299.000005702973,4|0,1:0|0:0,0:0:0:0:
71,346,215861,5,0,3:0:0:0:
5,379,216011,2,0,P|21:361|72:359,1,69.3333333333333,2|0,3:2|0:0,0:0:0:0:
237,211,216311,6,0,B|315:193|351:254|344:255|368:327|470:318,1,272.999991668701,4|0,1:0|0:0,0:0:0:0:
512,384,216761,1,0,3:0:0:0:
394,257,216911,2,0,P|315:284|242:321,1,152.74999766922,2|0,3:0|0:0,0:0:0:0:
109,147,217211,2,0,P|259:95|397:25,1,305.49999533844,4|0,1:0|0:0,0:0:0:0:
500,186,217661,5,0,0:0:0:0:
341,94,217811,1,0,3:0:0:0:
335,82,217961,1,0,3:0:0:0:
509,5,218111,6,0,P|491:53|462:171,1,152.74999766922,0|0,1:0|0:0,0:0:0:0:
264,131,218411,2,0,P|282:179|311:297,1,152.74999766922,0|0,1:0|0:0,0:0:0:0:
480,366,218711,5,0,3:0:0:0:
499,288,218861,1,0,3:0:0:0:
329,362,219011,6,0,P|229:347|230:283,1,152.74999766922,0|0,1:0|0:0,0:0:0:0:
22,238,219311,2,0,P|-15:143|40:112,1,152.74999766922,0|0,1:0|0:0,0:0:0:0:
173,235,219611,5,0,3:0:0:0:
152,384,219761,1,0,3:0:0:0:
91,170,219911,6,0,P|260:138|460:97,1,344.500014455796,4|0,1:0|0:0,0:0:0:0:
508,87,220360,1,0,3:0:0:0:
337,150,220511,2,0,P|335:68|421:25,1,172.250007227898,2|0,3:0|0:0,0:0:0:0:
479,242,220811,2,0,P|307:254|229:98,1,363.999988891602,4|0,1:0|0:0,0:0:0:0:
12,115,221261,5,0,3:0:0:0:
26,104,221336,1,0,3:0:0:0:
30,86,221411,1,4,3:2:0:0:
114,170,221561,1,0,3:0:0:0:
202,0,221711,6,0,B|153:-14|99:5|100:52|116:73|166:67|157:10,1,181.999994445801,4|0,1:0|0:0,0:0:0:0:
22,235,222011,1,0,3:0:0:0:
115,186,222161,1,0,3:0:0:0:
216,208,222311,2,0,P|190:286|173:394,1,181.999994445801,2|0,3:0|0:0,0:0:0:0:
2,337,222611,2,0,P|215:278|358:207,1,363.999988891602,0|0,1:0|0:0,0:0:0:0:
512,314,223061,5,0,0:0:0:0:
509,330,223211,1,2,3:0:0:0:
354,223,223361,1,0,3:0:0:0:
388,384,223511,2,0,B|394:322|432:269|428:297|465:267|464:202,1,181.999994445801,0|0,1:0|0:0,0:0:0:0:
324,79,223811,5,0,3:0:0:0:
321,63,223961,1,0,3:0:0:0:
475,175,224111,1,2,3:0:0:0:
509,14,224261,1,0,3:0:0:0:
372,216,224411,2,0,B|200:118|1:113|1:113|87:101|164:60,1,545.999983337403,0|0,1:0|0:0,0:0:0:0:
206,184,225011,5,0,3:0:0:0:
244,19,225161,1,0,3:0:0:0:
202,197,225311,2,0,P|99:223|5:262,1,155.999995239258,4|0,1:0|0:0,0:0:0:0:
319,360,225611,2,0,P|216:331|115:317,1,155.999995239258,0|0,3:0|0:0,0:0:0:0:
98,361,225911,5,0,3:0:0:0:
249,303,226061,1,0,3:0:0:0:
325,277,226211,2,0,P|371:252|365:159,1,130,4|0,1:0|0:0,0:0:0:0:
273,129,226511,2,0,P|227:154|233:247,1,130,0|0,3:0|0:0,0:0:0:0:
420,331,226811,6,0,B|496:337|493:399|445:400|447:339,1,111.15000347683,0|0,1:0|0:0,0:0:0:0:
348,215,227111,2,0,B|424:209|421:147|373:146|375:207,1,111.15000347683,0|0,1:0|0:0,0:0:0:0:
473,265,227411,1,0,3:0:0:0:
477,251,227561,1,0,3:0:0:0:
505,141,227711,1,2,3:0:0:0:
509,127,227861,1,0,3:0:0:0:
457,64,228011,2,0,P|336:49|172:19,1,263.250001004219,4|0,1:0|0:0,0:0:0:0:
155,92,228611,5,0,3:0:0:0:
233,73,228761,1,0,3:0:0:0:
256,368,228911,5,4,1:0:0:0:
248,352,229211,1,0,0:0:0:0:
235,364,229511,1,0,0:0:0:0:
136,264,229811,5,2,0:0:0:0:
376,303,230111,1,2,0:0:0:0:
258,127,230411,5,0,0:0:0:0:
256,16,230711,5,2,0:0:0:0:
264,32,231011,1,2,0:0:0:0:
277,20,231311,1,0,0:0:0:0:
466,124,231611,6,0,P|255:152|47:192,1,424.125003559399,2|0,0:0|0:0,0:0:0:0:
0,103,232811,5,2,0:0:0:0:
48,109,232961,1,2,0:0:0:0:
112,153,233111,1,2,0:0:0:0:
133,235,233261,1,2,0:0:0:0:
322,178,233411,6,0,P|296:257|285:320,1,110.50000210762,4|0,1:0|0:0,0:0:0:0:
173,384,233711,1,2,3:0:0:0:
106,339,233861,1,0,3:0:0:0:
28,360,234011,2,0,P|12:271|-6:220,1,110.50000210762,0|0,1:0|0:0,0:0:0:0:
148,29,234311,6,0,P|134:-3|153:28,1,110.50000210762,4|0,1:0|0:0,0:0:0:0:
287,191,234611,2,0,P|230:177|142:167,1,110.50000210762,2|0,3:0|0:0,0:0:0:0:
0,126,234911,2,0,P|64:118|127:102,1,110.50000210762,2|0,3:0|0:0,0:0:0:0:
351,49,235211,6,0,P|365:17|345:48,1,110.50000210762,4|0,1:0|0:0,0:0:0:0:
508,130,235511,1,0,3:0:0:0:
511,117,235661,1,0,3:0:0:0:
381,226,235811,1,2,3:0:0:0:
353,63,235961,1,0,3:0:0:0:
456,254,236111,2,0,B|359:235|310:315|324:320|247:392|134:356,1,331.500006322861,4|0,1:0|0:0,0:0:0:0:
97,283,236711,6,0,P|75:256|42:251,1,69.5499978775025,2|0,3:2|0:0,0:0:0:0:
0,357,237011,6,0,P|12:290|93:269,1,110.50000210762,4|0,1:0|0:0,0:0:0:0:
235,180,237311,1,2,3:0:0:0:
301,226,237461,1,0,3:0:0:0:
381,226,237611,2,0,P|411:203|378:223,1,110.50000210762,0|0,1:0|0:0,0:0:0:0:
197,376,237911,6,0,P|218:312|224:255,1,110.50000210762,4|0,1:0|0:0,0:0:0:0:
330,119,238211,2,0,P|300:96|333:116,1,110.50000210762,2|0,3:0|0:0,0:0:0:0:
512,207,238511,2,0,B|508:169|490:147|489:154|465:125|468:84,1,110.50000210762,2|0,3:0|0:0,0:0:0:0:
204,102,238811,6,0,B|208:64|226:42|227:49|251:20|248:-21,1,110.50000210762,4|0,1:0|0:0,0:0:0:0:
354,203,239111,1,0,3:0:0:0:
323,208,239261,1,0,3:0:0:0:
245,285,239411,1,2,3:0:0:0:
411,310,239561,1,0,3:0:0:0:
207,356,239711,6,0,P|196:302|170:237,1,110.50000210762,4|0,1:0|0:0,0:0:0:0:
22,208,240011,1,2,3:2:0:0:
98,189,240161,1,2,3:2:0:0:
182,132,240311,1,2,3:0:0:0:
215,24,240461,1,2,3:2:0:0:
284,197,240611,6,0,P|217:176|-47:110,1,279.500004264832,4|0,1:0|0:0,0:0:0:0:
0,45,241061,1,0,3:0:0:0:
182,132,241211,2,0,P|259:125|277:57,1,139.750002132416,2|0,3:0|0:0,0:0:0:0:
459,69,241511,2,0,B|516:63|513:-53|404:-41|346:14|371:136,1,279.500004264832,4|0,1:0|0:0,0:0:0:0:
329,174,241961,1,0,3:0:0:0:
420,293,242111,2,0,P|428:219|444:149,1,139.750002132416,2|0,3:0|0:0,0:0:0:0:
226,125,242411,6,0,P|218:199|202:269,1,139.750002132416,4|0,1:0|0:0,0:0:0:0:
343,384,242711,2,0,P|341:318|272:288,1,139.750002132416,2|0,3:0|0:0,0:0:0:0:
138,179,243011,1,0,3:0:0:0:
67,217,243161,1,0,3:0:0:0:
2,169,243311,2,0,P|-9:124|7:168,1,139.750002132416,4|0,1:0|0:0,0:0:0:0:
210,19,243611,2,0,P|258:56|235:127,1,139.750002132416,2|0,3:0|0:0,0:0:0:0:
158,146,243911,2,0,P|109:108|132:37,1,139.750002132416,2|0,3:0|0:0,0:0:0:0:
355,54,244211,6,0,P|425:74|521:94,1,139.750002132416,4|0,1:0|0:0,0:0:0:0:
220,211,244511,2,0,P|290:191|386:171,1,139.750002132416,2|0,3:0|0:0,0:0:0:0:
502,83,244811,2,0,B|503:120|473:146|473:141|443:178|452:239,1,139.750002132416,0|0,1:0|0:0,0:0:0:0:
343,364,245111,6,0,B|347:281|291:239|286:255|224:219|236:104,1,279.500004264832,4|0,1:0|0:0,0:0:0:0:
248,39,245561,1,0,3:0:0:0:
354,176,245711,2,0,P|286:191|216:213,1,139.750002132416,2|0,3:0|0:0,0:0:0:0:
112,14,246011,6,0,B|122:103|60:147|55:131|0:173|4:261,1,279.500004264832,4|0,1:0|0:0,0:0:0:0:
14,339,246461,1,0,3:0:0:0:
52,196,246611,2,0,P|99:198|115:315,1,139.750002132416,2|0,3:0|0:0,0:0:0:0:
339,384,246911,6,0,P|261:339|272:251,1,162.5,4|0,1:0|0:0,0:0:0:0:
214,196,247211,6,0,P|208:178|220:198,1,81.25,2|0,3:2|0:0,0:0:0:0:
263,136,247361,6,0,P|261:112|269:139,1,94.2500028762818,2|0,3:2|0:0,0:0:0:0:
361,78,247511,6,0,P|364:56|366:84,1,107.250001022816,2|0,3:2|0:0,0:0:0:0:
476,56,247661,6,0,P|488:31|480:64,1,120.249999541283,2|0,3:2|0:0,0:0:0:0:
286,30,247811,6,0,P|215:21|147:6,1,130,4|0,1:0|0:0,0:0:0:0:
0,132,248111,1,2,3:0:0:0:
35,205,248261,1,0,3:0:0:0:
19,284,248411,2,0,P|83:271|147:263,1,130,0|0,1:0|0:0,0:0:0:0:
323,169,248711,6,0,B|397:171|403:246|351:250|349:187,1,130,4|0,1:0|0:0,0:0:0:0:
503,224,249011,2,0,B|499:265|469:283|466:275|440:319|441:371,1,130,2|0,3:0|0:0,0:0:0:0:
249,261,249311,2,0,B|249:229|229:204|226:212|196:194|190:142,1,130,2|0,3:0|0:0,0:0:0:0:
366,51,249611,6,0,B|440:49|446:-26|394:-30|392:33,1,130,4|0,1:0|0:0,0:0:0:0:
512,126,249911,1,0,3:0:0:0:
508,140,250061,1,0,3:0:0:0:
353,53,250211,1,2,3:0:0:0:
380,221,250361,1,0,3:0:0:0:
337,295,250511,6,0,P|282:305|218:331,1,104,4|0,1:0|0:0,0:0:0:0:
163,352,250811,2,0,B|140:347|118:355|104:371|104:371|100:348|83:331|63:325,1,130,2|0,3:2|0:0,0:0:0:0:
99,41,251111,2,0,B|76:45|54:37|40:21|40:21|36:44|19:61|0:67,1,130,2|0,3:2|0:0,0:0:0:0:
70,124,251411,6,0,P|154:136|244:158,1,130,4|0,1:0|0:0,0:0:0:0:
411,193,251711,1,2,3:0:0:0:
488,216,251861,1,0,3:0:0:0:
468,138,252011,2,0,P|449:68|441:-12,1,130,0|0,1:0|0:0,0:0:0:0:
300,148,252311,6,0,P|319:218|327:298,1,130,4|0,1:0|0:0,0:0:0:0:
458,330,252611,2,0,B|496:323|539:336|552:397|481:389|490:336,1,130,2|0,3:2|0:0,0:0:0:0:
326,274,252911,2,0,B|364:281|407:268|420:207|349:215|358:268,1,130,2|0,3:2|0:0,0:0:0:0:
152,384,253211,6,0,B|117:384|92:363|98:360|77:330|36:334,1,130,4|0,1:0|0:0,0:0:0:0:
16,212,253511,1,0,3:0:0:0:
13,198,253661,1,0,3:0:0:0:
164,289,253811,1,2,3:0:0:0:
192,125,253961,1,0,3:0:0:0:
231,342,254111,6,0,P|301:320|371:307,1,130,4|0,1:0|0:0,0:0:0:0:
512,141,254411,1,2,3:2:0:0:
421,131,254561,1,2,3:2:0:0:
324,103,254711,1,2,3:0:0:0:
223,53,254861,1,2,3:2:0:0:
398,35,255011,6,0,P|362:182|207:199,1,311.999990478516,4|0,1:0|0:0,0:0:0:0:
149,172,255461,1,0,3:0:0:0:
324,103,255611,2,0,P|305:189|298:273,1,155.999995239258,2|0,3:0|0:0,0:0:0:0:
160,384,255911,2,0,P|139:266|87:75,1,311.999990478516,4|0,1:0|0:0,0:0:0:0:
65,4,256361,1,0,3:0:0:0:
287,16,256511,2,0,P|262:100|183:82,1,155.999995239258,2|0,3:0|0:0,0:0:0:0:
162,289,256811,6,0,P|137:335|156:287,1,155.999995239258,4|0,1:0|0:0,0:0:0:0:
0,217,257111,2,0,P|104:199|180:176,1,155.999995239258,2|0,3:0|0:0,0:0:0:0:
377,241,257411,1,0,3:0:0:0:
380,321,257561,1,0,3:0:0:0:
330,384,257711,2,0,P|254:364|177:352,1,155.999995239258,4|0,1:0|0:0,0:0:0:0:
85,235,258011,2,0,P|80:160|153:110,1,155.999995239258,2|0,3:2|0:0,0:0:0:0:
255,152,258311,2,0,P|260:227|187:277,1,155.999995239258,2|0,3:2|0:0,0:0:0:0:
32,161,258611,6,0,P|12:113|36:159,1,155.999995239258,4|0,1:0|0:0,0:0:0:0:
245,17,258911,2,0,P|225:65|249:19,1,155.999995239258,2|0,3:0|0:0,0:0:0:0:
318,275,259211,2,0,P|241:258|164:249,1,155.999995239258,2|0,3:0|0:0,0:0:0:0:
112,56,259511,2,0,P|253:40|426:15,1,311.999990478516,4|0,1:0|0:0,0:0:0:0:
499,0,259961,1,0,3:0:0:0:
408,177,260111,2,0,P|331:160|254:151,1,155.999995239258,2|0,3:0|0:0,0:0:0:0:
485,101,260411,6,0,P|505:206|338:289,1,311.999990478516,4|0,1:0|0:0,0:0:0:0:
270,268,260861,1,0,3:0:0:0:
124,221,261011,2,0,P|45:226|9:306,1,155.999995239258,2|0,3:0|0:0,0:0:0:0:
268,369,261312,6,0,B|274:300|239:279|234:283|201:260|219:192,1,180.050005906792,4|0,1:0|0:0,0:0:0:0:
465,0,261611,6,0,B|475:56|447:80|442:76|407:97|413:166,1,180.050005906792,4|0,1:0|0:0,0:0:0:0:
