osu file format v14

[General]
AudioFilename: audio.mp3
AudioLeadIn: 0
PreviewTime: 56281
Countdown: 0
SampleSet: Soft
StackLeniency: 0.7
Mode: 3
LetterboxInBreaks: 0
SpecialStyle: 0
WidescreenStoryboard: 0

[Editor]
DistanceSpacing: 0.8
BeatDivisor: 4
GridSize: 16
TimelineZoom: 2

[Metadata]
Title:You're So Warm
TitleUnicode:You're So Warm
Artist:Stellabee
ArtistUnicode:すてらべえ
Creator:Civilization
Version:Languish (Old)
Source:
Tags:
BeatmapID:1962239
BeatmapSetID:939432

[Difficulty]
HPDrainRate:7.2
CircleSize:4
OverallDifficulty:7.5
ApproachRate:5
SliderMultiplier:1.4
SliderTickRate:1

[Events]
//Background and Video events
0,0,"1.png",0,0
//Break Periods
//Storyboard Layer 0 (Background)
//Storyboard Layer 1 (Fail)
//Storyboard Layer 2 (Pass)
//Storyboard Layer 3 (Foreground)
//Storyboard Sound Samples

[TimingPoints]
21637,272.727272727273,4,2,0,1,1,0
22182,-10,4,2,0,1,0,0
22245,-133.333333333333,4,2,0,1,0,0
22637,-117.647058823529,4,2,0,1,0,0
22682,-105.263157894737,4,2,0,1,0,0
22718,272.727272727273,4,2,0,1,1,0
22736,-100,4,2,0,1,0,0

[HitObjects]
64,192,21637,128,0,21705:0:0:0:0:
192,192,21654,128,0,21722:0:0:0:0:
320,192,21671,128,0,21739:0:0:0:0:
448,192,21688,128,0,21756:0:0:0:0:
64,192,21909,128,0,22182:0:0:0:0:
320,192,21926,128,0,22182:0:0:0:0:
192,192,21943,128,0,22182:0:0:0:0:
448,192,21960,128,0,22182:0:0:0:0:
64,192,22718,1,0,0:0:0:0:
448,192,22718,1,0,0:0:0:0:
320,192,22718,1,0,0:0:0:0:
192,192,22854,1,0,0:0:0:0:
64,192,22990,1,0,0:0:0:0:
64,192,23127,1,0,0:0:0:0:
448,192,23127,1,0,0:0:0:0:
192,192,23127,1,0,0:0:0:0:
320,192,23263,1,0,0:0:0:0:
448,192,23399,1,0,0:0:0:0:
192,192,23536,1,0,0:0:0:0:
448,192,23604,1,0,0:0:0:0:
192,192,23672,1,0,0:0:0:0:
320,192,23740,1,0,0:0:0:0:
192,192,23808,1,0,0:0:0:0:
448,192,23808,1,0,0:0:0:0:
64,192,23808,1,0,0:0:0:0:
320,192,23945,1,0,0:0:0:0:
192,192,24013,1,0,0:0:0:0:
64,192,24081,1,0,0:0:0:0:
320,192,24081,1,0,0:0:0:0:
448,192,24081,1,0,0:0:0:0:
320,192,24218,1,0,0:0:0:0:
448,192,24218,1,0,0:0:0:0:
64,192,24218,1,0,0:0:0:0:
448,192,24354,1,0,0:0:0:0:
192,192,24422,1,0,0:0:0:0:
320,192,24490,1,0,0:0:0:0:
64,192,24558,1,0,0:0:0:0:
448,192,24627,1,0,0:0:0:0:
320,192,24661,1,0,0:0:0:0:
64,192,24763,1,0,0:0:0:0:
192,192,24797,1,0,0:0:0:0:
448,192,24899,1,0,0:0:0:0:
64,192,24899,1,0,0:0:0:0:
320,192,24899,1,0,0:0:0:0:
192,192,25036,1,0,0:0:0:0:
64,192,25172,1,0,0:0:0:0:
192,192,25308,1,0,0:0:0:0:
64,192,25308,1,0,0:0:0:0:
448,192,25308,128,0,25581:0:0:0:0:
64,192,25581,1,0,0:0:0:0:
192,192,25581,1,0,0:0:0:0:
320,192,25649,1,0,0:0:0:0:
64,192,25718,1,0,0:0:0:0:
448,192,25786,1,0,0:0:0:0:
192,192,25854,128,0,25888:0:0:0:0:
320,192,25922,128,0,25956:0:0:0:0:
64,192,25990,1,0,0:0:0:0:
192,192,25990,1,0,0:0:0:0:
448,192,25990,1,0,0:0:0:0:
320,192,26127,1,0,0:0:0:0:
448,192,26263,128,0,26468:0:0:0:0:
192,192,26331,128,0,26536:0:0:0:0:
448,192,26536,1,0,0:0:0:0:
192,192,26604,1,0,0:0:0:0:
64,192,26672,1,0,0:0:0:0:
320,192,26672,1,0,0:0:0:0:
448,192,26672,1,0,0:0:0:0:
64,192,26808,128,0,26877:0:0:0:0:
64,192,27013,128,0,27081:0:0:0:0:
320,192,27081,1,0,0:0:0:0:
448,192,27081,1,0,0:0:0:0:
192,192,27149,1,0,0:0:0:0:
64,192,27149,1,0,0:0:0:0:
448,192,27218,1,0,0:0:0:0:
320,192,27218,1,0,0:0:0:0:
448,192,27354,1,0,0:0:0:0:
64,192,27354,1,0,0:0:0:0:
320,192,27354,1,0,0:0:0:0:
64,192,27490,1,0,0:0:0:0:
192,192,27490,1,0,0:0:0:0:
320,192,27490,1,0,0:0:0:0:
192,192,27627,1,0,0:0:0:0:
64,192,27627,128,0,27899:0:0:0:0:
320,192,27899,1,0,0:0:0:0:
192,192,27968,1,0,0:0:0:0:
448,192,28036,1,0,0:0:0:0:
320,192,28172,1,0,0:0:0:0:
448,192,28172,1,0,0:0:0:0:
64,192,28172,1,0,0:0:0:0:
320,192,28308,1,0,0:0:0:0:
448,192,28445,1,0,0:0:0:0:
320,192,28581,1,0,0:0:0:0:
448,192,28581,1,0,0:0:0:0:
64,192,28581,1,0,0:0:0:0:
192,192,28718,1,0,0:0:0:0:
64,192,28718,1,0,0:0:0:0:
320,192,28786,1,0,0:0:0:0:
448,192,28786,1,0,0:0:0:0:
192,192,28854,1,0,0:0:0:0:
64,192,28854,1,0,0:0:0:0:
448,192,28990,1,0,0:0:0:0:
64,192,28990,1,0,0:0:0:0:
192,192,28990,1,0,0:0:0:0:
448,192,29127,1,0,0:0:0:0:
320,192,29263,1,0,0:0:0:0:
64,192,29263,1,0,0:0:0:0:
192,192,29263,1,0,0:0:0:0:
320,192,29399,1,0,0:0:0:0:
448,192,29399,1,0,0:0:0:0:
64,192,29399,1,0,0:0:0:0:
192,192,29536,1,0,0:0:0:0:
320,192,29536,1,0,0:0:0:0:
448,192,29536,1,0,0:0:0:0:
64,192,29672,1,0,0:0:0:0:
448,192,29808,1,0,0:0:0:0:
192,192,29877,1,0,0:0:0:0:
448,192,29945,1,0,0:0:0:0:
64,192,29979,1,0,0:0:0:0:
320,192,30081,1,0,0:0:0:0:
64,192,30149,1,0,0:0:0:0:
448,192,30218,1,0,0:0:0:0:
320,192,30235,1,0,0:0:0:0:
192,192,30252,1,0,0:0:0:0:
320,192,30354,1,0,0:0:0:0:
64,192,30354,1,0,0:0:0:0:
448,192,30354,1,0,0:0:0:0:
192,192,30490,1,0,0:0:0:0:
448,192,30627,1,0,0:0:0:0:
320,192,30695,1,0,0:0:0:0:
192,192,30763,1,0,0:0:0:0:
64,192,30831,1,0,0:0:0:0:
448,192,30899,128,0,31036:0:0:0:0:
192,192,31036,128,0,31172:0:0:0:0:
448,192,31172,128,0,31240:0:0:0:0:
320,192,31240,128,0,31308:0:0:0:0:
192,192,31308,128,0,31377:0:0:0:0:
64,192,31377,128,0,31445:0:0:0:0:
448,192,31445,1,0,0:0:0:0:
320,192,31445,1,0,0:0:0:0:
192,192,31445,1,0,0:0:0:0:
64,192,31581,1,0,0:0:0:0:
448,192,31683,1,0,0:0:0:0:
192,192,31854,1,0,0:0:0:0:
64,192,31854,1,0,0:0:0:0:
448,192,31854,1,0,0:0:0:0:
320,192,31990,1,0,0:0:0:0:
64,192,31990,1,0,0:0:0:0:
192,192,31990,1,0,0:0:0:0:
192,192,32127,1,0,0:0:0:0:
448,192,32195,1,0,0:0:0:0:
64,192,32246,1,0,0:0:0:0:
192,192,32280,1,0,0:0:0:0:
320,192,32297,128,0,32536:0:0:0:0:
448,192,32536,1,0,0:0:0:0:
192,192,32536,1,0,0:0:0:0:
64,192,32536,1,0,0:0:0:0:
320,192,32672,1,0,0:0:0:0:
448,192,32808,1,0,0:0:0:0:
320,192,32808,1,0,0:0:0:0:
64,192,32808,128,0,33081:0:0:0:0:
448,192,33081,1,0,0:0:0:0:
192,192,33081,1,0,0:0:0:0:
192,192,33218,1,0,0:0:0:0:
448,192,33286,1,0,0:0:0:0:
64,192,33354,1,0,0:0:0:0:
448,192,33490,1,0,0:0:0:0:
320,192,33507,1,0,0:0:0:0:
192,192,33524,1,0,0:0:0:0:
320,192,33627,1,0,0:0:0:0:
448,192,33627,1,0,0:0:0:0:
64,192,33627,1,0,0:0:0:0:
192,192,33763,1,0,0:0:0:0:
448,192,33899,1,0,0:0:0:0:
320,192,34036,1,0,0:0:0:0:
448,192,34036,1,0,0:0:0:0:
64,192,34036,1,0,0:0:0:0:
192,192,34172,1,0,0:0:0:0:
448,192,34240,1,0,0:0:0:0:
64,192,34308,1,0,0:0:0:0:
64,192,34445,1,0,0:0:0:0:
192,192,34513,1,0,0:0:0:0:
320,192,34581,1,0,0:0:0:0:
448,192,34649,1,0,0:0:0:0:
64,192,34718,1,0,0:0:0:0:
192,192,34718,128,0,34786:0:0:0:0:
320,192,34740,128,0,34831:0:0:0:0:
448,192,34990,1,0,0:0:0:0:
192,192,34990,1,0,0:0:0:0:
448,192,35127,1,0,0:0:0:0:
64,192,35195,1,0,0:0:0:0:
320,192,35263,1,0,0:0:0:0:
192,192,35331,1,0,0:0:0:0:
64,192,35399,1,0,0:0:0:0:
320,192,35399,1,0,0:0:0:0:
448,192,35399,1,0,0:0:0:0:
192,192,35536,1,0,0:0:0:0:
64,192,35536,1,0,0:0:0:0:
320,192,35740,1,0,0:0:0:0:
448,192,35808,1,0,0:0:0:0:
192,192,35808,1,0,0:0:0:0:
64,192,35808,1,0,0:0:0:0:
64,192,35945,1,0,0:0:0:0:
320,192,35945,1,0,0:0:0:0:
192,192,35945,1,0,0:0:0:0:
448,192,36081,1,0,0:0:0:0:
192,192,36081,1,0,0:0:0:0:
320,192,36081,1,0,0:0:0:0:
192,192,36218,1,0,0:0:0:0:
320,192,36286,1,0,0:0:0:0:
192,192,36354,128,0,36422:0:0:0:0:
448,192,36354,1,0,0:0:0:0:
64,192,36377,128,0,36468:0:0:0:0:
320,192,36627,1,0,0:0:0:0:
448,192,36763,1,0,0:0:0:0:
64,192,36763,1,0,0:0:0:0:
192,192,36831,1,0,0:0:0:0:
320,192,36899,1,0,0:0:0:0:
448,192,36899,1,0,0:0:0:0:
64,192,36899,1,0,0:0:0:0:
192,192,37172,1,0,0:0:0:0:
64,192,37172,1,0,0:0:0:0:
320,192,37240,1,0,0:0:0:0:
64,192,37308,1,0,0:0:0:0:
192,192,37308,1,0,0:0:0:0:
448,192,37308,1,0,0:0:0:0:
192,192,37581,1,0,0:0:0:0:
64,192,37581,1,0,0:0:0:0:
320,192,37649,1,0,0:0:0:0:
448,192,37718,1,0,0:0:0:0:
192,192,37718,1,0,0:0:0:0:
64,192,37718,1,0,0:0:0:0:
448,192,37990,1,0,0:0:0:0:
192,192,37990,1,0,0:0:0:0:
64,192,37990,1,0,0:0:0:0:
448,192,38127,1,0,0:0:0:0:
192,192,38127,1,0,0:0:0:0:
64,192,38127,1,0,0:0:0:0:
320,192,38263,1,0,0:0:0:0:
448,192,38263,1,0,0:0:0:0:
64,192,38263,1,0,0:0:0:0:
448,192,38399,1,0,0:0:0:0:
320,192,38399,1,0,0:0:0:0:
64,192,38399,1,0,0:0:0:0:
192,192,38536,1,0,0:0:0:0:
320,192,38536,1,0,0:0:0:0:
448,192,38536,1,0,0:0:0:0:
320,192,38672,1,0,0:0:0:0:
448,192,38672,1,0,0:0:0:0:
448,192,38808,1,0,0:0:0:0:
320,192,38945,1,0,0:0:0:0:
64,192,39081,1,0,0:0:0:0:
448,192,39081,128,0,39354:0:0:0:0:
64,192,39899,1,0,0:0:0:0:
320,192,39968,1,0,0:0:0:0:
192,192,40036,1,0,0:0:0:0:
448,192,40104,1,0,0:0:0:0:
320,192,40172,1,0,0:0:0:0:
192,192,40172,1,0,0:0:0:0:
64,192,40172,1,0,0:0:0:0:
192,192,40308,1,0,0:0:0:0:
448,192,40377,1,0,0:0:0:0:
64,192,40445,1,0,0:0:0:0:
192,192,40581,1,0,0:0:0:0:
64,192,40581,1,0,0:0:0:0:
448,192,40581,1,0,0:0:0:0:
320,192,40718,1,0,0:0:0:0:
64,192,40786,1,0,0:0:0:0:
448,192,40854,1,0,0:0:0:0:
448,192,40990,1,0,0:0:0:0:
64,192,41058,1,0,0:0:0:0:
320,192,41127,1,0,0:0:0:0:
64,192,41195,1,0,0:0:0:0:
320,192,41263,128,0,41331:0:0:0:0:
192,192,41263,1,0,0:0:0:0:
448,192,41286,128,0,41377:0:0:0:0:
320,192,41536,1,0,0:0:0:0:
448,192,41536,1,0,0:0:0:0:
64,192,41536,1,0,0:0:0:0:
64,192,41672,1,0,0:0:0:0:
320,192,41672,1,0,0:0:0:0:
448,192,41672,1,0,0:0:0:0:
320,192,41808,1,0,0:0:0:0:
64,192,41877,1,0,0:0:0:0:
320,192,41945,1,0,0:0:0:0:
192,192,42013,1,0,0:0:0:0:
448,192,42081,1,0,0:0:0:0:
64,192,42081,128,0,42218:0:0:0:0:
320,192,42218,128,0,42354:0:0:0:0:
448,192,42354,1,0,0:0:0:0:
192,192,42354,1,0,0:0:0:0:
64,192,42354,1,0,0:0:0:0:
64,192,42490,1,0,0:0:0:0:
192,192,42490,1,0,0:0:0:0:
448,192,42490,1,0,0:0:0:0:
448,192,42627,1,0,0:0:0:0:
192,192,42763,1,0,0:0:0:0:
64,192,42763,1,0,0:0:0:0:
320,192,42763,1,0,0:0:0:0:
64,192,42899,1,0,0:0:0:0:
192,192,42899,1,0,0:0:0:0:
320,192,42968,1,0,0:0:0:0:
448,192,42968,1,0,0:0:0:0:
64,192,43036,1,0,0:0:0:0:
448,192,43172,1,0,0:0:0:0:
320,192,43189,1,0,0:0:0:0:
192,192,43206,1,0,0:0:0:0:
64,192,43308,1,0,0:0:0:0:
320,192,43377,1,0,0:0:0:0:
192,192,43445,1,0,0:0:0:0:
64,192,43445,1,0,0:0:0:0:
448,192,43445,1,0,0:0:0:0:
320,192,43581,1,0,0:0:0:0:
192,192,43718,128,0,43922:0:0:0:0:
448,192,43752,128,0,43990:0:0:0:0:
192,192,43990,1,0,0:0:0:0:
448,192,44058,1,0,0:0:0:0:
64,192,44127,1,0,0:0:0:0:
192,192,44127,1,0,0:0:0:0:
320,192,44127,1,0,0:0:0:0:
64,192,44263,1,0,0:0:0:0:
448,192,44263,128,0,44331:0:0:0:0:
448,192,44468,128,0,44536:0:0:0:0:
192,192,44536,1,0,0:0:0:0:
64,192,44536,1,0,0:0:0:0:
320,192,44604,1,0,0:0:0:0:
448,192,44604,1,0,0:0:0:0:
192,192,44672,1,0,0:0:0:0:
64,192,44672,1,0,0:0:0:0:
320,192,44808,1,0,0:0:0:0:
448,192,44808,1,0,0:0:0:0:
64,192,44808,1,0,0:0:0:0:
192,192,44945,1,0,0:0:0:0:
320,192,44945,1,0,0:0:0:0:
448,192,44945,1,0,0:0:0:0:
192,192,45081,1,0,0:0:0:0:
64,192,45081,1,0,0:0:0:0:
64,192,45218,1,0,0:0:0:0:
320,192,45286,1,0,0:0:0:0:
192,192,45354,1,0,0:0:0:0:
448,192,45422,1,0,0:0:0:0:
64,192,45490,1,0,0:0:0:0:
448,192,45558,1,0,0:0:0:0:
320,192,45627,1,0,0:0:0:0:
192,192,45627,1,0,0:0:0:0:
64,192,45627,1,0,0:0:0:0:
448,192,45763,1,0,0:0:0:0:
320,192,45899,1,0,0:0:0:0:
320,192,46036,1,0,0:0:0:0:
448,192,46036,1,0,0:0:0:0:
64,192,46036,1,0,0:0:0:0:
320,192,46172,1,0,0:0:0:0:
192,192,46172,1,0,0:0:0:0:
64,192,46172,1,0,0:0:0:0:
192,192,46308,1,0,0:0:0:0:
448,192,46377,1,0,0:0:0:0:
64,192,46445,1,0,0:0:0:0:
192,192,46581,1,0,0:0:0:0:
192,192,46718,1,0,0:0:0:0:
64,192,46718,1,0,0:0:0:0:
448,192,46718,128,0,46990:0:0:0:0:
64,192,46990,1,0,0:0:0:0:
448,192,47127,1,0,0:0:0:0:
192,192,47127,1,0,0:0:0:0:
64,192,47127,1,0,0:0:0:0:
320,192,47263,1,0,0:0:0:0:
64,192,47399,1,0,0:0:0:0:
448,192,47536,1,0,0:0:0:0:
64,192,47536,1,0,0:0:0:0:
192,192,47536,1,0,0:0:0:0:
192,192,47672,1,0,0:0:0:0:
448,192,47672,1,0,0:0:0:0:
320,192,47672,1,0,0:0:0:0:
64,192,47808,1,0,0:0:0:0:
448,192,47808,1,0,0:0:0:0:
192,192,47825,1,0,0:0:0:0:
320,192,47843,128,0,48081:0:0:0:0:
448,192,48081,1,0,0:0:0:0:
320,192,48149,1,0,0:0:0:0:
192,192,48286,128,0,48354:0:0:0:0:
448,192,48354,128,0,48627:0:0:0:0:
64,192,48627,1,0,0:0:0:0:
192,192,48695,1,0,0:0:0:0:
320,192,48763,1,0,0:0:0:0:
448,192,48831,1,0,0:0:0:0:
320,192,48899,1,0,0:0:0:0:
192,192,48899,1,0,0:0:0:0:
64,192,48899,1,0,0:0:0:0:
192,192,49036,1,0,0:0:0:0:
64,192,49172,1,0,0:0:0:0:
192,192,49308,1,0,0:0:0:0:
64,192,49308,1,0,0:0:0:0:
448,192,49308,1,0,0:0:0:0:
320,192,49445,1,0,0:0:0:0:
64,192,49513,1,0,0:0:0:0:
448,192,49581,1,0,0:0:0:0:
448,192,49718,128,0,49786:0:0:0:0:
192,192,49752,128,0,49990:0:0:0:0:
320,192,49990,1,0,0:0:0:0:
448,192,49990,1,0,0:0:0:0:
64,192,49990,1,0,0:0:0:0:
320,192,50127,1,0,0:0:0:0:
448,192,50263,1,0,0:0:0:0:
64,192,50263,1,0,0:0:0:0:
192,192,50263,1,0,0:0:0:0:
192,192,50399,1,0,0:0:0:0:
448,192,50468,1,0,0:0:0:0:
64,192,50536,1,0,0:0:0:0:
192,192,50570,1,0,0:0:0:0:
448,192,50672,1,0,0:0:0:0:
320,192,50706,1,0,0:0:0:0:
64,192,50808,128,0,50843:0:0:0:0:
64,192,50945,128,0,51013:0:0:0:0:
192,192,51081,1,0,0:0:0:0:
64,192,51081,1,0,0:0:0:0:
448,192,51081,1,0,0:0:0:0:
320,192,51218,1,0,0:0:0:0:
64,192,51286,1,0,0:0:0:0:
320,192,51354,1,0,0:0:0:0:
192,192,51422,1,0,0:0:0:0:
320,192,51490,1,0,0:0:0:0:
448,192,51490,1,0,0:0:0:0:
64,192,51490,1,0,0:0:0:0:
448,192,51627,1,0,0:0:0:0:
320,192,51695,1,0,0:0:0:0:
192,192,51763,1,0,0:0:0:0:
64,192,51831,1,0,0:0:0:0:
320,192,51899,1,0,0:0:0:0:
192,192,51899,1,0,0:0:0:0:
448,192,51899,1,0,0:0:0:0:
192,192,52036,1,0,0:0:0:0:
320,192,52104,1,0,0:0:0:0:
448,192,52172,1,0,0:0:0:0:
64,192,52172,1,0,0:0:0:0:
192,192,52172,1,0,0:0:0:0:
320,192,52308,1,0,0:0:0:0:
448,192,52445,1,0,0:0:0:0:
64,192,52581,128,0,52854:0:0:0:0:
448,192,52615,128,0,52786:0:0:0:0:
192,192,52718,128,0,52854:0:0:0:0:
320,192,52854,1,0,0:0:0:0:
448,192,52854,1,0,0:0:0:0:
192,192,52922,1,0,0:0:0:0:
64,192,52922,1,0,0:0:0:0:
448,192,52990,1,0,0:0:0:0:
320,192,53127,1,0,0:0:0:0:
64,192,53195,1,0,0:0:0:0:
192,192,53263,1,0,0:0:0:0:
448,192,53263,1,0,0:0:0:0:
320,192,53263,1,0,0:0:0:0:
192,192,53399,1,0,0:0:0:0:
64,192,53536,1,0,0:0:0:0:
448,192,53536,1,0,0:0:0:0:
320,192,53536,1,0,0:0:0:0:
320,192,53672,1,0,0:0:0:0:
448,192,53672,1,0,0:0:0:0:
192,192,53672,1,0,0:0:0:0:
320,192,53808,1,0,0:0:0:0:
192,192,53808,1,0,0:0:0:0:
64,192,53808,128,0,54081:0:0:0:0:
448,192,54081,1,0,0:0:0:0:
320,192,54149,1,0,0:0:0:0:
192,192,54218,1,0,0:0:0:0:
64,192,54286,1,0,0:0:0:0:
448,192,54354,1,0,0:0:0:0:
320,192,54354,1,0,0:0:0:0:
192,192,54354,1,0,0:0:0:0:
64,192,54490,1,0,0:0:0:0:
192,192,54627,1,0,0:0:0:0:
64,192,54763,1,0,0:0:0:0:
192,192,54763,1,0,0:0:0:0:
448,192,54763,1,0,0:0:0:0:
448,192,54899,1,0,0:0:0:0:
192,192,54968,1,0,0:0:0:0:
320,192,55036,1,0,0:0:0:0:
64,192,55172,1,0,0:0:0:0:
192,192,55172,1,0,0:0:0:0:
448,192,55172,1,0,0:0:0:0:
320,192,55308,1,0,0:0:0:0:
192,192,55308,1,0,0:0:0:0:
64,192,55308,1,0,0:0:0:0:
320,192,55445,1,0,0:0:0:0:
448,192,55445,1,0,0:0:0:0:
64,192,55445,1,0,0:0:0:0:
64,192,55718,1,0,0:0:0:0:
192,192,55718,1,0,0:0:0:0:
320,192,55718,1,0,0:0:0:0:
448,192,55854,1,0,0:0:0:0:
320,192,55990,1,0,0:0:0:0:
448,192,55990,1,0,0:0:0:0:
64,192,55990,1,0,0:0:0:0:
192,192,56127,1,0,0:0:0:0:
192,192,56263,1,0,0:0:0:0:
64,192,56263,1,0,0:0:0:0:
448,192,56263,1,0,0:0:0:0:
320,192,56399,1,0,0:0:0:0:
320,192,56536,1,0,0:0:0:0:
448,192,56536,1,0,0:0:0:0:
320,192,57627,1,0,0:0:0:0:
448,192,57627,1,0,0:0:0:0:
64,192,57627,1,0,0:0:0:0:
192,192,57899,1,0,0:0:0:0:
448,192,57899,1,0,0:0:0:0:
64,192,57899,1,0,0:0:0:0:
192,192,58036,1,0,0:0:0:0:
448,192,58104,1,0,0:0:0:0:
192,192,58172,1,0,0:0:0:0:
64,192,58172,1,0,0:0:0:0:
320,192,58172,1,0,0:0:0:0:
320,192,58308,1,0,0:0:0:0:
448,192,58445,1,0,0:0:0:0:
64,192,58445,1,0,0:0:0:0:
192,192,58445,1,0,0:0:0:0:
320,192,58581,1,0,0:0:0:0:
64,192,58718,1,0,0:0:0:0:
448,192,58718,1,0,0:0:0:0:
320,192,58718,1,0,0:0:0:0:
320,192,58990,1,0,0:0:0:0:
448,192,58990,1,0,0:0:0:0:
64,192,58990,1,0,0:0:0:0:
320,192,59127,1,0,0:0:0:0:
64,192,59195,1,0,0:0:0:0:
192,192,59263,1,0,0:0:0:0:
320,192,59263,1,0,0:0:0:0:
448,192,59263,1,0,0:0:0:0:
64,192,59399,1,0,0:0:0:0:
64,192,59536,1,0,0:0:0:0:
192,192,59536,1,0,0:0:0:0:
448,192,59536,1,0,0:0:0:0:
320,192,59672,1,0,0:0:0:0:
448,192,59672,1,0,0:0:0:0:
192,192,59672,1,0,0:0:0:0:
64,192,59808,1,0,0:0:0:0:
192,192,59808,1,0,0:0:0:0:
320,192,59808,1,0,0:0:0:0:
320,192,60081,1,0,0:0:0:0:
448,192,60081,1,0,0:0:0:0:
64,192,60081,1,0,0:0:0:0:
64,192,60218,1,0,0:0:0:0:
320,192,60286,1,0,0:0:0:0:
448,192,60354,1,0,0:0:0:0:
192,192,60354,1,0,0:0:0:0:
64,192,60354,1,0,0:0:0:0:
448,192,60490,1,0,0:0:0:0:
320,192,60627,1,0,0:0:0:0:
64,192,60627,1,0,0:0:0:0:
192,192,60627,1,0,0:0:0:0:
448,192,60763,1,0,0:0:0:0:
192,192,60899,1,0,0:0:0:0:
64,192,60899,1,0,0:0:0:0:
448,192,60899,1,0,0:0:0:0:
320,192,61036,1,0,0:0:0:0:
64,192,61036,1,0,0:0:0:0:
192,192,61036,1,0,0:0:0:0:
64,192,61172,1,0,0:0:0:0:
448,192,61172,1,0,0:0:0:0:
320,192,61172,1,0,0:0:0:0:
320,192,61445,1,0,0:0:0:0:
448,192,61445,1,0,0:0:0:0:
64,192,61445,1,0,0:0:0:0:
192,192,61581,1,0,0:0:0:0:
320,192,61581,1,0,0:0:0:0:
448,192,61581,1,0,0:0:0:0:
64,192,61718,1,0,0:0:0:0:
320,192,61786,1,0,0:0:0:0:
448,192,61854,1,0,0:0:0:0:
192,192,61854,1,0,0:0:0:0:
64,192,61854,1,0,0:0:0:0:
320,192,61990,1,0,0:0:0:0:
448,192,61990,1,0,0:0:0:0:
192,192,61990,1,0,0:0:0:0:
192,192,62263,1,0,0:0:0:0:
64,192,62263,1,0,0:0:0:0:
448,192,62263,1,0,0:0:0:0:
448,192,62399,1,0,0:0:0:0:
192,192,62468,1,0,0:0:0:0:
320,192,62536,1,0,0:0:0:0:
448,192,62536,1,0,0:0:0:0:
64,192,62536,1,0,0:0:0:0:
64,192,62672,1,0,0:0:0:0:
448,192,62808,1,0,0:0:0:0:
192,192,62808,1,0,0:0:0:0:
320,192,62808,1,0,0:0:0:0:
64,192,62945,1,0,0:0:0:0:
320,192,63081,1,0,0:0:0:0:
448,192,63081,1,0,0:0:0:0:
64,192,63081,1,0,0:0:0:0:
192,192,63354,1,0,0:0:0:0:
320,192,63354,1,0,0:0:0:0:
64,192,63354,1,0,0:0:0:0:
192,192,63490,1,0,0:0:0:0:
320,192,63558,1,0,0:0:0:0:
192,192,63627,1,0,0:0:0:0:
64,192,63627,1,0,0:0:0:0:
448,192,63627,1,0,0:0:0:0:
320,192,63763,1,0,0:0:0:0:
64,192,63899,1,0,0:0:0:0:
192,192,63899,1,0,0:0:0:0:
448,192,63899,128,0,63968:0:0:0:0:
320,192,63968,128,0,64036:0:0:0:0:
64,192,64036,1,0,0:0:0:0:
192,192,64036,1,0,0:0:0:0:
448,192,64036,128,0,64104:0:0:0:0:
320,192,64172,1,0,0:0:0:0:
64,192,64172,1,0,0:0:0:0:
192,192,64172,1,0,0:0:0:0:
320,192,64445,1,0,0:0:0:0:
448,192,64445,1,0,0:0:0:0:
64,192,64445,1,0,0:0:0:0:
320,192,64581,1,0,0:0:0:0:
64,192,64649,1,0,0:0:0:0:
448,192,64718,1,0,0:0:0:0:
192,192,64718,1,0,0:0:0:0:
320,192,64718,1,0,0:0:0:0:
192,192,64854,1,0,0:0:0:0:
64,192,64990,1,0,0:0:0:0:
320,192,64990,1,0,0:0:0:0:
448,192,64990,1,0,0:0:0:0:
192,192,65127,1,0,0:0:0:0:
320,192,65263,1,0,0:0:0:0:
192,192,65263,1,0,0:0:0:0:
64,192,65263,1,0,0:0:0:0:
192,192,65536,1,0,0:0:0:0:
320,192,65553,1,0,0:0:0:0:
448,192,65570,128,0,65808:0:0:0:0:
64,192,65808,1,0,0:0:0:0:
320,192,65877,1,0,0:0:0:0:
192,192,65945,1,0,0:0:0:0:
448,192,66013,1,0,0:0:0:0:
64,192,66081,128,0,66218:0:0:0:0:
320,192,66218,128,0,66354:0:0:0:0:
448,192,66354,1,0,0:0:0:0:
64,192,66354,1,0,0:0:0:0:
192,192,66354,1,0,0:0:0:0:
320,192,66627,1,0,0:0:0:0:
448,192,66627,1,0,0:0:0:0:
64,192,66627,1,0,0:0:0:0:
320,192,66763,1,0,0:0:0:0:
64,192,66831,1,0,0:0:0:0:
320,192,66899,1,0,0:0:0:0:
448,192,66899,1,0,0:0:0:0:
192,192,66899,1,0,0:0:0:0:
192,192,67036,1,0,0:0:0:0:
64,192,67172,1,0,0:0:0:0:
320,192,67172,1,0,0:0:0:0:
448,192,67172,1,0,0:0:0:0:
192,192,67308,1,0,0:0:0:0:
448,192,67445,1,0,0:0:0:0:
192,192,67445,1,0,0:0:0:0:
64,192,67445,1,0,0:0:0:0:
192,192,67718,1,0,0:0:0:0:
64,192,67718,1,0,0:0:0:0:
448,192,67718,1,0,0:0:0:0:
192,192,67854,1,0,0:0:0:0:
448,192,67922,1,0,0:0:0:0:
320,192,67990,1,0,0:0:0:0:
192,192,67990,1,0,0:0:0:0:
64,192,67990,1,0,0:0:0:0:
320,192,68127,1,0,0:0:0:0:
192,192,68263,1,0,0:0:0:0:
448,192,68263,1,0,0:0:0:0:
64,192,68263,1,0,0:0:0:0:
192,192,68399,1,0,0:0:0:0:
320,192,68399,1,0,0:0:0:0:
448,192,68399,1,0,0:0:0:0:
64,192,68536,1,0,0:0:0:0:
320,192,68536,1,0,0:0:0:0:
192,192,68536,1,0,0:0:0:0:
192,192,68808,1,0,0:0:0:0:
64,192,68808,1,0,0:0:0:0:
320,192,68808,1,0,0:0:0:0:
192,192,68945,1,0,0:0:0:0:
448,192,69013,1,0,0:0:0:0:
320,192,69081,1,0,0:0:0:0:
192,192,69081,1,0,0:0:0:0:
64,192,69081,1,0,0:0:0:0:
320,192,69218,1,0,0:0:0:0:
448,192,69354,1,0,0:0:0:0:
192,192,69354,1,0,0:0:0:0:
64,192,69354,1,0,0:0:0:0:
320,192,69490,1,0,0:0:0:0:
64,192,69627,1,0,0:0:0:0:
448,192,69627,1,0,0:0:0:0:
320,192,69627,1,0,0:0:0:0:
448,192,69763,1,0,0:0:0:0:
192,192,69763,1,0,0:0:0:0:
64,192,69763,1,0,0:0:0:0:
64,192,69899,1,0,0:0:0:0:
192,192,69899,1,0,0:0:0:0:
320,192,69899,1,0,0:0:0:0:
320,192,70172,1,0,0:0:0:0:
448,192,70172,1,0,0:0:0:0:
64,192,70172,1,0,0:0:0:0:
320,192,70308,1,0,0:0:0:0:
448,192,70308,1,0,0:0:0:0:
64,192,70308,1,0,0:0:0:0:
192,192,70445,1,0,0:0:0:0:
448,192,70513,1,0,0:0:0:0:
320,192,70581,1,0,0:0:0:0:
64,192,70581,1,0,0:0:0:0:
192,192,70581,1,0,0:0:0:0:
64,192,70718,1,0,0:0:0:0:
320,192,70718,1,0,0:0:0:0:
448,192,70718,1,0,0:0:0:0:
192,192,70854,1,0,0:0:0:0:
64,192,70990,1,0,0:0:0:0:
192,192,70990,1,0,0:0:0:0:
448,192,70990,1,0,0:0:0:0:
64,192,71127,1,0,0:0:0:0:
448,192,71195,1,0,0:0:0:0:
192,192,71263,1,0,0:0:0:0:
64,192,71263,1,0,0:0:0:0:
320,192,71263,1,0,0:0:0:0:
320,192,71399,1,0,0:0:0:0:
448,192,71536,1,0,0:0:0:0:
64,192,71536,1,0,0:0:0:0:
192,192,71536,1,0,0:0:0:0:
320,192,71672,1,0,0:0:0:0:
448,192,71808,1,0,0:0:0:0:
64,192,71808,1,0,0:0:0:0:
320,192,71808,1,0,0:0:0:0:
320,192,72081,1,0,0:0:0:0:
448,192,72081,1,0,0:0:0:0:
64,192,72081,1,0,0:0:0:0:
320,192,72218,1,0,0:0:0:0:
64,192,72286,1,0,0:0:0:0:
192,192,72354,1,0,0:0:0:0:
320,192,72354,1,0,0:0:0:0:
448,192,72354,1,0,0:0:0:0:
192,192,72490,1,0,0:0:0:0:
448,192,72627,1,0,0:0:0:0:
320,192,72627,1,0,0:0:0:0:
64,192,72627,1,0,0:0:0:0:
192,192,72763,1,0,0:0:0:0:
320,192,72763,1,0,0:0:0:0:
448,192,72763,1,0,0:0:0:0:
320,192,72899,1,0,0:0:0:0:
192,192,72899,1,0,0:0:0:0:
64,192,72899,1,0,0:0:0:0:
320,192,73172,1,0,0:0:0:0:
448,192,73172,1,0,0:0:0:0:
64,192,73172,1,0,0:0:0:0:
448,192,73308,1,0,0:0:0:0:
192,192,73445,1,0,0:0:0:0:
64,192,73445,1,0,0:0:0:0:
320,192,73445,1,0,0:0:0:0:
64,192,73581,1,0,0:0:0:0:
192,192,73718,1,0,0:0:0:0:
320,192,73718,1,0,0:0:0:0:
448,192,73718,1,0,0:0:0:0:
64,192,73854,1,0,0:0:0:0:
320,192,73990,1,0,0:0:0:0:
448,192,73990,1,0,0:0:0:0:
320,192,74536,1,0,0:0:0:0:
448,192,74536,1,0,0:0:0:0:
192,192,74604,1,0,0:0:0:0:
64,192,74604,1,0,0:0:0:0:
64,192,74740,1,0,0:0:0:0:
192,192,74740,1,0,0:0:0:0:
448,192,74808,1,0,0:0:0:0:
320,192,74843,1,0,0:0:0:0:
192,192,74877,1,0,0:0:0:0:
64,192,74911,1,0,0:0:0:0:
448,192,74945,1,0,0:0:0:0:
192,192,75013,1,0,0:0:0:0:
64,192,75081,1,0,0:0:0:0:
320,192,75081,1,0,0:0:0:0:
448,192,75081,1,0,0:0:0:0:
320,192,75218,1,0,0:0:0:0:
448,192,75218,1,0,0:0:0:0:
64,192,75218,1,0,0:0:0:0:
192,192,75354,1,0,0:0:0:0:
320,192,75354,1,0,0:0:0:0:
448,192,75354,1,0,0:0:0:0:
448,192,75490,1,0,0:0:0:0:
192,192,75490,1,0,0:0:0:0:
320,192,75490,1,0,0:0:0:0:
192,192,75627,1,0,0:0:0:0:
64,192,75627,1,0,0:0:0:0:
448,192,75627,1,0,0:0:0:0:
448,192,75763,1,0,0:0:0:0:
192,192,75763,1,0,0:0:0:0:
64,192,75763,1,0,0:0:0:0:
320,192,75899,1,0,0:0:0:0:
192,192,75899,1,0,0:0:0:0:
64,192,75899,1,0,0:0:0:0:
192,192,76036,1,0,0:0:0:0:
64,192,76036,1,0,0:0:0:0:
320,192,76104,1,0,0:0:0:0:
448,192,76172,1,0,0:0:0:0:
192,192,76172,1,0,0:0:0:0:
64,192,76172,1,0,0:0:0:0:
64,192,76308,1,0,0:0:0:0:
192,192,76308,1,0,0:0:0:0:
448,192,76308,1,0,0:0:0:0:
320,192,76445,1,0,0:0:0:0:
448,192,76445,1,0,0:0:0:0:
192,192,76445,1,0,0:0:0:0:
448,192,76581,1,0,0:0:0:0:
320,192,76581,1,0,0:0:0:0:
192,192,76649,1,0,0:0:0:0:
64,192,76718,1,0,0:0:0:0:
320,192,76718,1,0,0:0:0:0:
448,192,76718,1,0,0:0:0:0:
320,192,76854,1,0,0:0:0:0:
448,192,76854,1,0,0:0:0:0:
64,192,76854,1,0,0:0:0:0:
320,192,76990,1,0,0:0:0:0:
192,192,76990,1,0,0:0:0:0:
64,192,76990,1,0,0:0:0:0:
64,192,77263,1,0,0:0:0:0:
320,192,77263,1,0,0:0:0:0:
448,192,77263,1,0,0:0:0:0:
64,192,77399,1,0,0:0:0:0:
320,192,77399,1,0,0:0:0:0:
448,192,77399,1,0,0:0:0:0:
448,192,77536,1,0,0:0:0:0:
320,192,77536,1,0,0:0:0:0:
192,192,77536,1,0,0:0:0:0:
192,192,77672,1,0,0:0:0:0:
320,192,77672,1,0,0:0:0:0:
448,192,77672,1,0,0:0:0:0:
448,192,77808,1,0,0:0:0:0:
192,192,77808,1,0,0:0:0:0:
64,192,77808,1,0,0:0:0:0:
192,192,77945,1,0,0:0:0:0:
64,192,77945,1,0,0:0:0:0:
448,192,77945,1,0,0:0:0:0:
320,192,78081,1,0,0:0:0:0:
192,192,78081,1,0,0:0:0:0:
64,192,78081,1,0,0:0:0:0:
192,192,78218,1,0,0:0:0:0:
64,192,78218,1,0,0:0:0:0:
320,192,78286,1,0,0:0:0:0:
64,192,78354,1,0,0:0:0:0:
192,192,78354,1,0,0:0:0:0:
448,192,78354,1,0,0:0:0:0:
448,192,78490,1,0,0:0:0:0:
320,192,78490,1,0,0:0:0:0:
192,192,78558,1,0,0:0:0:0:
64,192,78627,1,0,0:0:0:0:
320,192,78627,1,0,0:0:0:0:
448,192,78627,1,0,0:0:0:0:
320,192,78763,1,0,0:0:0:0:
448,192,78763,1,0,0:0:0:0:
64,192,78763,1,0,0:0:0:0:
192,192,78899,1,0,0:0:0:0:
64,192,78899,1,0,0:0:0:0:
448,192,78899,1,0,0:0:0:0:
448,192,79036,128,0,79172:0:0:0:0:
64,192,79172,1,0,0:0:0:0:
320,192,79172,1,0,0:0:0:0:
192,192,79172,1,0,0:0:0:0:
320,192,79308,128,0,79377:0:0:0:0:
64,192,79377,128,0,79445:0:0:0:0:
192,192,79445,1,0,0:0:0:0:
320,192,79445,1,0,0:0:0:0:
448,192,79445,1,0,0:0:0:0:
192,192,79581,1,0,0:0:0:0:
320,192,79581,1,0,0:0:0:0:
448,192,79581,1,0,0:0:0:0:
448,192,79718,1,0,0:0:0:0:
192,192,79718,1,0,0:0:0:0:
64,192,79718,1,0,0:0:0:0:
192,192,79854,1,0,0:0:0:0:
64,192,79854,1,0,0:0:0:0:
448,192,79854,1,0,0:0:0:0:
192,192,79990,1,0,0:0:0:0:
320,192,79990,1,0,0:0:0:0:
64,192,79990,1,0,0:0:0:0:
192,192,80127,1,0,0:0:0:0:
64,192,80127,1,0,0:0:0:0:
320,192,80127,1,0,0:0:0:0:
320,192,80263,1,0,0:0:0:0:
448,192,80263,1,0,0:0:0:0:
64,192,80263,1,0,0:0:0:0:
448,192,80399,1,0,0:0:0:0:
320,192,80399,1,0,0:0:0:0:
192,192,80468,1,0,0:0:0:0:
320,192,80536,1,0,0:0:0:0:
448,192,80536,1,0,0:0:0:0:
64,192,80536,1,0,0:0:0:0:
320,192,80672,1,0,0:0:0:0:
448,192,80672,1,0,0:0:0:0:
64,192,80672,1,0,0:0:0:0:
320,192,80808,1,0,0:0:0:0:
192,192,80808,1,0,0:0:0:0:
64,192,80808,1,0,0:0:0:0:
64,192,80945,1,0,0:0:0:0:
192,192,80945,1,0,0:0:0:0:
320,192,81013,1,0,0:0:0:0:
448,192,81081,1,0,0:0:0:0:
64,192,81081,1,0,0:0:0:0:
192,192,81081,1,0,0:0:0:0:
448,192,81218,1,0,0:0:0:0:
192,192,81218,1,0,0:0:0:0:
64,192,81218,1,0,0:0:0:0:
320,192,81354,1,0,0:0:0:0:
448,192,81354,1,0,0:0:0:0:
64,192,81354,1,0,0:0:0:0:
448,192,81627,1,0,0:0:0:0:
64,192,81627,1,0,0:0:0:0:
320,192,81627,1,0,0:0:0:0:
320,192,81763,1,0,0:0:0:0:
448,192,81763,1,0,0:0:0:0:
64,192,81763,1,0,0:0:0:0:
320,192,81899,1,0,0:0:0:0:
192,192,81899,1,0,0:0:0:0:
64,192,81899,1,0,0:0:0:0:
320,192,82036,1,0,0:0:0:0:
192,192,82036,1,0,0:0:0:0:
64,192,82036,1,0,0:0:0:0:
64,192,82172,1,0,0:0:0:0:
320,192,82172,1,0,0:0:0:0:
448,192,82172,1,0,0:0:0:0:
320,192,82308,1,0,0:0:0:0:
448,192,82308,1,0,0:0:0:0:
64,192,82308,1,0,0:0:0:0:
320,192,82445,1,0,0:0:0:0:
192,192,82445,1,0,0:0:0:0:
448,192,82445,1,0,0:0:0:0:
448,192,82581,1,0,0:0:0:0:
320,192,82581,1,0,0:0:0:0:
192,192,82649,1,0,0:0:0:0:
64,192,82718,1,0,0:0:0:0:
320,192,82718,1,0,0:0:0:0:
448,192,82718,1,0,0:0:0:0:
192,192,82854,1,0,0:0:0:0:
448,192,82990,1,0,0:0:0:0:
320,192,83024,1,0,0:0:0:0:
192,192,83058,1,0,0:0:0:0:
64,192,83263,1,0,0:0:0:0:
320,192,83331,1,0,0:0:0:0:
192,192,83399,1,0,0:0:0:0:
448,192,83468,1,0,0:0:0:0:
64,192,83536,1,0,0:0:0:0:
320,192,83570,1,0,0:0:0:0:
192,192,83672,128,0,83808:0:0:0:0:
320,192,83808,1,0,0:0:0:0:
448,192,83808,1,0,0:0:0:0:
64,192,83808,1,0,0:0:0:0:
192,192,83945,1,0,0:0:0:0:
448,192,84081,1,0,0:0:0:0:
320,192,84218,1,0,0:0:0:0:
448,192,84218,1,0,0:0:0:0:
64,192,84218,128,0,84490:0:0:0:0:
192,192,84490,1,0,0:0:0:0:
320,192,84627,1,0,0:0:0:0:
64,192,84695,1,0,0:0:0:0:
448,192,84763,1,0,0:0:0:0:
320,192,84899,1,0,0:0:0:0:
448,192,84899,1,0,0:0:0:0:
64,192,84899,1,0,0:0:0:0:
320,192,85036,1,0,0:0:0:0:
448,192,85172,1,0,0:0:0:0:
192,192,85172,1,0,0:0:0:0:
64,192,85172,1,0,0:0:0:0:
320,192,85308,1,0,0:0:0:0:
192,192,85308,1,0,0:0:0:0:
64,192,85308,1,0,0:0:0:0:
448,192,85445,1,0,0:0:0:0:
192,192,85513,1,0,0:0:0:0:
320,192,85581,1,0,0:0:0:0:
64,192,85649,1,0,0:0:0:0:
448,192,85718,1,0,0:0:0:0:
320,192,85735,1,0,0:0:0:0:
192,192,85752,1,0,0:0:0:0:
64,192,85854,1,0,0:0:0:0:
192,192,85990,1,0,0:0:0:0:
64,192,85990,1,0,0:0:0:0:
448,192,85990,1,0,0:0:0:0:
320,192,86127,1,0,0:0:0:0:
448,192,86127,1,0,0:0:0:0:
192,192,86127,1,0,0:0:0:0:
320,192,86263,1,0,0:0:0:0:
192,192,86263,1,0,0:0:0:0:
64,192,86263,1,0,0:0:0:0:
64,192,86399,1,0,0:0:0:0:
320,192,86399,1,0,0:0:0:0:
448,192,86399,1,0,0:0:0:0:
448,192,86536,1,0,0:0:0:0:
320,192,86672,1,0,0:0:0:0:
64,192,86740,1,0,0:0:0:0:
192,192,86808,1,0,0:0:0:0:
448,192,86843,1,0,0:0:0:0:
320,192,86945,1,0,0:0:0:0:
64,192,86979,1,0,0:0:0:0:
192,192,87081,1,0,0:0:0:0:
448,192,87081,1,0,0:0:0:0:
64,192,87081,1,0,0:0:0:0:
192,192,87218,1,0,0:0:0:0:
320,192,87286,1,0,0:0:0:0:
64,192,87354,1,0,0:0:0:0:
320,192,87490,1,0,0:0:0:0:
192,192,87558,1,0,0:0:0:0:
448,192,87627,1,0,0:0:0:0:
320,192,87627,128,0,87695:0:0:0:0:
64,192,87649,128,0,87763:0:0:0:0:
64,192,87899,1,0,0:0:0:0:
320,192,87968,1,0,0:0:0:0:
64,192,88036,1,0,0:0:0:0:
448,192,88104,1,0,0:0:0:0:
320,192,88172,1,0,0:0:0:0:
192,192,88172,1,0,0:0:0:0:
64,192,88172,1,0,0:0:0:0:
320,192,88445,1,0,0:0:0:0:
448,192,88445,1,0,0:0:0:0:
64,192,88445,1,0,0:0:0:0:
64,192,88581,1,0,0:0:0:0:
320,192,88649,1,0,0:0:0:0:
192,192,88718,1,0,0:0:0:0:
64,192,88718,1,0,0:0:0:0:
448,192,88718,1,0,0:0:0:0:
192,192,88854,1,0,0:0:0:0:
320,192,88990,1,0,0:0:0:0:
448,192,88990,1,0,0:0:0:0:
64,192,88990,1,0,0:0:0:0:
192,192,89127,1,0,0:0:0:0:
192,192,89263,1,0,0:0:0:0:
64,192,89263,1,0,0:0:0:0:
320,192,89263,1,0,0:0:0:0:
320,192,89536,1,0,0:0:0:0:
448,192,89536,1,0,0:0:0:0:
64,192,89536,1,0,0:0:0:0:
320,192,89672,1,0,0:0:0:0:
64,192,89740,1,0,0:0:0:0:
192,192,89808,1,0,0:0:0:0:
320,192,89808,1,0,0:0:0:0:
448,192,89808,1,0,0:0:0:0:
448,192,89945,1,0,0:0:0:0:
320,192,90081,1,0,0:0:0:0:
192,192,90081,1,0,0:0:0:0:
64,192,90081,1,0,0:0:0:0:
448,192,90218,1,0,0:0:0:0:
192,192,90218,1,0,0:0:0:0:
64,192,90218,1,0,0:0:0:0:
448,192,90354,1,0,0:0:0:0:
320,192,90354,1,0,0:0:0:0:
64,192,90354,1,0,0:0:0:0:
192,192,90627,1,0,0:0:0:0:
448,192,90627,1,0,0:0:0:0:
64,192,90627,128,0,90695:0:0:0:0:
192,192,90763,128,0,90831:0:0:0:0:
448,192,90831,128,0,90899:0:0:0:0:
192,192,90899,1,0,0:0:0:0:
64,192,90899,1,0,0:0:0:0:
320,192,90899,128,0,90968:0:0:0:0:
64,192,91036,128,0,91104:0:0:0:0:
320,192,91172,1,0,0:0:0:0:
448,192,91172,1,0,0:0:0:0:
192,192,91172,1,0,0:0:0:0:
64,192,91308,1,0,0:0:0:0:
192,192,91445,1,0,0:0:0:0:
64,192,91445,1,0,0:0:0:0:
448,192,91445,1,0,0:0:0:0:
320,192,91581,1,0,0:0:0:0:
448,192,91581,1,0,0:0:0:0:
192,192,91581,1,0,0:0:0:0:
192,192,91718,1,0,0:0:0:0:
64,192,91718,1,0,0:0:0:0:
320,192,91718,1,0,0:0:0:0:
64,192,91854,1,0,0:0:0:0:
320,192,91854,1,0,0:0:0:0:
448,192,91854,1,0,0:0:0:0:
320,192,91990,1,0,0:0:0:0:
448,192,91990,1,0,0:0:0:0:
192,192,92058,1,0,0:0:0:0:
64,192,92058,1,0,0:0:0:0:
320,192,92127,1,0,0:0:0:0:
448,192,92127,1,0,0:0:0:0:
192,192,92195,1,0,0:0:0:0:
64,192,92195,1,0,0:0:0:0:
320,192,92263,1,0,0:0:0:0:
448,192,92263,1,0,0:0:0:0:
64,192,92331,1,0,0:0:0:0:
192,192,92331,1,0,0:0:0:0:
320,192,92399,1,0,0:0:0:0:
448,192,92399,1,0,0:0:0:0:
192,192,92468,1,0,0:0:0:0:
64,192,92536,1,0,0:0:0:0:
448,192,92536,1,0,0:0:0:0:
