osu file format v14

[General]
AudioFilename: audio.mp3
AudioLeadIn: 0
PreviewTime: 82817
Countdown: 1
SampleSet: Soft
StackLeniency: 0.3
Mode: 0
LetterboxInBreaks: 0
WidescreenStoryboard: 1

[Editor]
Bookmarks: 115,17628,33195,50709,66276,81844,82817,98384,113952,121735,137303,154817,170384,185952,188547,189844,205411,220979,228762,244330,259898,275465,280330,288113,295897,305627,321194,337735,353302,368870,377140,384437,392221,405843,421410,436978,437951,453518,469086,479685,494896,500811,526163,533768,537571
DistanceSpacing: 1
BeatDivisor: 4
GridSize: 16
TimelineZoom: 2.899999

[Metadata]
Title:The Undertakers Daughter instrumental
TitleUnicode:The Undertakers Daughter instrumental
Artist:steampianist
ArtistUnicode:steampianist
Creator:TheNexus
Version:Lonely Travel
Source:
Tags:instrumental folk marathon
BeatmapID:1809736
BeatmapSetID:863472

[Difficulty]
HPDrainRate:5.5
CircleSize:3.8
OverallDifficulty:8
ApproachRate:9
SliderMultiplier:1.7
SliderTickRate:1

[Events]
//Background and Video events
0,0,"cropped-1920-1080-602575.png",0,0
//Break Periods
//Storyboard Layer 0 (Background)
//Storyboard Layer 1 (Fail)
//Storyboard Layer 2 (Pass)
//Storyboard Layer 3 (Foreground)
//Storyboard Sound Samples

[TimingPoints]
115,324.324324324324,3,2,2,40,1,0
115,-250,3,2,2,50,0,0
7817,-250,3,3,2,5,0,0
7898,-250,3,2,2,50,0,0
11385,-250,3,3,2,5,0,0
11466,-250,3,2,2,50,0,0
15033,-250,3,2,2,70,0,0
16006,-250,3,2,2,80,0,0
16979,-250,3,2,2,50,0,0
17628,-333.333333333334,3,2,2,50,0,0
18519,-333.333333333334,3,3,2,5,0,0
18600,-333.333333333334,3,2,2,50,0,0
19492,-333.333333333334,3,3,2,5,0,0
19573,-333.333333333334,3,2,2,50,0,0
20304,-333.333333333334,3,3,2,5,0,0
20385,-333.333333333334,3,2,2,50,0,0
22411,-333.333333333334,3,3,2,5,0,0
22492,-333.333333333334,3,2,2,50,0,0
23384,-333.333333333334,3,3,2,5,0,0
23465,-333.333333333334,3,2,2,50,0,0
24195,-333.333333333334,3,2,2,50,0,0
24196,-333.333333333334,3,3,2,5,0,0
24277,-333.333333333334,3,2,2,50,0,0
24330,-90.909090909091,3,2,2,50,0,0
24546,-111.111111111111,3,2,2,50,0,0
24871,-142.857142857143,3,2,2,50,0,0
25195,-200,3,2,2,50,0,0
25411,-333.333333333334,3,2,2,50,0,0
30276,-200,3,2,2,50,0,0
30439,-200,3,3,2,5,0,0
30520,-200,3,2,2,50,0,0
30763,-200,3,3,2,5,0,0
30844,-200,3,2,2,50,0,0
31087,-200,3,3,2,5,0,0
31168,-200,3,2,2,50,0,0
31412,-200,3,3,2,5,0,0
31493,-200,3,2,2,50,0,0
33195,-166.666666666667,3,2,2,60,0,0
39277,-166.666666666667,3,3,2,5,0,0
39357,-111.111111111111,3,2,2,60,0,0
39682,-142.857142857143,3,2,2,60,0,0
40006,-200,3,2,2,60,0,0
40331,-333.333333333334,3,2,2,60,0,0
40655,-1000,3,2,2,60,0,0
40979,-166.666666666667,3,2,2,60,0,0
46006,-166.666666666667,3,3,2,5,0,0
46087,-166.666666666667,3,2,2,60,0,0
46331,-166.666666666667,3,3,2,5,0,0
46412,-166.666666666667,3,2,2,60,0,0
46655,-166.666666666667,3,3,2,5,0,0
46736,-166.666666666667,3,2,2,60,0,0
47790,-142.857142857143,3,2,2,60,0,0
47952,-142.857142857143,3,3,2,5,0,0
48033,-142.857142857143,3,2,2,70,0,0
48763,-125,3,2,2,70,0,0
48925,-125,3,3,2,5,0,0
49006,-125,3,2,2,80,0,0
49106,-125,3,2,2,80,0,0
49777,-125,3,3,2,5,0,0
50223,-125,3,1,3,60,0,0
50385,-125,3,1,3,70,0,0
50547,-125,3,1,3,80,0,0
50709,-100,3,1,3,90,0,1
50871,-100,3,1,3,90,0,1
50952,-100,3,1,3,90,0,1
51925,-100,3,3,2,5,0,1
52006,-100,3,1,3,90,0,1
52898,-100,3,3,2,5,0,1
52979,-100,3,1,3,90,0,1
53871,-100,3,3,2,5,0,1
53952,-100,3,1,3,90,0,1
54763,-100,3,1,3,90,0,1
54844,-100,3,1,3,90,0,1
59709,-100,3,3,2,5,0,1
59790,-100,3,1,3,90,0,1
60682,-100,3,3,2,5,0,1
60763,-100,3,1,3,90,0,1
62304,-100,3,3,2,5,0,1
62385,-100,3,1,3,90,0,1
62628,-100,3,3,2,5,0,1
62709,-100,3,1,3,90,0,1
62952,-100,3,3,2,5,0,1
63033,-100,3,1,3,90,0,1
63277,-100,3,3,2,5,0,1
63358,-100,3,1,3,90,0,1
63601,-100,3,3,2,5,0,1
63682,-100,3,1,3,90,0,1
63925,-100,3,3,2,5,0,1
64006,-100,3,1,3,90,0,1
64250,-100,3,3,2,5,0,1
64331,-100,3,1,3,90,0,1
64574,-100,3,3,2,5,0,1
64655,-100,3,1,3,90,0,1
64898,-100,3,3,2,5,0,1
64979,-100,3,1,3,90,0,1
65223,-100,3,3,2,5,0,1
65304,-100,3,1,3,90,0,1
65547,-100,3,3,2,5,0,1
65628,-100,3,1,3,90,0,1
66520,-100,3,3,2,5,0,1
66601,-100,3,1,3,90,0,1
66844,-100,3,3,2,5,0,1
66925,-100,3,1,3,90,0,1
67169,-100,3,3,2,5,0,1
67250,-100,3,1,3,90,0,1
67493,-100,3,3,2,5,0,1
67574,-100,3,1,3,90,0,1
68466,-100,3,3,2,5,0,1
68547,-100,3,1,3,90,0,1
69439,-100,3,3,2,5,0,1
69520,-100,3,1,3,90,0,1
70412,-100,3,3,2,5,0,1
70493,-100,3,1,3,90,0,1
71385,-100,3,3,2,5,0,1
71466,-100,3,1,3,90,0,1
72358,-100,3,3,2,5,0,1
72439,-100,3,1,3,90,0,1
73331,-100,3,3,2,5,0,1
73412,-100,3,1,3,90,0,1
74304,-100,3,3,2,5,0,1
74385,-100,3,1,3,90,0,1
75277,-100,3,3,2,5,0,1
75358,-100,3,1,3,90,0,1
76250,-100,3,3,2,5,0,1
76331,-100,3,1,3,90,0,1
77223,-100,3,3,2,5,0,1
77304,-100,3,1,3,90,0,1
78196,-100,3,3,2,5,0,1
78277,-100,3,1,3,90,0,1
79169,-100,3,3,2,5,0,1
79250,-100,3,1,3,90,0,1
80142,-100,3,3,2,5,0,1
80223,-100,3,1,3,70,0,1
80547,-100,3,1,3,75,0,1
80871,-100,3,1,3,80,0,1
81196,-100,3,1,3,90,0,1
81844,-100,3,2,2,90,0,1
81885,-250,3,3,2,5,0,0
82331,-250,3,1,3,90,0,0
82736,-250,3,3,2,5,0,0
82817,-83.3333333333333,3,1,3,90,0,1
83060,-83.3333333333333,3,3,2,5,0,1
83142,-83.3333333333333,3,1,3,90,0,1
84682,-83.3333333333333,3,3,2,5,0,1
84764,-83.3333333333333,3,1,3,90,0,1
85979,-83.3333333333333,3,3,2,5,0,1
86061,-83.3333333333333,3,1,3,70,0,1
86142,-83.3333333333333,3,3,2,5,0,1
86222,-71.4285714285714,3,1,3,75,0,1
86304,-71.4285714285714,3,3,2,5,0,1
86384,-62.5,3,1,3,80,0,1
86466,-62.5,3,3,2,5,0,1
86546,-55.5555555555556,3,1,3,85,0,1
86628,-55.5555555555556,3,3,2,5,0,1
86708,-83.3333333333333,3,1,3,90,0,1
86952,-83.3333333333333,3,3,2,5,0,1
87034,-83.3333333333333,3,1,3,70,0,1
87114,-83.3333333333333,3,3,2,5,0,1
87196,-83.3333333333333,3,1,3,70,0,1
87277,-83.3333333333333,3,3,2,5,0,1
87359,-83.3333333333333,3,1,3,70,0,1
87601,-83.3333333333333,3,3,2,5,0,1
87682,-83.3333333333333,3,1,3,70,0,1
89305,-83.3333333333333,3,1,3,70,0,1
89385,-83.3333333333333,3,3,2,5,0,1
89467,-83.3333333333333,3,1,3,70,0,1
89547,-83.3333333333333,3,3,2,5,0,1
89629,-83.3333333333333,3,1,3,70,0,1
90844,-83.3333333333333,3,3,2,5,0,1
90926,-83.3333333333333,3,1,3,70,0,1
92466,-83.3333333333333,3,3,2,5,0,1
92548,-83.3333333333333,3,1,3,70,0,1
93763,-83.3333333333333,3,3,2,5,0,1
93845,-83.3333333333333,3,1,3,70,0,1
93925,-83.3333333333333,3,3,2,5,0,1
94006,-71.4285714285714,3,1,3,75,0,1
94087,-71.4285714285714,3,3,2,5,0,1
94168,-62.5,3,1,3,80,0,1
94250,-62.5,3,3,2,5,0,1
94330,-55.5555555555556,3,1,3,85,0,1
94412,-55.5555555555556,3,3,2,5,0,1
94492,-83.3333333333333,3,1,3,90,0,1
94736,-83.3333333333333,3,3,2,5,0,1
94818,-83.3333333333333,3,1,3,90,0,1
95223,-83.3333333333333,3,3,2,5,0,1
95305,-83.3333333333333,3,1,3,90,0,1
95385,-83.3333333333333,3,3,2,5,0,1
95467,-83.3333333333333,3,1,3,90,0,1
95709,-83.3333333333333,3,3,2,5,0,1
95791,-83.3333333333333,3,1,3,90,0,1
96196,-83.3333333333333,3,3,2,5,0,1
96278,-83.3333333333333,3,1,3,90,0,1
96358,-83.3333333333333,3,3,2,5,0,1
96440,-83.3333333333333,3,1,3,90,0,1
97006,-83.3333333333333,3,3,2,5,0,1
97088,-83.3333333333333,3,1,3,90,0,1
97817,-83.3333333333333,3,3,2,5,0,1
97898,-71.4285714285714,3,1,3,90,0,1
97979,-71.4285714285714,3,3,2,5,0,1
98060,-62.5,3,1,3,90,0,1
98142,-62.5,3,3,2,5,0,1
98222,-55.5555555555556,3,1,3,90,0,1
98304,-55.5555555555556,3,3,2,5,0,1
98384,-83.3333333333333,3,1,3,90,0,1
98952,-83.3333333333333,3,3,2,5,0,1
99034,-83.3333333333333,3,1,3,90,0,1
99114,-83.3333333333333,3,3,2,5,0,1
99196,-83.3333333333333,3,1,3,90,0,1
99277,-83.3333333333333,3,3,2,5,0,1
99359,-83.3333333333333,3,1,3,90,0,1
100574,-83.3333333333333,3,3,2,5,0,1
100656,-83.3333333333333,3,1,3,90,0,1
102196,-83.3333333333333,3,3,2,5,0,1
102278,-83.3333333333333,3,1,3,90,0,1
104142,-83.3333333333333,3,3,2,5,0,1
104224,-83.3333333333333,3,1,3,90,0,1
104790,-83.3333333333333,3,3,2,5,0,1
104872,-83.3333333333333,3,1,3,90,0,1
104952,-83.3333333333333,3,3,2,5,0,1
105034,-83.3333333333333,3,1,3,90,0,1
105114,-83.3333333333333,3,3,2,5,0,1
105196,-83.3333333333333,3,1,3,90,0,1
105681,-71.4285714285714,3,1,3,90,0,1
105763,-71.4285714285714,3,3,2,5,0,1
105844,-62.5,3,1,3,90,0,1
105925,-62.5,3,3,2,5,0,1
106006,-55.5555555555556,3,1,3,90,0,1
106087,-55.5555555555556,3,3,2,5,0,1
106168,-83.3333333333333,3,1,3,90,0,1
106736,-83.3333333333333,3,3,2,5,0,1
106818,-83.3333333333333,3,1,3,90,0,1
106898,-83.3333333333333,3,3,2,5,0,1
106980,-83.3333333333333,3,1,3,90,0,1
107060,-83.3333333333333,3,3,2,5,0,1
107142,-83.3333333333333,3,1,3,90,0,1
108358,-83.3333333333333,3,3,2,5,0,1
108440,-83.3333333333333,3,1,3,90,0,1
109979,-83.3333333333333,3,3,2,5,0,1
110061,-83.3333333333333,3,1,3,90,0,1
111357,-76.9230769230769,3,1,3,90,0,1
111681,-71.4285714285714,3,1,3,90,0,1
112250,-71.4285714285714,3,3,2,5,0,1
112331,-71.4285714285714,3,1,3,90,0,1
112979,-71.4285714285714,3,1,3,100,0,1
113952,-250,3,2,2,60,0,0
120763,-250,3,3,3,70,0,0
120844,-250,3,2,2,70,0,0
121250,-250,3,3,3,70,0,0
121735,-166.666666666667,3,2,2,70,0,0
121979,-166.666666666667,3,3,2,5,0,0
122060,-166.666666666667,3,2,2,70,0,0
122709,-166.666666666667,3,3,3,70,0,0
122790,-166.666666666667,3,2,2,70,0,0
123601,-166.666666666667,3,3,2,5,0,0
123682,-166.666666666667,3,2,2,70,0,0
124655,-166.666666666667,3,3,3,70,0,0
124736,-166.666666666667,3,2,2,70,0,0
126601,-166.666666666667,3,3,3,70,0,0
126682,-166.666666666667,3,2,2,70,0,0
127169,-166.666666666667,3,3,2,5,0,0
127250,-166.666666666667,3,2,2,70,0,0
128547,-166.666666666667,3,3,3,70,0,0
128628,-166.666666666667,3,2,2,70,0,0
129763,-166.666666666667,3,3,2,5,0,0
129844,-166.666666666667,3,2,2,70,0,0
130493,-166.666666666667,3,3,3,70,0,0
130574,-166.666666666667,3,2,2,70,0,0
131385,-166.666666666667,3,3,2,5,0,0
131466,-166.666666666667,3,2,2,70,0,0
131709,-166.666666666667,3,3,2,5,0,0
131790,-166.666666666667,3,2,2,70,0,0
132439,-166.666666666667,3,3,3,70,0,0
132520,-166.666666666667,3,2,2,70,0,0
132682,-166.666666666667,3,3,2,5,0,0
132763,-166.666666666667,3,2,2,70,0,0
133006,-166.666666666667,3,3,2,5,0,0
133087,-166.666666666667,3,2,2,70,0,0
133331,-166.666666666667,3,3,2,5,0,0
133411,-125,3,2,2,70,0,0
133655,-125,3,3,2,5,0,0
133736,-125,3,2,2,70,0,0
133979,-125,3,3,2,5,0,0
134060,-125,3,2,2,70,0,0
134304,-125,3,3,2,5,0,0
134384,-100,3,3,3,70,0,0
134466,-100,3,2,2,70,0,0
134628,-100,3,3,2,5,0,0
134709,-100,3,2,2,70,0,0
134952,-100,3,3,2,5,0,0
135033,-100,3,2,2,70,0,0
135277,-100,3,3,2,5,0,0
135357,-83.3333333333334,3,2,2,70,0,0
135601,-83.3333333333334,3,3,2,5,0,0
135682,-83.3333333333334,3,2,2,70,0,0
136331,-83.3333333333334,3,3,3,70,0,0
136412,-83.3333333333334,3,2,2,70,0,0
136817,-83.3333333333334,3,3,3,70,0,0
137303,-125,3,2,2,70,0,0
137547,-125,3,3,2,5,0,0
137628,-125,3,2,2,70,0,0
137871,-125,3,3,2,5,0,0
137952,-125,3,2,2,70,0,0
138196,-125,3,3,2,5,0,0
138277,-125,3,3,3,70,0,0
138358,-125,3,2,2,70,0,0
139169,-125,3,3,2,5,0,0
139250,-125,3,2,2,70,0,0
139493,-125,3,3,2,5,0,0
139574,-125,3,2,2,70,0,0
140223,-125,3,3,3,70,0,0
140304,-125,3,2,2,70,0,0
140466,-125,3,3,2,5,0,0
140547,-125,3,2,2,70,0,0
140790,-125,3,3,2,5,0,0
140871,-125,3,2,2,70,0,0
141114,-125,3,3,2,5,0,0
141195,-125,3,2,2,70,0,0
141439,-125,3,3,2,5,0,0
141520,-125,3,2,2,70,0,0
141763,-125,3,3,2,5,0,0
141844,-125,3,2,2,70,0,0
142087,-125,3,3,2,5,0,0
142168,-125,3,3,3,70,0,0
142250,-125,3,2,2,70,0,0
143465,-76.9230769230769,3,2,2,70,0,0
143789,-90.909090909091,3,2,2,70,0,0
144114,-111.111111111111,3,3,3,70,0,0
144196,-111.111111111111,3,2,2,70,0,0
144438,-142.857142857143,3,2,2,70,0,0
144762,-200,3,2,2,70,0,0
145087,-111.111111111111,3,2,2,70,0,0
145331,-111.111111111111,3,3,2,5,0,0
145412,-111.111111111111,3,2,2,70,0,0
145655,-111.111111111111,3,3,2,5,0,0
145736,-111.111111111111,3,2,2,70,0,0
145979,-111.111111111111,3,3,2,5,0,0
146060,-111.111111111111,3,3,3,70,0,0
146142,-111.111111111111,3,2,2,70,0,0
146304,-111.111111111111,3,3,2,5,0,0
146385,-111.111111111111,3,2,2,70,0,0
146628,-111.111111111111,3,3,2,5,0,0
146709,-111.111111111111,3,2,2,70,0,0
146952,-111.111111111111,3,3,2,5,0,0
147033,-111.111111111111,3,2,2,70,0,0
147277,-111.111111111111,3,3,2,5,0,0
147358,-111.111111111111,3,2,2,70,0,0
148006,-111.111111111111,3,3,3,70,0,0
148087,-111.111111111111,3,2,2,70,0,0
148250,-111.111111111111,3,3,2,5,0,0
148331,-111.111111111111,3,2,2,70,0,0
148574,-111.111111111111,3,3,2,5,0,0
148655,-111.111111111111,3,2,2,70,0,0
148898,-111.111111111111,3,3,2,5,0,0
148979,-111.111111111111,3,2,2,70,0,0
149223,-111.111111111111,3,3,2,5,0,0
149304,-111.111111111111,3,2,2,70,0,0
149547,-111.111111111111,3,3,2,5,0,0
149628,-111.111111111111,3,2,2,70,0,0
149952,-111.111111111111,3,3,3,70,0,0
150033,-111.111111111111,3,2,2,70,0,0
150520,-111.111111111111,3,3,2,5,0,0
150601,-111.111111111111,3,2,2,70,0,0
150844,-111.111111111111,3,3,2,5,0,0
150925,-111.111111111111,3,3,3,70,0,0
151006,-111.111111111111,3,2,2,70,0,0
151169,-111.111111111111,3,3,2,5,0,0
151250,-111.111111111111,3,2,2,70,0,0
151898,-142.857142857143,3,3,3,80,0,0
151979,-142.857142857143,3,2,2,80,0,0
152871,-125,3,3,3,90,0,0
152952,-125,3,2,2,90,0,0
153885,-125,3,3,2,5,0,0
154492,-499.999999999997,3,1,3,70,0,0
154736,-499.999999999997,3,3,2,5,0,0
154817,-100,3,1,3,90,0,1
156033,-100,3,3,2,5,0,1
156114,-100,3,1,3,90,0,1
157006,-100,3,3,2,5,0,1
157087,-100,3,1,3,90,0,1
157979,-100,3,3,2,5,0,1
158060,-100,3,1,3,90,0,1
163817,-100,3,3,2,5,0,1
163898,-100,3,1,3,90,0,1
164790,-100,3,3,2,5,0,1
164871,-100,3,1,3,90,0,1
166412,-100,3,3,2,5,0,1
166493,-100,3,1,3,90,0,1
166736,-100,3,3,2,5,0,1
166817,-100,3,1,3,90,0,1
167060,-100,3,3,2,5,0,1
167141,-100,3,1,3,90,0,1
167385,-100,3,3,2,5,0,1
167466,-100,3,1,3,90,0,1
167709,-100,3,3,2,5,0,1
167790,-100,3,1,3,90,0,1
168033,-100,3,3,2,5,0,1
168114,-100,3,1,3,90,0,1
168358,-100,3,3,2,5,0,1
168439,-100,3,1,3,90,0,1
168682,-100,3,3,2,5,0,1
168763,-100,3,1,3,90,0,1
169006,-100,3,3,2,5,0,1
169087,-100,3,1,3,90,0,1
169331,-100,3,3,2,5,0,1
169412,-100,3,1,3,90,0,1
169655,-100,3,3,2,5,0,1
169736,-100,3,1,3,90,0,1
170628,-100,3,3,2,5,0,1
170709,-100,3,1,3,90,0,1
170952,-100,3,3,2,5,0,1
171033,-100,3,1,3,90,0,1
171277,-100,3,3,2,5,0,1
171358,-100,3,1,3,90,0,1
171601,-100,3,3,2,5,0,1
171682,-100,3,1,3,90,0,1
172574,-100,3,3,2,5,0,1
172655,-100,3,1,3,90,0,1
173547,-100,3,3,2,5,0,1
173628,-100,3,1,3,90,0,1
174520,-100,3,3,2,5,0,1
174601,-100,3,1,3,90,0,1
175493,-100,3,3,2,5,0,1
175574,-100,3,1,3,90,0,1
176466,-100,3,3,2,5,0,1
176547,-100,3,1,3,90,0,1
177439,-100,3,3,2,5,0,1
177520,-100,3,1,3,90,0,1
178412,-100,3,3,2,5,0,1
178493,-100,3,1,3,90,0,1
179385,-100,3,3,2,5,0,1
179466,-100,3,1,3,90,0,1
180358,-100,3,3,2,5,0,1
180439,-100,3,1,3,90,0,1
181331,-100,3,3,2,5,0,1
181412,-100,3,1,3,90,0,1
182304,-100,3,3,2,5,0,1
182385,-100,3,1,3,90,0,1
183277,-100,3,3,2,5,0,1
183358,-100,3,1,3,90,0,1
184250,-100,3,3,2,5,0,1
184331,-100,3,1,3,70,0,1
184655,-100,3,1,3,75,0,1
184979,-100,3,1,3,80,0,1
185304,-100,3,1,3,85,0,1
185628,-100,3,1,3,90,0,1
185952,-1000,3,2,2,90,0,0
188466,-1000,3,3,2,5,0,0
188547,-142.857142857143,3,2,0,70,0,0
188790,-142.857142857143,3,3,2,5,0,0
188871,-142.857142857143,3,1,3,70,0,0
189844,-83.3333333333333,3,1,3,90,0,1
190087,-83.3333333333333,3,3,2,5,0,1
190169,-83.3333333333333,3,1,3,90,0,1
191709,-83.3333333333333,3,3,2,5,0,1
191791,-83.3333333333333,3,1,3,90,0,1
193006,-83.3333333333333,3,3,2,5,0,1
193088,-83.3333333333333,3,1,3,70,0,1
193169,-83.3333333333333,3,3,2,5,0,1
193250,-71.4285714285714,3,1,3,75,0,1
193331,-71.4285714285714,3,3,2,5,0,1
193412,-62.5,3,1,3,80,0,1
193493,-62.5,3,3,2,5,0,1
193574,-55.5555555555556,3,1,3,85,0,1
193655,-55.5555555555556,3,3,2,5,0,1
193736,-83.3333333333333,3,1,3,90,0,1
193979,-83.3333333333333,3,3,2,5,0,1
194061,-83.3333333333333,3,1,3,90,0,1
194142,-83.3333333333333,3,3,2,5,0,1
194224,-83.3333333333333,3,1,3,90,0,1
194304,-83.3333333333333,3,3,2,5,0,1
194386,-83.3333333333333,3,1,3,90,0,1
194628,-83.3333333333333,3,3,2,5,0,1
194710,-83.3333333333333,3,1,3,90,0,1
196250,-83.3333333333333,3,3,2,5,0,1
196332,-83.3333333333333,3,1,3,90,0,1
196412,-83.3333333333333,3,3,2,5,0,1
196494,-83.3333333333333,3,1,3,90,0,1
196574,-83.3333333333333,3,3,2,5,0,1
196656,-83.3333333333333,3,1,3,90,0,1
197871,-83.3333333333333,3,3,2,5,0,1
197953,-83.3333333333333,3,1,3,90,0,1
199493,-83.3333333333333,3,3,2,5,0,1
199575,-83.3333333333333,3,1,3,90,0,1
200790,-83.3333333333333,3,3,2,5,0,1
200872,-83.3333333333333,3,1,3,70,0,1
200952,-83.3333333333333,3,3,2,5,0,1
201033,-71.4285714285714,3,1,3,75,0,1
201114,-71.4285714285714,3,3,2,5,0,1
201195,-62.5,3,1,3,80,0,1
201277,-62.5,3,3,2,5,0,1
201357,-55.5555555555556,3,1,3,85,0,1
201439,-55.5555555555556,3,3,2,5,0,1
201519,-83.3333333333333,3,1,3,90,0,1
201763,-83.3333333333333,3,3,2,5,0,1
201844,-83.3333333333333,3,1,3,90,0,1
202250,-83.3333333333333,3,3,2,5,0,1
202332,-83.3333333333333,3,1,3,90,0,1
202412,-83.3333333333333,3,3,2,5,0,1
202494,-83.3333333333333,3,1,3,90,0,1
202736,-83.3333333333333,3,3,2,5,0,1
202818,-83.3333333333333,3,1,3,90,0,1
203223,-83.3333333333333,3,3,2,5,0,1
203305,-83.3333333333333,3,1,3,90,0,1
203385,-83.3333333333333,3,3,2,5,0,1
203467,-83.3333333333333,3,1,3,90,0,1
204033,-83.3333333333333,3,3,2,5,0,1
204115,-83.3333333333333,3,1,3,90,0,1
204844,-83.3333333333333,3,3,2,5,0,1
204925,-71.4285714285714,3,1,3,90,0,1
205006,-71.4285714285714,3,3,2,5,0,1
205087,-62.5,3,1,3,90,0,1
205169,-62.5,3,3,2,5,0,1
205249,-55.5555555555556,3,1,3,90,0,1
205331,-55.5555555555556,3,3,2,5,0,1
205412,-83.3333333333333,3,1,3,90,0,1
205979,-83.3333333333333,3,3,2,5,0,1
206061,-83.3333333333333,3,1,3,90,0,1
206142,-83.3333333333333,3,3,2,5,0,1
206224,-83.3333333333333,3,1,3,90,0,1
206304,-83.3333333333333,3,3,2,5,0,1
206386,-83.3333333333333,3,1,3,90,0,1
207601,-83.3333333333333,3,3,2,5,0,1
207683,-83.3333333333333,3,1,3,90,0,1
209223,-83.3333333333333,3,3,2,5,0,1
209305,-83.3333333333333,3,1,3,90,0,1
211169,-83.3333333333333,3,3,2,5,0,1
211251,-83.3333333333333,3,1,3,90,0,1
211817,-83.3333333333333,3,3,2,5,0,1
211899,-83.3333333333333,3,1,3,90,0,1
211979,-83.3333333333333,3,3,2,5,0,1
212061,-83.3333333333333,3,1,3,90,0,1
212142,-83.3333333333333,3,3,2,5,0,1
212224,-83.3333333333333,3,1,3,90,0,1
212709,-71.4285714285714,3,1,3,90,0,1
212790,-71.4285714285714,3,3,2,5,0,1
212872,-62.5,3,1,3,90,0,1
212952,-62.5,3,3,2,5,0,1
213034,-55.5555555555556,3,1,3,90,0,1
213114,-55.5555555555556,3,3,2,5,0,1
213196,-83.3333333333333,3,1,3,90,0,1
213763,-83.3333333333333,3,3,2,5,0,1
213845,-83.3333333333333,3,1,3,90,0,1
213925,-83.3333333333333,3,3,2,5,0,1
214007,-83.3333333333333,3,1,3,90,0,1
214087,-83.3333333333333,3,3,2,5,0,1
214169,-83.3333333333333,3,1,3,90,0,1
215385,-83.3333333333333,3,3,2,5,0,1
215467,-83.3333333333333,3,1,3,90,0,1
217006,-83.3333333333333,3,3,2,5,0,1
217088,-83.3333333333333,3,1,3,90,0,1
218385,-76.9230769230769,3,1,3,90,0,1
218709,-71.4285714285714,3,1,3,90,0,1
219277,-71.4285714285714,3,3,2,5,0,1
219358,-71.4285714285714,3,1,3,90,0,1
220006,-71.4285714285714,3,1,3,100,0,1
220979,-250,3,1,3,70,0,0
221871,-250,3,3,2,5,0,0
221952,-250,3,2,2,70,0,0
222844,-250,3,3,2,5,0,0
222925,-250,3,2,2,70,0,0
223817,-250,3,3,2,5,0,0
223898,-250,3,2,2,70,0,0
225763,-250,3,3,2,5,0,0
225844,-250,3,2,2,70,0,0
226736,-250,3,3,2,5,0,0
226817,-250,3,2,2,70,0,0
227709,-250,3,3,2,5,0,0
227790,-250,3,2,2,70,0,0
229331,-250,3,3,2,5,0,0
229412,-250,3,2,2,70,0,0
230628,-250,3,3,2,5,0,0
230709,-250,3,2,2,70,0,0
231601,-250,3,3,2,5,0,0
231682,-250,3,2,2,70,0,0
231925,-250,3,3,2,5,0,0
232006,-250,3,2,2,70,0,0
232574,-250,3,3,2,5,0,0
232655,-250,3,2,2,70,0,0
233547,-250,3,3,2,5,0,0
233628,-250,3,2,2,70,0,0
234520,-250,3,3,2,5,0,0
234601,-250,3,2,2,70,0,0
235493,-250,3,3,2,5,0,0
235574,-250,3,2,2,70,0,0
236466,-250,3,3,2,5,0,0
236547,-250,3,2,2,70,0,0
237439,-250,3,3,2,5,0,0
237520,-250,3,2,2,70,0,0
238412,-250,3,3,2,5,0,0
238493,-250,3,2,2,70,0,0
239385,-250,3,3,2,5,0,0
239466,-250,3,2,2,70,0,0
240358,-250,3,3,2,5,0,0
240439,-250,3,2,2,70,0,0
241331,-250,3,3,2,5,0,0
241412,-250,3,2,2,70,0,0
242304,-250,3,3,2,5,0,0
242385,-250,3,2,2,70,0,0
243277,-250,3,3,2,5,0,0
243358,-250,3,2,2,70,0,0
244331,-166.666666666667,3,2,2,70,0,0
244574,-166.666666666667,3,3,2,5,0,0
244655,-166.666666666667,3,2,2,70,0,0
245547,-166.666666666667,3,3,2,5,0,0
245628,-166.666666666667,3,2,2,70,0,0
247493,-166.666666666667,3,3,2,5,0,0
247574,-166.666666666667,3,2,2,70,0,0
248142,-166.666666666667,3,3,2,5,0,0
248223,-166.666666666667,3,2,2,70,0,0
248466,-166.666666666667,3,3,2,5,0,0
248547,-166.666666666667,3,2,2,70,0,0
249439,-166.666666666667,3,3,2,5,0,0
249520,-166.666666666667,3,2,2,70,0,0
251385,-166.666666666667,3,3,2,5,0,0
251466,-166.666666666667,3,2,2,70,0,0
251709,-166.666666666667,3,3,2,5,0,0
251790,-166.666666666667,3,2,2,70,0,0
252033,-166.666666666667,3,3,2,5,0,0
252114,-166.666666666667,3,2,2,70,0,0
252358,-166.666666666667,3,3,2,5,0,0
252439,-166.666666666667,3,2,2,70,0,0
253331,-166.666666666667,3,3,2,5,0,0
253412,-166.666666666667,3,2,2,70,0,0
255277,-166.666666666667,3,3,2,5,0,0
255358,-166.666666666667,3,2,2,70,0,0
255601,-166.666666666667,3,3,2,5,0,0
255682,-166.666666666667,3,2,2,70,0,0
255925,-166.666666666667,3,3,2,5,0,0
256006,-166.666666666667,3,2,2,70,0,0
256898,-166.666666666667,3,3,2,5,0,0
256979,-166.666666666667,3,2,2,70,0,0
257385,-166.666666666667,3,3,2,5,0,0
257466,-166.666666666667,3,2,2,70,0,0
258925,-166.666666666667,3,3,3,70,0,0
259169,-166.666666666667,3,3,2,5,0,0
259250,-166.666666666667,3,2,2,70,0,0
259412,-166.666666666667,3,3,3,70,0,0
259493,-166.666666666667,3,3,2,5,0,0
259574,-166.666666666667,3,2,2,70,0,0
259817,-125,3,3,2,5,0,0
259898,-125,3,2,2,70,0,0
260142,-125,3,3,2,5,0,0
260223,-125,3,2,2,70,0,0
260790,-125,3,3,2,5,0,0
260871,-125,3,3,3,70,0,0
260952,-125,3,2,2,70,0,0
261763,-125,3,3,2,5,0,0
261844,-125,3,2,2,70,0,0
262087,-125,3,3,2,5,0,0
262168,-125,3,2,2,70,0,0
262736,-125,3,3,2,5,0,0
262817,-125,3,3,3,70,0,0
262898,-125,3,2,2,70,0,0
263060,-125,3,3,2,5,0,0
263141,-125,3,2,2,70,0,0
263385,-125,3,3,2,5,0,0
263466,-125,3,2,2,70,0,0
263709,-125,3,3,2,5,0,0
263790,-125,3,2,3,70,0,0
264033,-125,3,3,2,5,0,0
264114,-125,3,2,2,70,0,0
264682,-125,3,3,2,5,0,0
264763,-125,3,3,3,70,0,0
264844,-125,3,2,2,70,0,0
265655,-125,3,3,2,5,0,0
265736,-125,3,2,2,70,0,0
266628,-125,3,3,2,5,0,0
266709,-125,3,3,3,70,0,0
266790,-125,3,2,2,70,0,0
266952,-125,3,3,2,5,0,0
267033,-125,3,2,2,70,0,0
267277,-125,3,3,2,5,0,0
267358,-125,3,2,2,70,0,0
267601,-125,3,3,2,5,0,0
267682,-125,3,2,3,70,0,0
267925,-125,3,3,2,5,0,0
268006,-125,3,2,2,70,0,0
268574,-125,3,3,2,5,0,0
268655,-125,3,3,3,70,0,0
268736,-125,3,2,2,70,0,0
269547,-125,3,3,2,5,0,0
269628,-125,3,2,2,70,0,0
269871,-125,3,3,2,5,0,0
269952,-125,3,2,2,70,0,0
270520,-125,3,3,2,5,0,0
270601,-125,3,3,3,70,0,0
270682,-125,3,2,2,70,0,0
270844,-125,3,3,2,5,0,0
270925,-125,3,2,2,70,0,0
271169,-125,3,3,2,5,0,0
271250,-125,3,2,2,70,0,0
271493,-125,3,3,2,5,0,0
271574,-125,3,3,3,70,0,0
271655,-125,3,2,2,70,0,0
271817,-125,3,3,2,5,0,0
271898,-125,3,2,2,70,0,0
272547,-125,3,3,3,70,0,0
272628,-125,3,2,2,70,0,0
273520,-125,3,3,3,70,0,0
273601,-125,3,2,2,70,0,0
275466,-333.333333333333,3,3,3,70,0,0
275547,-333.333333333333,3,2,2,70,0,0
276358,-333.333333333333,3,3,2,5,0,0
276439,-333.333333333333,3,2,2,70,0,0
277412,-333.333333333333,3,2,2,60,0,0
278385,-333.333333333333,3,2,2,50,0,0
280817,-333.333333333333,3,2,2,50,0,0
288114,-200,3,2,2,70,0,0
288439,-200,3,2,2,40,0,0
288520,-200,3,2,2,70,0,0
289655,-200,3,3,2,5,0,0
289736,-200,3,2,2,70,0,0
289979,-200,3,3,2,5,0,0
290060,-200,3,2,2,70,0,0
290385,-200,3,2,2,40,0,0
290466,-200,3,2,2,70,0,0
291601,-200,3,3,2,5,0,0
291682,-200,3,2,2,70,0,0
291925,-200,3,3,2,5,0,0
292006,-200,3,2,2,70,0,0
292331,-200,3,2,2,40,0,0
292412,-200,3,2,2,70,0,0
293547,-200,3,3,2,5,0,0
293628,-200,3,2,2,70,0,0
293871,-200,3,3,2,5,0,0
293952,-200,3,2,2,70,0,0
294277,-200,3,2,2,40,0,0
294358,-200,3,2,2,70,0,0
295493,-200,3,3,2,5,0,0
295574,-166.666666666667,3,2,2,70,0,0
295817,-166.666666666667,3,3,2,5,0,0
295898,-142.857142857143,3,2,2,70,0,0
296223,-142.857142857143,3,2,2,50,0,0
297358,-200,3,2,2,30,0,0
297439,-142.857142857143,3,2,2,50,0,0
297682,-142.857142857143,3,2,2,30,0,0
297763,-142.857142857143,3,2,2,50,0,0
299304,-142.857142857143,3,2,2,30,0,0
299385,-142.857142857143,3,2,2,50,0,0
299628,-142.857142857143,3,2,2,30,0,0
299709,-142.857142857143,3,2,2,50,0,0
301250,-142.857142857143,3,2,2,30,0,0
301331,-142.857142857143,3,2,2,50,0,0
301574,-142.857142857143,3,2,2,30,0,0
301655,-142.857142857143,3,2,2,50,0,0
303277,-142.857142857143,3,3,2,5,0,0
303358,-142.857142857143,3,2,2,70,0,0
303601,-142.857142857143,3,3,2,5,0,0
303682,-142.857142857143,3,2,2,70,0,0
304087,-142.857142857143,3,3,2,5,0,0
304168,-142.857142857143,3,2,2,70,0,0
304412,-142.857142857143,3,3,2,5,0,0
304493,-142.857142857143,3,2,2,70,0,0
305628,-333.333333333334,3,2,2,50,0,0
306520,-333.333333333334,3,3,2,5,0,0
306601,-333.333333333334,3,2,2,50,0,0
307493,-333.333333333334,3,3,2,5,0,0
307574,-333.333333333334,3,2,2,50,0,0
308466,-333.333333333334,3,3,2,5,0,0
308547,-333.333333333334,3,2,2,50,0,0
308790,-333.333333333334,3,3,2,5,0,0
308871,-250.000000000001,3,2,2,50,0,0
309114,-250.000000000001,3,3,2,5,0,0
309196,-200,3,2,2,50,0,0
309439,-200,3,3,2,5,0,0
309520,-333.333333333334,3,2,2,50,0,0
314304,-333.333333333334,3,3,2,5,0,0
314385,-333.333333333334,3,2,2,50,0,0
315277,-333.333333333334,3,3,2,5,0,0
315358,-333.333333333334,3,2,2,50,0,0
316655,-200,3,2,2,50,0,0
316898,-200,3,3,2,5,0,0
316979,-142.857142857143,3,2,2,50,0,0
317223,-142.857142857143,3,3,2,5,0,0
317304,-333.333333333334,3,2,2,50,0,0
319655,-333.333333333334,3,3,2,5,0,0
319736,-333.333333333334,3,2,2,50,0,0
320142,-333.333333333334,3,3,2,5,0,0
320223,-166.666666666667,3,3,3,70,0,0
320304,-166.666666666667,3,2,2,70,0,0
321196,-125,3,2,2,70,0,0
322412,-83.3333333333333,3,3,2,5,0,0
322493,-100,3,2,2,70,0,0
322736,-100,3,3,2,5,0,0
322817,-83.3333333333333,3,2,2,70,0,0
323060,-83.3333333333333,3,3,2,5,0,0
323142,-83.3333333333333,3,2,2,70,0,0
323466,-125,3,2,2,70,0,0
324114,-83.3333333333333,3,2,2,70,0,0
324358,-83.3333333333333,3,3,2,5,0,0
324439,-100,3,2,2,70,0,0
324682,-100,3,3,2,5,0,0
324763,-125,3,2,2,70,0,0
325006,-125,3,3,2,5,0,0
325087,-83.3333333333333,3,3,2,5,0,0
325088,-83.3333333333333,3,2,2,70,0,0
325412,-125,3,2,2,70,0,0
326304,-125,3,3,2,5,0,0
326385,-100,3,2,2,70,0,0
326628,-100,3,3,2,5,0,0
326709,-83.3333333333333,3,2,2,70,0,0
326952,-83.3333333333333,3,3,2,5,0,0
327034,-83.3333333333333,3,2,2,70,0,0
327358,-125,3,2,2,70,0,0
328006,-83.3333333333333,3,2,2,70,0,0
328250,-83.3333333333333,3,3,2,5,0,0
328331,-100,3,2,2,70,0,0
328574,-100,3,3,2,5,0,0
328655,-125,3,2,2,70,0,0
328898,-125,3,3,2,5,0,0
328979,-83.3333333333333,3,3,2,5,0,0
328980,-83.3333333333333,3,2,2,70,0,0
329304,-125,3,2,2,70,0,0
330196,-125,3,3,2,5,0,0
330277,-100,3,2,2,70,0,0
330520,-100,3,3,2,5,0,0
330601,-83.3333333333333,3,2,2,70,0,0
330844,-83.3333333333333,3,3,2,5,0,0
330926,-83.3333333333333,3,2,2,70,0,0
331250,-125,3,2,2,70,0,0
331898,-83.3333333333333,3,2,2,70,0,0
332142,-83.3333333333333,3,3,2,5,0,0
332223,-100,3,2,2,70,0,0
332466,-100,3,3,2,5,0,0
332547,-125,3,2,2,70,0,0
332790,-125,3,3,2,5,0,0
332871,-83.3333333333333,3,2,2,70,0,0
333196,-125,3,2,2,70,0,0
334087,-125,3,3,2,5,0,0
334169,-100,3,2,2,70,0,0
334412,-100,3,3,2,5,0,0
334493,-83.3333333333333,3,2,2,70,0,0
334736,-83.3333333333333,3,3,2,5,0,0
334818,-83.3333333333333,3,2,2,70,0,0
335142,-125,3,2,2,70,0,0
336033,-125,3,3,2,5,0,0
336114,-333.333333333333,3,2,2,70,0,0
336925,-333.333333333333,3,3,2,5,0,0
337006,-333.333333333333,3,2,2,60,0,0
338628,-333.333333333333,3,3,2,5,0,0
338709,-333.333333333333,3,2,2,60,0,0
339601,-333.333333333333,3,3,2,5,0,0
339682,-333.333333333333,3,2,2,30,0,0
339763,-333.333333333333,3,2,2,60,0,0
339925,-142.857142857143,3,2,2,60,0,0
340169,-333.333333333333,3,2,2,30,0,0
340250,-333.333333333333,3,2,2,60,0,0
340979,-333.333333333333,3,2,2,30,0,0
341060,-333.333333333333,3,2,2,60,0,0
341304,-333.333333333333,3,2,2,30,0,0
341385,-333.333333333333,3,2,2,60,0,0
341628,-333.333333333333,3,2,2,30,0,0
341709,-333.333333333333,3,2,2,60,0,0
342114,-333.333333333333,3,2,2,30,0,0
342195,-333.333333333333,3,2,2,60,0,0
342925,-333.333333333333,3,2,2,30,0,0
343006,-333.333333333333,3,2,2,60,0,0
343250,-333.333333333333,3,2,2,30,0,0
343331,-333.333333333333,3,2,2,60,0,0
343574,-333.333333333333,3,2,2,30,0,0
343655,-333.333333333333,3,2,2,60,0,0
344060,-333.333333333333,3,2,2,30,0,0
344141,-333.333333333333,3,2,2,60,0,0
344871,-333.333333333333,3,2,2,30,0,0
344952,-333.333333333333,3,2,2,60,0,0
345196,-333.333333333333,3,2,2,30,0,0
345277,-333.333333333333,3,2,2,60,0,0
345520,-333.333333333333,3,2,2,30,0,0
345601,-333.333333333333,3,2,2,60,0,0
346006,-333.333333333333,3,2,2,30,0,0
346087,-333.333333333333,3,2,2,60,0,0
346817,-333.333333333333,3,2,2,30,0,0
346898,-333.333333333333,3,2,2,60,0,0
347142,-333.333333333333,3,2,2,30,0,0
347223,-333.333333333333,3,2,2,60,0,0
347466,-333.333333333333,3,2,2,30,0,0
347547,-333.333333333333,3,2,2,60,0,0
347952,-333.333333333333,3,2,2,30,0,0
348033,-333.333333333333,3,2,2,60,0,0
348763,-333.333333333333,3,2,2,30,0,0
348844,-333.333333333333,3,2,2,60,0,0
349087,-333.333333333333,3,2,2,30,0,0
349168,-333.333333333333,3,2,2,60,0,0
349412,-333.333333333333,3,2,2,30,0,0
349493,-333.333333333333,3,2,2,60,0,0
349898,-333.333333333333,3,2,2,30,0,0
349979,-333.333333333333,3,2,2,60,0,0
350709,-333.333333333333,3,2,2,30,0,0
350790,-333.333333333333,3,2,2,60,0,0
351033,-333.333333333333,3,2,2,30,0,0
351114,-333.333333333333,3,2,2,60,0,0
351358,-333.333333333333,3,2,2,30,0,0
351439,-333.333333333333,3,2,2,60,0,0
351844,-333.333333333333,3,2,2,30,0,0
351925,-333.333333333333,3,2,2,60,0,0
352331,-333.333333333333,3,3,3,70,0,0
352412,-333.333333333333,3,2,2,70,0,0
352736,-333.333333333333,3,3,2,5,0,0
352817,-333.333333333333,3,2,2,70,0,0
353304,-125,3,2,2,70,0,0
354033,-125,3,3,2,5,0,0
354114,-125,3,2,2,70,0,0
357925,-125,3,3,2,5,0,0
358006,-125,3,2,2,70,0,0
359871,-125,3,3,2,5,0,0
359952,-125,3,2,2,70,0,0
361817,-125,3,3,2,5,0,0
361898,-125,3,2,2,70,0,0
365709,-125,3,3,2,5,0,0
365790,-125,3,2,2,70,0,0
366925,-333.333333333333,3,2,2,70,0,0
367331,-333.333333333333,3,3,2,5,0,0
367412,-125,3,3,3,70,0,0
367493,-125,3,2,2,70,0,0
367655,-125,3,3,2,5,0,0
367736,-125,3,2,2,70,0,0
367898,-125,3,3,3,70,0,0
367979,-125,3,3,2,70,0,0
368142,-125,3,3,3,70,0,0
369114,-125,3,3,2,5,0,0
369196,-125,3,2,2,70,0,0
370087,-125,3,3,2,5,0,0
370169,-125,3,2,2,70,0,0
370412,-125,3,3,2,5,0,0
370494,-125,3,2,2,70,0,0
370736,-125,3,3,2,5,0,0
370818,-125,3,2,2,70,0,0
371060,-125,3,3,2,5,0,0
371142,-125,3,2,2,70,0,0
372033,-125,3,3,2,5,0,0
372115,-125,3,2,2,70,0,0
372763,-125,3,2,3,70,0,0
372844,-125,3,2,2,70,0,0
373006,-125,3,3,2,5,0,0
373088,-125,3,2,2,70,0,0
373979,-125,3,3,2,5,0,0
374061,-125,3,2,2,70,0,0
374304,-125,3,3,2,5,0,0
374386,-125,3,2,2,70,0,0
374628,-125,3,3,2,5,0,0
374710,-125,3,2,2,70,0,0
374952,-125,3,3,2,5,0,0
375034,-125,3,2,2,70,0,0
375925,-125,3,3,2,5,0,0
376007,-125,3,2,2,70,0,0
376250,-125,3,3,2,5,0,0
376332,-125,3,2,2,70,0,0
376655,-333.333333333333,3,2,3,70,0,0
376736,-333.333333333333,3,2,2,70,0,0
377060,-333.333333333333,3,3,2,5,0,0
377142,-125,3,2,2,70,0,0
377385,-125,3,3,2,5,0,0
377467,-125,3,2,2,70,0,0
377871,-125,3,3,2,5,0,0
377953,-125,3,2,2,70,0,0
378196,-125,3,3,2,5,0,0
378278,-125,3,2,2,70,0,0
378520,-125,3,3,2,5,0,0
378602,-125,3,2,2,70,0,0
378844,-125,3,3,2,5,0,0
378926,-125,3,2,2,70,0,0
379817,-125,3,3,2,5,0,0
379899,-125,3,2,2,70,0,0
380060,-125,3,3,3,70,0,0
380547,-90.9090909090909,3,3,3,80,0,0
380790,-90.9090909090909,3,3,2,5,0,0
380871,-90.9090909090909,3,3,3,80,0,0
381277,-90.9090909090909,3,3,2,5,0,0
381358,-90.9090909090909,3,2,2,80,0,0
381439,-90.9090909090909,3,2,3,80,0,0
381844,-90.9090909090909,3,2,2,80,0,0
382493,-76.9230769230769,3,2,3,80,0,0
383790,-125,3,2,3,80,0,0
384682,-125,3,3,2,5,0,0
384763,-125,3,2,2,70,0,0
385412,-125,3,3,3,70,0,0
385493,-125,3,2,2,70,0,0
385655,-125,3,3,2,5,0,0
385736,-125,3,2,2,70,0,0
385817,-125,3,3,2,5,0,0
385898,-111.111111111111,3,2,2,70,0,0
385979,-111.111111111111,3,3,2,5,0,0
386060,-100,3,2,2,70,0,0
386142,-100,3,3,2,5,0,0
386223,-90.9090909090909,3,2,2,70,0,0
386304,-90.9090909090909,3,3,2,5,0,0
386385,-125,3,2,2,70,0,0
386628,-125,3,3,2,5,0,0
386709,-125,3,2,2,70,0,0
387601,-125,3,3,2,5,0,0
387682,-125,3,2,2,70,0,0
388331,-76.9230769230769,3,2,2,80,0,0
389547,-76.9230769230769,3,3,2,5,0,0
389628,-76.9230769230769,3,2,2,70,0,0
389871,-76.9230769230769,3,3,2,5,0,0
389952,-76.9230769230769,3,2,2,70,0,0
390196,-76.9230769230769,3,3,2,5,0,0
390277,-125,3,2,2,70,0,0
390520,-125,3,3,2,5,0,0
390601,-125,3,2,2,70,0,0
391493,-125,3,3,2,5,0,0
391574,-125,3,2,2,70,0,0
391898,-125,3,3,3,70,0,0
391979,-125,3,2,2,70,0,0
392060,-125,3,3,3,70,0,0
392141,-125,3,2,2,70,0,0
392223,-111.111111111111,3,1,3,70,0,0
392304,-111.111111111111,3,2,2,70,0,0
392628,-111.111111111111,3,3,2,5,0,0
392709,-111.111111111111,3,2,2,70,0,0
392952,-111.111111111111,3,3,2,5,0,0
393033,-111.111111111111,3,2,2,70,0,0
394574,-111.111111111111,3,3,2,5,0,0
394655,-111.111111111111,3,2,2,70,0,0
394898,-111.111111111111,3,3,2,5,0,0
394979,-111.111111111111,3,2,2,70,0,0
396114,-111.111111111111,3,1,3,70,0,0
396196,-111.111111111111,3,2,2,70,0,0
396520,-111.111111111111,3,3,2,5,0,0
396601,-111.111111111111,3,2,2,70,0,0
396844,-111.111111111111,3,3,2,5,0,0
396925,-111.111111111111,3,2,2,70,0,0
398466,-111.111111111111,3,3,2,5,0,0
398547,-111.111111111111,3,2,2,70,0,0
398790,-111.111111111111,3,3,2,5,0,0
398871,-111.111111111111,3,2,2,70,0,0
400006,-76.9230769230769,3,3,3,80,0,0
400087,-76.9230769230769,3,2,2,80,0,0
400250,-76.9230769230769,3,3,2,5,0,0
400331,-76.9230769230769,3,2,2,80,0,0
400493,-76.9230769230769,3,3,3,80,0,0
400574,-76.9230769230769,3,2,2,80,0,0
400736,-76.9230769230769,3,3,2,5,0,0
400817,-76.9230769230769,3,2,2,80,0,0
400979,-76.9230769230769,3,3,3,80,0,0
401060,-76.9230769230769,3,2,2,80,0,0
401223,-76.9230769230769,3,3,2,5,0,0
401304,-76.9230769230769,3,2,2,80,0,0
401547,-76.9230769230769,3,3,2,5,0,0
401628,-76.9230769230769,3,2,2,80,0,0
401871,-76.9230769230769,3,3,2,5,0,0
401952,-76.9230769230769,3,3,3,80,0,0
402601,-76.9230769230769,3,3,3,90,0,0
403898,-76.9230769230769,3,2,2,70,0,0
404790,-76.9230769230769,3,3,3,70,0,0
405844,-100,3,1,3,90,0,1
407060,-100,3,3,2,5,0,1
407142,-100,3,1,3,90,0,1
408033,-100,3,3,2,5,0,1
408115,-100,3,1,3,90,0,1
409006,-100,3,3,2,5,0,1
409088,-100,3,1,3,90,0,1
414844,-100,3,3,2,5,0,1
414926,-100,3,1,3,90,0,1
415817,-100,3,3,2,5,0,1
415899,-100,3,1,3,90,0,1
417439,-100,3,3,2,5,0,1
417521,-100,3,1,3,90,0,1
417763,-100,3,3,2,5,0,1
417845,-100,3,1,3,90,0,1
418087,-100,3,3,2,5,0,1
418169,-100,3,1,3,90,0,1
418412,-100,3,3,2,5,0,1
418494,-100,3,1,3,90,0,1
418736,-100,3,3,2,5,0,1
418818,-100,3,1,3,90,0,1
419060,-100,3,3,2,5,0,1
419142,-100,3,1,3,90,0,1
419385,-100,3,3,2,5,0,1
419467,-100,3,1,3,90,0,1
419709,-100,3,3,2,5,0,1
419791,-100,3,1,3,90,0,1
420033,-100,3,3,2,5,0,1
420115,-100,3,1,3,90,0,1
420358,-100,3,3,2,5,0,1
420440,-100,3,1,3,90,0,1
420682,-100,3,3,2,5,0,1
420764,-100,3,1,3,90,0,1
421655,-100,3,3,2,5,0,1
421737,-100,3,1,3,90,0,1
421979,-100,3,3,2,5,0,1
422061,-100,3,1,3,90,0,1
422304,-100,3,3,2,5,0,1
422386,-100,3,1,3,90,0,1
422628,-100,3,3,2,5,0,1
422710,-100,3,1,3,90,0,1
423601,-100,3,3,2,5,0,1
423683,-100,3,1,3,90,0,1
424574,-100,3,3,2,5,0,1
424656,-100,3,1,3,90,0,1
425547,-100,3,3,2,5,0,1
425629,-100,3,1,3,90,0,1
426520,-100,3,3,2,5,0,1
426602,-100,3,1,3,90,0,1
427493,-100,3,3,2,5,0,1
427575,-100,3,1,3,90,0,1
428466,-100,3,3,2,5,0,1
428548,-100,3,1,3,90,0,1
429439,-100,3,3,2,5,0,1
429521,-100,3,1,3,90,0,1
430412,-100,3,3,2,5,0,1
430494,-100,3,1,3,90,0,1
431385,-100,3,3,2,5,0,1
431467,-100,3,1,3,90,0,1
432358,-100,3,3,2,5,0,1
432440,-100,3,1,3,90,0,1
433331,-100,3,3,2,5,0,1
433413,-100,3,1,3,90,0,1
434304,-100,3,3,2,5,0,1
434386,-100,3,1,3,90,0,1
435277,-100,3,3,2,5,0,1
435359,-100,3,1,3,70,0,1
435682,-100,3,1,3,75,0,1
436006,-100,3,1,3,80,0,1
436331,-100,3,1,3,85,0,1
436655,-100,3,1,3,90,0,1
436979,-100,3,2,2,70,0,0
437020,-250,3,3,2,5,0,0
437466,-250,3,1,3,70,0,0
437871,-250,3,3,2,5,0,0
437952,-83.3333333333333,3,1,3,90,0,1
438196,-83.3333333333333,3,3,2,5,0,1
438277,-83.3333333333333,3,1,3,90,0,1
439817,-83.3333333333333,3,3,2,5,0,1
439898,-83.3333333333333,3,1,3,90,0,1
441114,-83.3333333333333,3,3,2,5,0,1
441195,-83.3333333333333,3,1,3,70,0,1
441277,-83.3333333333333,3,3,2,5,0,1
441358,-71.4285714285714,3,1,3,75,0,1
441439,-71.4285714285714,3,3,2,5,0,1
441520,-62.5,3,1,3,80,0,1
441601,-62.5,3,3,2,5,0,1
441682,-55.5555555555556,3,1,3,85,0,1
441763,-55.5555555555556,3,3,2,5,0,1
441844,-83.3333333333333,3,1,3,90,0,1
442087,-83.3333333333333,3,3,2,5,0,1
442168,-83.3333333333333,3,1,3,90,0,1
442250,-83.3333333333333,3,3,2,5,0,1
442331,-83.3333333333333,3,1,3,90,0,1
442412,-83.3333333333333,3,3,2,5,0,1
442493,-83.3333333333333,3,1,3,90,0,1
442736,-83.3333333333333,3,3,2,5,0,1
442817,-83.3333333333333,3,1,3,90,0,1
444520,-83.3333333333333,3,3,2,5,0,1
444601,-83.3333333333333,3,1,3,90,0,1
444682,-83.3333333333333,3,3,2,5,0,1
444763,-83.3333333333333,3,1,3,90,0,1
445979,-83.3333333333333,3,3,2,5,0,1
446060,-83.3333333333333,3,1,3,90,0,1
447601,-83.3333333333333,3,3,2,5,0,1
447682,-83.3333333333333,3,1,3,90,0,1
448898,-83.3333333333333,3,3,2,5,0,1
448979,-83.3333333333333,3,1,3,70,0,1
449060,-83.3333333333333,3,3,2,5,0,1
449142,-71.4285714285714,3,1,3,75,0,1
449223,-71.4285714285714,3,3,2,5,0,1
449304,-62.5,3,1,3,80,0,1
449385,-62.5,3,3,2,5,0,1
449466,-55.5555555555556,3,1,3,85,0,1
449547,-55.5555555555556,3,3,2,5,0,1
449628,-83.3333333333333,3,1,3,90,0,1
449871,-83.3333333333333,3,3,2,5,0,1
449952,-83.3333333333333,3,1,3,90,0,1
450358,-83.3333333333333,3,3,2,5,0,1
450439,-83.3333333333333,3,1,3,90,0,1
450520,-83.3333333333333,3,3,2,5,0,1
450601,-83.3333333333333,3,1,3,90,0,1
450844,-83.3333333333333,3,3,2,5,0,1
450925,-83.3333333333333,3,1,3,90,0,1
451331,-83.3333333333333,3,3,2,5,0,1
451412,-83.3333333333333,3,1,3,90,0,1
451493,-83.3333333333333,3,3,2,5,0,1
451574,-83.3333333333333,3,1,3,90,0,1
452142,-83.3333333333333,3,3,2,5,0,1
452223,-83.3333333333333,3,1,3,90,0,1
452952,-83.3333333333333,3,3,2,5,0,1
453033,-71.4285714285714,3,1,3,90,0,1
453114,-71.4285714285714,3,3,2,5,0,1
453195,-62.5,3,1,3,90,0,1
453277,-62.5,3,3,2,5,0,1
453357,-55.5555555555556,3,1,3,90,0,1
453439,-55.5555555555556,3,3,2,5,0,1
453520,-83.3333333333333,3,1,3,90,0,1
453925,-83.3333333333333,3,3,2,5,0,1
454006,-83.3333333333333,3,1,3,90,0,1
454087,-83.3333333333333,3,3,2,5,0,1
454168,-83.3333333333333,3,1,3,90,0,1
454250,-83.3333333333333,3,3,2,5,0,1
454331,-83.3333333333333,3,1,3,90,0,1
454412,-83.3333333333333,3,3,2,5,0,1
454493,-83.3333333333333,3,1,3,90,0,1
455709,-83.3333333333333,3,3,2,5,0,1
455790,-83.3333333333333,3,1,3,90,0,1
457331,-83.3333333333333,3,3,2,5,0,1
457412,-83.3333333333333,3,1,3,90,0,1
459277,-83.3333333333333,3,3,2,5,0,1
459358,-83.3333333333333,3,1,3,90,0,1
459925,-83.3333333333333,3,3,2,5,0,1
460006,-83.3333333333333,3,1,3,90,0,1
460087,-83.3333333333333,3,3,2,5,0,1
460168,-83.3333333333333,3,1,3,90,0,1
460250,-83.3333333333333,3,3,2,5,0,1
460331,-83.3333333333333,3,1,3,90,0,1
460736,-83.3333333333333,3,3,2,5,0,1
460817,-71.4285714285714,3,1,3,90,0,1
460898,-71.4285714285714,3,3,2,5,0,1
460979,-62.5,3,1,3,90,0,1
461060,-62.5,3,3,2,5,0,1
461141,-55.5555555555556,3,1,3,90,0,1
461223,-55.5555555555556,3,3,2,5,0,1
461304,-83.3333333333333,3,1,3,90,0,1
461709,-83.3333333333333,3,3,2,5,0,1
461790,-83.3333333333333,3,1,3,90,0,1
461871,-83.3333333333333,3,3,2,5,0,1
461952,-83.3333333333333,3,1,3,90,0,1
462033,-83.3333333333333,3,3,2,5,0,1
462114,-83.3333333333333,3,1,3,90,0,1
462196,-83.3333333333333,3,3,2,5,0,1
462277,-83.3333333333333,3,1,3,90,0,1
463493,-83.3333333333333,3,3,2,5,0,1
463574,-83.3333333333333,3,1,3,90,0,1
465114,-83.3333333333333,3,3,2,5,0,1
465195,-83.3333333333333,3,1,3,90,0,1
466493,-76.9230769230769,3,1,3,90,0,1
466817,-71.4285714285714,3,1,3,90,0,1
467385,-71.4285714285714,3,3,2,5,0,1
467466,-71.4285714285714,3,1,3,90,0,1
467871,-71.4285714285714,3,3,2,5,0,1
467952,-71.4285714285714,3,1,3,90,0,1
468114,-71.4285714285714,3,1,3,100,0,1
469086,428.571428571429,3,2,2,70,1,0
469086,-500,3,2,2,70,0,0
471551,-500,3,3,2,5,0,0
471657,422.535211267606,3,2,2,70,1,0
471657,-1000,3,2,2,80,0,0
474086,-1000,3,3,2,5,0,0
474192,-1000,3,2,2,70,0,0
476621,-1000,3,3,2,5,0,0
476727,-1000,3,2,2,70,0,0
478734,-1000,3,3,2,5,0,0
478840,-333.333333333333,3,2,2,40,0,0
479579,-333.333333333333,3,3,2,5,0,0
479685,422.535211267606,3,2,2,40,1,0
479685,-333.333333333333,3,2,2,40,0,0
480424,-333.333333333333,3,3,2,5,0,0
480530,-333.333333333333,3,2,2,40,0,0
480846,-333.333333333333,3,3,2,5,0,0
480952,-333.333333333333,3,2,2,40,0,0
481692,-333.333333333333,3,3,2,5,0,0
481798,-333.333333333333,3,2,2,40,0,0
482114,-333.333333333333,3,3,2,5,0,0
482220,-333.333333333333,3,2,2,40,0,0
482537,-333.333333333333,3,3,2,5,0,0
482643,-333.333333333333,3,2,2,40,0,0
483487,-333.333333333333,3,3,2,5,0,0
483593,-333.333333333333,3,2,2,40,0,0
486339,-333.333333333333,3,3,2,5,0,0
486445,-333.333333333333,3,2,2,40,0,0
486762,-333.333333333333,3,3,2,5,0,0
486868,-333.333333333333,3,2,2,40,0,0
487185,-333.333333333333,3,3,2,5,0,0
487291,-333.333333333333,3,2,2,40,0,0
488135,-333.333333333333,3,3,2,5,0,0
488241,-333.333333333333,3,2,2,40,0,0
489720,-333.333333333333,3,3,2,5,0,0
489826,-333.333333333333,3,2,2,40,0,0
490565,-333.333333333333,3,3,2,5,0,0
490671,-333.333333333333,3,2,2,40,0,0
490987,-333.333333333333,3,3,2,5,0,0
491093,-333.333333333333,3,2,2,40,0,0
491410,-333.333333333333,3,3,2,5,0,0
491516,-333.333333333333,3,2,2,40,0,0
491832,-333.333333333333,3,3,2,5,0,0
491938,-333.333333333333,3,2,2,40,0,0
492255,-333.333333333333,3,3,2,5,0,0
492361,-333.333333333333,3,2,2,40,0,0
493206,-333.333333333333,3,3,2,5,0,0
493312,-333.333333333333,3,2,2,40,0,0
494790,-333.333333333333,3,3,2,5,0,0
494896,-333.333333333333,3,2,2,40,0,0
498699,-125,3,2,2,40,0,0
498804,-1000,3,2,2,40,0,0
500705,-333.333333333333,3,3,2,5,0,0
500811,422.535211267606,3,2,2,40,1,0
500811,-333.333333333333,3,2,2,40,0,0
505775,-333.333333333333,3,3,2,5,0,0
505881,-333.333333333333,3,2,2,40,0,0
510846,-333.333333333333,3,3,2,5,0,0
510952,-333.333333333333,3,2,2,40,0,0
515916,-333.333333333333,3,3,2,5,0,0
516022,-333.333333333333,3,2,2,40,0,0
520987,-333.333333333333,3,3,2,5,0,0
521093,-333.333333333333,3,2,2,40,0,0
526057,-333.333333333333,3,3,2,5,0,0
526163,-500,3,2,2,40,0,0
527747,-500,3,3,2,5,0,0
527853,-1000,3,2,2,40,0,0
529437,-1000,3,3,2,5,0,0
529543,-500,3,2,2,40,0,0
531127,-500,3,3,2,5,0,0
531233,-500,3,2,2,40,0,0
533663,-500,3,3,2,5,0,0
533768,-500,3,2,2,50,0,0
537571,-500,3,3,2,5,0,0

[Colours]
Combo1 : 14,171,85
Combo2 : 143,143,143
Combo3 : 248,137,16
Combo4 : 0,154,187

[HitObjects]
55,77,115,6,0,P|122:39|192:49,1,136,2|0,0:3|0:0,0:0:0:0:
277,134,1087,2,0,P|333:169|381:169,1,102,0|0,0:0|0:0,0:0:0:0:
401,171,1736,1,0,0:0:0:0:
277,134,2060,2,0,P|195:167|137:265,1,204,0|0,0:0|0:0,0:0:0:0:
137,262,3682,5,2,0:3:0:0:
297,295,4006,1,2,0:3:0:0:
298,295,4655,6,0,P|253:306|229:322,1,68,0|0,0:0|0:0,0:0:0:0:
323,221,5466,2,0,L|359:236,1,34,0|0,0:0|0:0,0:0:0:0:
264,152,5952,1,0,0:0:0:0:
264,152,6925,2,0,L|76:129,1,187,2|0,0:0|0:0,0:0:0:0:
61,127,7898,6,0,P|96:185|79:258,1,136,2|0,0:3|0:0,0:0:0:0:
28,362,8871,1,2,0:0:0:0:
149,313,9196,1,0,0:0:0:0:
270,362,9520,1,0,0:0:0:0:
391,313,9844,2,0,P|426:307|470:311,1,68,2|2,0:0|0:0,0:0:0:0:
300,209,10493,1,2,0:0:0:0:
300,209,10817,6,0,P|269:197|175:190,1,119,2|0,0:0|0:0,0:0:0:0:
167,191,11466,1,2,0:3:0:0:
221,113,11628,1,0,0:0:0:0:
234,276,11790,1,2,0:3:0:0:
234,276,12114,2,0,L|277:270,1,34,0|0,0:0|0:0,0:0:0:0:
357,308,12439,2,0,L|400:314,1,34,0|0,0:0|0:0,0:0:0:0:
480,279,12763,2,0,P|473:241|477:204,2,68,2|0|0,0:0|0:0|0:0,0:0:0:0:
390,122,13736,6,0,L|319:114,1,68,2|0,0:3|0:0,0:0:0:0:
167,94,14223,1,0,0:0:0:0:
327,126,14385,1,0,0:0:0:0:
164,84,14547,1,0,0:0:0:0:
332,136,14709,1,0,0:0:0:0:
301,230,15033,5,2,0:0:0:0:
368,47,15196,1,2,0:0:0:0:
293,235,15358,1,2,0:0:0:0:
376,43,15520,1,2,0:0:0:0:
286,239,15682,1,2,0:0:0:0:
404,252,16006,5,2,0:0:0:0:
176,225,16169,1,2,0:0:0:0:
408,260,16331,1,2,0:0:0:0:
173,216,16493,1,2,0:0:0:0:
410,122,16655,1,2,0:0:0:0:
281,318,16979,5,2,0:0:0:0:
332,136,17304,1,2,0:3:0:0:
176,225,17628,6,0,P|112:193|99:129,1,140.24999571991,2|0,0:3|0:0,0:0:0:0:
105,119,18601,2,0,P|115:185|67:233,1,140.24999571991,2|0,0:0|0:0,0:0:0:0:
55,239,19574,2,0,P|107:213|165:236,1,114.749996498108,2|0,0:0|0:0,0:0:0:0:
170,243,20385,2,0,L|178:255,3,8.49999974060059,2|2|2|2,0:0|0:0|0:0|0:0,0:0:0:0:
242,39,21520,6,0,P|271:71|371:78,1,140.24999571991,2|0,0:3|0:0,0:0:0:0:
375,78,22493,2,0,P|343:107|336:207,1,140.24999571991,2|0,0:0|0:0,0:0:0:0:
339,210,23466,2,0,P|310:178|231:167,1,114.749996498108,2|0,0:0|0:0,0:0:0:0:
150,188,24330,6,0,L|116:199,2,31.1666676177979,2|2|2,0:0|0:0|0:0,0:0:0:0:
209,257,24546,6,0,L|177:305,2,50.9999984436036,2|2|2,0:0|0:0|0:0,0:0:0:0:
287,308,24871,6,0,L|296:358,2,39.6666654561361,2|2|2,0:0|0:0|0:3,0:0:0:0:
378,321,25195,6,0,L|402:359,1,28.3333333333333,2|2,0:0|0:0,0:0:0:0:
374,223,25411,6,0,L|387:225,1,8.49999974060059,2|0,0:3|0:0,0:0:0:0:
331,148,26384,2,0,L|318:146,2,8.49999974060059,2|2|2,0:0|0:0|0:0,0:0:0:0:
386,69,27358,2,0,P|349:65|326:56,1,50.9999984436036,2|2,0:0|0:0,0:0:0:0:
241,32,27844,5,2,0:0:0:0:
226,130,28006,1,2,0:0:0:0:
336,60,28169,1,2,0:0:0:0:
207,142,28331,1,2,0:0:0:0:
85,102,28979,5,2,0:0:0:0:
207,142,29141,1,2,0:0:0:0:
328,181,29304,1,2,0:3:0:0:
336,60,29952,5,2,0:0:0:0:
207,142,30114,1,2,0:0:0:0:
277,287,30276,2,0,P|260:276|240:268,1,42.5,2|0,0:0|0:0,0:0:0:0:
376,283,30600,2,0,P|387:266|395:246,1,42.5,2|0,0:0|0:0,0:0:0:0:
239,267,30925,2,0,P|245:288|254:307,1,42.5,2|0,0:0|0:0,0:0:0:0:
394,245,31249,2,0,P|389:225|380:206,1,42.5,2|0,0:0|0:0,0:0:0:0:
257,84,31573,5,2,0:0:0:0:
380,206,31736,1,2,0:0:0:0:
352,35,31898,1,2,0:0:0:0:
274,189,32060,1,2,0:0:0:0:
427,110,32222,1,4,0:0:0:0:
257,84,32546,5,0,0:0:0:0:
87,58,32871,1,0,0:0:0:0:
280,114,33033,1,2,0:0:0:0:
280,114,33196,6,0,P|321:133|367:176,1,101.999996887207,4|0,0:3|0:0,0:0:0:0:
166,174,33844,1,2,0:0:0:0:
277,194,34169,2,0,P|303:230|321:291,1,101.999996887207,4|0,0:0|0:0,0:0:0:0:
166,174,34817,1,2,0:0:0:0:
234,261,35142,2,0,P|238:306|223:367,1,101.999996887207,4|0,0:3|0:0,0:0:0:0:
433,195,35627,5,2,0:0:0:0:
377,268,35790,1,2,0:0:0:0:
329,177,35952,1,2,0:0:0:0:
450,197,36114,1,8,0:3:0:0:
332,70,36438,5,2,0:0:0:0:
458,324,36763,1,2,0:0:0:0:
190,200,37087,6,0,P|225:180|270:127,1,101.999996887207,4|2,0:3|0:0,0:0:0:0:
94,177,37736,1,2,0:0:0:0:
166,245,38060,2,0,P|206:245|271:221,1,101.999996887207,4|2,0:0|0:0,0:0:0:0:
94,177,38709,1,2,0:0:0:0:
123,272,39033,2,0,P|157:292|215:303,1,76.4999976654053,4|0,0:3|0:0,0:0:0:0:
230,304,39357,6,0,L|304:298,2,50.9999984436036,2|2|2,0:0|0:0|0:0,0:0:0:0:
263,224,39682,6,0,L|333:230,2,39.6666654561361,2|2|2,0:0|0:0|0:0,0:0:0:0:
309,150,40006,6,0,L|337:152,2,28.3333333333333,2|2|2,0:0|0:0|0:0,0:0:0:0:
367,85,40331,6,0,L|383:89,2,16.9999994812012,2|2|2,0:0|0:0|0:0,0:0:0:0:
435,31,40655,6,0,L|441:32,2,5.66666666666667,2|2|2,0:0|0:0|0:0,0:0:0:0:
282,37,40979,6,0,P|261:73|216:115,1,101.999996887207,4|2,0:3|0:0,0:0:0:0:
56,150,41627,1,2,0:0:0:0:
309,166,41952,2,0,P|272:186|212:200,1,101.999996887207,4|2,0:0|0:0,0:0:0:0:
56,150,42600,1,2,0:0:0:0:
267,291,42925,2,0,P|224:289|165:271,1,101.999996887207,4|2,0:3|0:0,0:0:0:0:
319,235,43411,5,2,0:0:0:0:
351,318,43573,1,2,0:0:0:0:
278,367,43736,1,2,0:0:0:0:
321,150,43898,6,0,P|366:165|401:214,1,101.999996887207,8|0,0:3|0:0,0:0:0:0:
417,102,44546,5,2,0:0:0:0:
319,235,44709,1,2,0:0:0:0:
227,97,44871,2,0,P|208:52|215:-4,1,101.999996887207,4|0,0:3|0:0,0:0:0:0:
332,160,45519,5,2,0:0:0:0:
167,158,45682,1,2,0:0:0:0:
359,43,45844,2,0,L|424:52,1,50.9999984436036,4|0,0:0|0:0,0:0:0:0:
167,158,46168,2,0,L|102:167,1,50.9999984436036,2|0,0:0|0:0,0:0:0:0:
348,265,46492,2,0,L|413:274,1,50.9999984436036,2|0,0:0|0:0,0:0:0:0:
193,338,46763,2,0,L|166:348,2,16.9999994812012,0|4|0,0:0|0:3|0:0,0:0:0:0:
78,72,47141,5,2,0:0:0:0:
173,86,47303,1,2,0:0:0:0:
116,164,47466,1,2,0:0:0:0:
211,178,47628,1,2,0:0:0:0:
154,256,47790,2,0,L|119:303,1,59.4999981842042,8|0,0:3|0:0,0:0:0:0:
64,56,48114,5,2,0:0:0:0:
178,72,48276,1,2,0:0:0:0:
109,166,48439,1,2,0:0:0:0:
223,183,48601,1,2,0:0:0:0:
155,276,48763,2,0,L|113:333,1,68,8|0,0:3|0:0,0:0:0:0:
47,37,49087,5,2,0:0:0:0:
184,57,49249,1,2,0:0:0:0:
102,169,49412,1,2,0:0:0:0:
239,189,49574,1,2,0:0:0:0:
119,345,49736,2,0,B|108:361,1,17,4|0,0:1|0:0,0:0:0:0:
239,189,50222,5,0,0:0:0:0:
272,259,50384,1,0,0:0:0:0:
328,145,50546,1,0,0:0:0:0:
338,308,50709,6,0,P|374:266|404:244,1,85,4|0,0:0|0:0,0:0:0:0:
328,145,51033,2,0,P|301:112|268:85,1,85,2|2,0:0|0:0,0:0:0:0:
109,145,51357,2,0,L|199:153,1,85,4|2,3:0|0:0,0:0:0:0:
138,244,51681,6,0,L|268:255,1,127.5,8|0,3:0|0:0,0:0:0:0:
307,259,52006,2,0,P|300:198|312:167,1,85,2|2,0:0|0:0,0:0:0:0:
477,222,52330,2,0,L|383:217,1,85,2|2,0:0|0:0,0:0:0:0:
137,99,52654,6,0,L|264:104,1,127.5,4|0,3:0|0:0,0:0:0:0:
307,105,52979,1,2,0:0:0:0:
137,99,53142,1,2,0:0:0:0:
392,217,53303,2,0,L|296:246,1,85,4|2,3:0|0:0,0:0:0:0:
16,281,53627,6,0,L|140:243,1,127.5,8|0,3:0|0:0,0:0:0:0:
177,227,53952,2,0,P|118:200|69:198,1,85,2|2,0:0|0:0,0:0:0:0:
115,339,54277,1,2,0:0:0:0:
238,145,54439,1,2,0:0:0:0:
256,330,54600,6,0,P|276:283|312:236,1,85,4|0,0:0|0:0,0:0:0:0:
389,165,54925,2,0,P|369:118|333:71,1,85,2|2,0:0|0:0,0:0:0:0:
294,255,55249,1,4,3:0:0:0:
455,229,55411,1,2,0:0:0:0:
211,143,55573,6,0,P|156:138|103:141,1,85,8|0,3:0|0:0,0:0:0:0:
294,255,55898,2,0,P|349:260|402:257,1,85,2|2,0:0|0:0,0:0:0:0:
170,112,56222,2,0,P|115:107|62:110,1,85,2|2,0:0|0:0,0:0:0:0:
338,290,56546,6,0,P|393:295|446:292,1,85,4|0,3:0|0:0,0:0:0:0:
256,210,56871,1,2,0:0:0:0:
241,314,57033,1,2,0:0:0:0:
395,151,57195,1,4,3:0:0:0:
256,210,57357,1,2,0:0:0:0:
434,223,57520,6,0,L|462:225,1,21.25,8|0,3:0|0:0,0:0:0:0:
356,47,57681,5,0,0:0:0:0:
242,200,57844,1,2,0:0:0:0:
415,243,58006,1,2,0:0:0:0:
368,56,58168,1,2,0:0:0:0:
228,191,58330,1,2,0:0:0:0:
381,277,58492,6,0,P|432:269|470:251,1,85,4|0,0:0|0:0,0:0:0:0:
228,191,58817,2,0,P|185:196|146:211,1,85,2|2,0:0|0:0,0:0:0:0:
100,327,59142,1,4,3:0:0:0:
222,286,59304,1,2,0:0:0:0:
20,137,59466,6,0,L|164:106,1,127.5,8|0,3:0|0:0,0:0:0:0:
184,96,59790,2,0,P|143:54|137:20,1,85,2|2,0:0|0:0,0:0:0:0:
331,131,60114,2,0,L|232:151,1,85,2|2,0:0|0:0,0:0:0:0:
326,219,60439,6,0,L|198:244,1,127.5,4|0,3:0|0:0,0:0:0:0:
159,252,60763,1,2,0:0:0:0:
247,147,60925,1,2,0:0:0:0:
254,316,61087,1,4,3:0:0:0:
87,207,61250,1,2,0:0:0:0:
326,219,61412,6,0,P|366:248|392:279,1,85,8|0,3:0|0:0,0:0:0:0:
247,147,61736,2,0,P|276:107|307:81,1,85,2|2,0:0|0:0,0:0:0:0:
254,316,62060,1,2,0:0:0:0:
166,102,62223,2,0,L|123:128,1,42.5,2|0,0:0|0:0,0:0:0:0:
77,247,62385,6,0,L|224:309,1,127.5,4|0,0:0|0:0,0:0:0:0:
264,256,62709,2,0,L|234:121,1,127.5,2|0,0:0|0:0,0:0:0:0:
166,102,63033,2,0,L|57:168,1,127.5,4|0,3:0|0:0,0:0:0:0:
78,276,63358,6,0,P|138:286|230:325,1,127.5,8|0,3:0|0:0,0:0:0:0:
290,245,63682,2,0,P|263:183|248:113,1,127.5,2|0,0:0|0:0,0:0:0:0:
150,89,64006,2,0,P|103:131|47:164,1,127.5,2|0,0:0|0:0,0:0:0:0:
84,307,64331,6,0,P|147:300|219:333,1,127.5,4|0,3:0|0:0,0:0:0:0:
315,229,64655,2,0,P|272:169|262:101,1,127.5,2|0,0:0|0:0,0:0:0:0:
130,80,64979,2,0,P|95:134|34:164,1,127.5,4|0,3:0|0:0,0:0:0:0:
94,338,65304,6,0,P|160:328|245:357,1,127.5,8|0,3:0|0:0,0:0:0:0:
255,362,65628,1,2,0:0:0:0:
185,140,65790,1,8,3:0:0:0:
421,253,65952,1,8,3:0:0:0:
159,123,66114,1,8,3:0:0:0:
440,262,66277,6,0,P|421:198|424:133,1,127.5,4|0,0:0|0:0,0:0:0:0:
436,97,66601,2,0,P|356:73|299:89,1,127.5,2|0,0:0|0:0,0:0:0:0:
281,108,66925,2,0,P|201:132|144:116,1,127.5,2|0,3:0|0:0,0:0:0:0:
122,101,67250,6,0,L|209:216,1,127.5,8|0,3:0|0:0,0:0:0:0:
222,238,67574,1,2,3:0:0:0:
59,264,67735,1,2,3:0:0:0:
319,271,67897,1,2,3:0:0:0:
157,298,68060,1,2,3:0:0:0:
340,123,68223,6,0,P|384:150|435:222,1,127.5,4|0,3:0|0:0,0:0:0:0:
443,249,68547,2,0,P|479:209|515:195,1,85,2|2,0:0|0:0,0:0:0:0:
455,347,68871,2,0,P|401:338|371:315,1,85,4|2,3:0|0:0,0:0:0:0:
465,102,69195,6,0,L|318:125,1,127.5,8|0,2:0|0:0,0:0:0:0:
296,128,69520,1,2,3:0:0:0:
429,31,69683,1,2,3:0:0:0:
194,142,69845,1,2,3:0:0:0:
327,45,70006,1,2,3:0:0:0:
109,145,70168,6,0,P|129:196|191:227,1,127.5,4|0,0:0|0:0,0:0:0:0:
233,223,70492,2,0,P|301:198|339:203,1,85,2|2,0:0|0:0,0:0:0:0:
473,303,70817,2,0,P|425:269|409:237,1,85,4|2,3:0|0:0,0:0:0:0:
498,49,71141,6,0,L|415:147,1,127.5,8|0,3:0|0:0,0:0:0:0:
384,177,71466,1,2,3:0:0:0:
376,12,71629,1,2,3:0:0:0:
341,269,71791,1,2,3:0:0:0:
331,104,71952,1,2,3:0:0:0:
183,291,72114,6,0,P|249:256|317:261,1,127.5,4|0,3:0|0:0,0:0:0:0:
341,269,72439,2,0,P|336:226|319:188,1,85,2|2,0:0|0:0,0:0:0:0:
138,286,72763,2,0,P|142:328|159:366,1,85,4|2,3:0|0:0,0:0:0:0:
385,128,73087,2,0,L|259:144,1,127.5,8|0,2:0|0:0,0:0:0:0:
218,147,73412,1,2,3:0:0:0:
385,128,73574,1,2,3:0:0:0:
346,247,73736,1,2,3:0:0:0:
259,28,73898,1,2,3:0:0:0:
99,154,74060,6,0,P|140:193|214:220,1,127.5,4|0,0:0|0:0,0:0:0:0:
248,226,74384,2,0,L|212:131,1,85,2|0,0:0|0:0,0:0:0:0:
12,191,74708,2,0,P|-2:259|14:301,1,85,2|0,3:0|0:0,0:0:0:0:
189,57,75033,6,0,P|119:43|53:50,1,127.5,8|0,3:0|0:0,0:0:0:0:
32,70,75358,1,2,3:0:0:0:
210,157,75520,1,2,3:0:0:0:
12,191,75682,1,2,3:0:0:0:
152,47,75844,1,2,3:0:0:0:
127,248,76006,2,0,P|167:281|249:298,1,127.5,4|0,3:0|0:0,0:0:0:0:
281,289,76331,2,0,P|251:240|257:182,1,85,2|2,0:0|0:0,0:0:0:0:
396,150,76655,2,0,P|367:201|316:226,1,85,4|2,3:0|0:0,0:0:0:0:
234,38,76979,6,0,L|359:59,1,127.5,8|0,2:0|0:0,0:0:0:0:
401,70,77304,1,2,3:0:0:0:
248,213,77466,1,2,3:0:0:0:
454,185,77628,1,2,3:0:0:0:
272,88,77790,1,2,3:0:0:0:
363,274,77952,6,0,P|310:294|218:307,1,127.5,4|0,0:0|0:0,0:0:0:0:
203,307,78277,2,0,P|244:247|251:223,1,85,2|2,0:0|0:0,0:0:0:0:
32,302,78601,2,0,P|92:343|116:350,1,85,4|2,3:0|0:0,0:0:0:0:
220,150,78925,6,0,L|83:113,1,127.5,8|0,0:3|0:0,0:0:0:0:
57,109,79250,1,2,3:0:0:0:
257,102,79412,1,2,3:0:0:0:
100,224,79574,1,2,3:0:0:0:
155,33,79736,1,2,3:0:0:0:
225,221,79898,6,0,L|360:252,1,127.5,4|0,3:0|0:0,0:0:0:0:
391,257,80222,5,8,3:0:0:0:
409,163,80384,1,8,3:0:0:0:
225,221,80546,5,8,3:0:0:0:
200,92,80708,1,8,3:0:0:0:
398,250,80871,5,8,0:2:0:0:
427,99,81033,1,8,3:0:0:0:
220,212,81195,5,8,3:0:0:0:
185,29,81357,1,8,3:0:0:0:
405,244,81519,5,8,3:0:0:0:
448,22,81681,1,8,3:0:0:0:
314,327,81844,6,0,L|303:289,1,21.25,4|0,0:1|0:0,0:0:0:0:
284,12,82330,1,8,3:0:0:0:
189,91,82492,2,0,P|175:123|172:143,1,51,4|0,3:0|0:0,0:0:0:0:
252,163,82817,6,0,P|204:167|103:223,1,152.999995330811,4|0,0:0|0:0,0:0:0:0:
84,258,83142,1,2,0:0:0:0:
86,68,83304,1,2,0:0:0:0:
271,261,83466,1,4,0:3:0:0:
274,72,83628,1,2,0:0:0:0:
118,325,83789,6,0,P|67:304|2:297,1,101.999996887207,8|0,3:0|0:0,0:0:0:0:
306,188,84114,2,0,P|356:184|405:169,1,101.999996887207,2|0,0:0|0:0,0:0:0:0:
86,68,84438,2,0,L|155:237,1,152.999995330811,2|0,0:0|0:0,0:0:0:0:
163,256,84762,6,0,P|199:179|217:157,1,101.999996887207,4|0,3:0|0:0,0:0:0:0:
323,80,85087,1,2,0:0:0:0:
377,208,85250,1,2,0:0:0:0:
209,165,85412,1,4,0:3:0:0:
391,215,85574,1,2,0:0:0:0:
197,11,85735,6,0,L|37:55,1,152.999995330811,8|0,3:0|0:0,0:0:0:0:
4,77,86060,2,0,P|27:126|28:131,1,50.9999984436036,8|0,2:0|0:0,0:0:0:0:
130,110,86222,2,0,P|107:160|105:167,1,59.4999981842042,8|0,2:0|0:0,0:0:0:0:
36,203,86384,2,0,P|59:252|62:265,1,68,8|0,2:0|0:0,0:0:0:0:
154,252,86546,2,0,P|131:302|131:322,1,76.4999976654053,8|0,2:0|0:0,0:0:0:0:
53,357,86708,6,0,L|254:356,1,152.999995330811,4|0,3:0|0:0,0:0:0:0:
257,357,87033,2,0,P|303:313|315:305,1,50.9999984436036,0|0,0:0|0:0,0:0:0:0:
423,274,87195,2,0,P|377:230|365:222,1,50.9999984436036,2|0,0:0|0:0,0:0:0:0:
268,160,87357,2,0,P|325:129|382:56,1,152.999995330811,4|0,3:0|0:0,0:0:0:0:
384,10,87681,6,0,P|315:40|266:45,1,101.999996887207,8|0,3:0|0:0,0:0:0:0:
90,49,88006,2,0,P|157:58|208:84,1,101.999996887207,0|0,0:0|0:0,0:0:0:0:
367,187,88330,2,0,P|359:237|362:290,1,101.999996887207,2|0,0:0|0:0,0:0:0:0:
216,363,88655,6,0,P|263:360|319:368,1,101.999996887207,4|0,3:0|0:0,0:0:0:0:
105,296,88979,1,0,0:0:0:0:
105,296,89141,2,0,P|74:279|63:264,2,33.9999989624024,2|2|2,0:0|0:0|0:0,0:0:0:0:
185,261,89303,2,0,P|216:244|236:227,1,50.9999984436036,4|0,3:0|0:0,0:0:0:0:
100,203,89465,2,0,P|69:186|49:169,1,50.9999984436036,2|0,0:0|0:0,0:0:0:0:
198,153,89627,6,0,P|240:150|309:200,1,101.999996887207,8|0,3:0|0:0,0:0:0:0:
298,216,89952,2,0,P|340:213|409:263,1,101.999996887207,0|0,0:0|0:0,0:0:0:0:
512,286,90276,2,0,P|470:283|401:333,1,101.999996887207,2|0,0:0|0:0,0:0:0:0:
297,368,90600,6,0,P|256:271|203:210,1,152.999995330811,4|0,0:0|0:0,0:0:0:0:
184,204,90925,1,2,0:0:0:0:
349,295,91087,1,2,0:0:0:0:
276,39,91250,1,4,0:3:0:0:
440,130,91412,1,2,0:0:0:0:
119,97,91573,6,0,P|60:143|44:184,1,101.999996887207,8|0,3:0|0:0,0:0:0:0:
370,199,91898,2,0,P|428:152|444:111,1,101.999996887207,2|0,0:0|0:0,0:0:0:0:
95,277,92222,2,0,L|227:361,1,152.999995330811,2|0,0:0|0:0,0:0:0:0:
270,379,92546,6,0,P|252:308|255:263,1,101.999996887207,4|0,3:0|0:0,0:0:0:0:
285,115,92871,1,2,0:0:0:0:
396,243,93033,1,2,0:0:0:0:
171,208,93196,1,4,0:3:0:0:
417,247,93358,1,2,0:0:0:0:
65,91,93519,6,0,L|218:73,1,152.999995330811,8|0,3:0|0:0,0:0:0:0:
268,68,93844,2,0,P|277:100|292:123,1,50.9999984436036,8|0,2:0|0:0,0:0:0:0:
395,105,94006,2,0,P|387:138|370:162,1,59.4999981842042,8|0,2:0|0:0,0:0:0:0:
299,196,94168,2,0,P|307:231|324:259,1,68,8|0,2:0|0:0,0:0:0:0:
417,247,94330,2,0,P|411:285|393:317,1,76.4999976654053,8|0,2:0|0:0,0:0:0:0:
306,348,94492,6,0,L|460:341,1,152.999995330811,4|0,3:0|0:0,0:0:0:0:
509,335,94816,2,0,P|492:283|455:240,1,101.999996887207
372,158,95141,2,0,P|341:154|318:157,1,50.9999984436036,2|0,0:0|0:0,0:0:0:0:
157,196,95303,2,0,P|185:198|210:196,1,50.9999984436036,2|0,0:0|0:0,0:0:0:0:
386,264,95465,6,0,P|398:180|433:115,1,152.999995330811,8|0,3:0|0:0,0:0:0:0:
467,87,95790,2,0,P|403:46|349:42,1,101.999996887207
161,77,96114,2,0,P|169:105|167:137,1,50.9999984436036,2|0,0:0|0:0,0:0:0:0:
118,297,96276,2,0,P|110:273|110:248,1,50.9999984436036,2|0,0:0|0:0,0:0:0:0:
268,176,96438,6,0,P|304:248|313:301,1,101.999996887207,4|0,3:0|0:0,0:0:0:0:
161,77,96762,1,0,0:0:0:0:
161,77,96925,2,0,P|187:63|220:54,1,50.9999984436036,2|0,0:0|0:0,0:0:0:0:
229,19,97087,2,0,P|287:20|366:38,1,101.999996887207,4|0,3:0|0:0,0:0:0:0:
456,123,97411,6,0,P|483:165|497:215,1,101.999996887207,8|0,3:0|0:0,0:0:0:0:
172,326,97735,2,0,P|144:318|124:299,1,50.9999984436036,8|0,2:0|0:0,0:0:0:0:
266,281,97898,2,0,P|294:289|315:309,1,59.4999981842042,8|0,3:0|0:0,0:0:0:0:
56,201,98060,2,0,P|78:170|113:157,1,68,8|0,3:0|0:0,0:0:0:0:
262,167,98222,2,0,P|239:191|199:204,1,76.4999976654053,8|0,3:0|0:0,0:0:0:0:
355,30,98384,6,0,P|410:20|491:43,1,101.999996887207,4|0,0:0|2:0,0:0:0:0:
346,175,98708,1,0,2:0:0:0:
346,175,98871,2,0,P|400:149|406:148,1,50.9999984436036,2|0,2:0|0:0,0:0:0:0:
402,258,99033,2,0,P|380:311|367:323,1,50.9999984436036,4|0,3:0|0:0,0:0:0:0:
310,96,99195,2,0,P|278:83|244:80,1,50.9999984436036,2|0,2:0|0:0,0:0:0:0:
262,167,99357,2,0,P|292:241|320:257,1,101.999996887207,8|0,3:0|2:0,0:0:0:0:
115,132,99681,5,0,2:0:0:0:
262,167,99844,1,0,2:0:0:0:
165,269,100006,2,0,P|144:332|142:367,1,101.999996887207,2|0,2:0|2:0,0:0:0:0:
238,235,100330,6,0,L|67:259,1,152.999995330811,4|0,3:0|0:0,0:0:0:0:
36,263,100654,1,0,2:0:0:0:
115,132,100816,1,2,2:0:0:0:
238,235,100979,1,4,0:3:0:0:
22,177,101141,1,2,2:0:0:0:
221,103,101303,6,0,P|269:149|334:180,1,101.999996887207,8|0,2:0|2:0,0:0:0:0:
451,156,101627,2,0,P|390:192|360:223,1,101.999996887207,0|0,2:0|2:0,0:0:0:0:
286,358,101952,2,0,P|372:347|447:357,1,152.999995330811,2|0,2:0|0:0,0:0:0:0:
486,367,102276,6,0,P|456:309|456:270,1,101.999996887207,4|0,3:0|2:0,0:0:0:0:
367,213,102600,2,0,P|315:255|253:272,1,101.999996887207,0|2,2:0|2:0,0:0:0:0:
455,273,102925,1,4,3:0:0:0:
274,147,103087,1,2,2:0:0:0:
486,80,103249,6,0,P|417:59|377:35,1,101.999996887207,8|0,3:0|2:0,0:0:0:0:
179,182,103573,2,0,P|248:161|288:137,1,101.999996887207,0|0,2:0|2:0,0:0:0:0:
17,142,103898,2,0,L|61:302,1,152.999995330811,2|0,2:0|0:0,0:0:0:0:
70,338,104222,6,0,P|133:305|186:298,1,101.999996887207,4|0,3:0|2:0,0:0:0:0:
316,287,104546,1,0,2:0:0:0:
316,287,104708,2,0,P|266:250|252:246,1,50.9999984436036,2|0,2:0|0:0,0:0:0:0:
179,182,104871,2,0,P|229:145|243:141,1,50.9999984436036,4|0,3:0|0:0,0:0:0:0:
339,83,105033,2,0,P|289:46|275:42,1,50.9999984436036,2|0,2:0|0:0,0:0:0:0:
359,199,105195,6,0,P|420:173|461:143,1,101.999996887207,8|0,2:0|2:0,0:0:0:0:
253,337,105519,1,0,2:0:0:0:
253,337,105681,2,0,P|217:331|191:321,1,59.4999981842042,2|0,2:0|0:0,0:0:0:0:
0,300,105844,2,0,P|36:294|69:284,1,68,2|0,2:0|0:0,0:0:0:0:
233,318,106006,2,0,P|205:294|179:262,1,76.4999976654053,2|0,2:0|0:0,0:0:0:0:
26,279,106168,6,0,P|70:235|91:155,1,101.999996887207,4|0,0:0|2:0,0:0:0:0:
334,131,106492,1,0,2:0:0:0:
334,131,106654,2,0,P|312:116|289:107,1,50.9999984436036,2|0,2:0|0:0,0:0:0:0:
278,213,106816,2,0,P|283:237|295:260,1,50.9999984436036,4|0,0:3|0:0,0:0:0:0:
369,51,106978,2,0,P|392:40|417:35,1,50.9999984436036,2|0,2:0|0:0,0:0:0:0:
418,122,107142,2,0,P|399:183|366:209,1,101.999996887207,8|0,3:0|2:0,0:0:0:0:
99,150,107465,5,0,2:0:0:0:
172,319,107627,1,0,2:0:0:0:
224,89,107789,2,0,P|168:68|139:31,1,101.999996887207,2|0,2:0|2:0,0:0:0:0:
288,45,108114,6,0,L|216:208,1,152.999995330811,4|0,3:0|0:0,0:0:0:0:
205,231,108438,1,0,2:0:0:0:
342,152,108600,1,2,2:0:0:0:
161,155,108762,1,4,3:0:0:0:
249,324,108925,1,2,2:0:0:0:
342,152,109087,6,0,P|386:106|433:80,1,101.999996887207,8|0,2:0|2:0,0:0:0:0:
337,368,109411,2,0,P|275:348|240:311,1,101.999996887207,0|0,2:0|2:0,0:0:0:0:
60,118,109735,2,0,P|107:190|128:278,1,152.999995330811,2|0,2:0|0:0,0:0:0:0:
124,304,110060,6,0,P|159:235|191:211,1,101.999996887207,4|0,3:0|2:0,0:0:0:0:
304,136,110384,2,0,P|337:174|356:221,1,101.999996887207,0|2,2:0|2:0,0:0:0:0:
248,323,110708,1,2,2:0:0:0:
304,136,110871,1,2,2:0:0:0:
123,59,111033,6,0,P|197:60|258:47,1,101.999996887207,8|0,3:0|2:0,0:0:0:0:
413,140,111357,2,0,P|334:141|273:128,1,110.499994941712,2|0,2:0|2:0,0:0:0:0:
58,225,111681,2,0,P|137:226|201:213,1,118.999996368408,8|0,2:0|2:0,0:0:0:0:
11,162,112006,6,0,L|55:351,1,178.499994552612,4|0,3:0|0:0,0:0:0:0:
56,360,112330,2,0,P|118:332|201:328,1,118.999996368408,8|0,2:0|2:0,0:0:0:0:
392,330,112654,2,0,P|318:295|289:263,1,118.999996368408,8|2,2:0|2:0,0:0:0:0:
286,258,112871,1,2,0:0:0:0:
282,246,112925,1,2,0:0:0:0:
281,234,112979,5,10,3:0:0:0:
314,72,113141,1,8,3:0:0:0:
359,239,113304,5,8,3:0:0:0:
104,155,113465,1,8,3:0:0:0:
348,165,113627,5,8,3:0:0:0:
32,221,113790,1,8,3:0:0:0:
294,269,113952,6,0,P|259:272|225:282,1,68,4|0,0:0|0:0,0:0:0:0:
416,258,114600,1,0,0:0:0:0:
305,207,114925,6,0,P|273:192|238:183,1,68,4|0,0:3|0:0,0:0:0:0:
416,258,115573,1,0,0:0:0:0:
346,159,115898,6,0,P|325:130|300:105,1,68,4|0,0:3|0:0,0:0:0:0:
416,258,116546,1,0,0:0:0:0:
405,138,116871,5,4,0:3:0:0:
416,258,117195,1,2,0:0:0:0:
265,195,117519,1,2,0:0:0:0:
113,133,117844,6,0,P|99:174|95:200,1,68,4|0,0:3|0:0,0:0:0:0:
223,52,118492,1,0,0:0:0:0:
169,178,118817,6,0,P|175:211|187:248,1,68,4|0,0:3|0:0,0:0:0:0:
223,52,119466,1,0,0:0:0:0:
240,189,119789,6,0,P|268:221|289:238,1,68,4|0,0:3|0:0,0:0:0:0:
223,52,120439,1,0,0:0:0:0:
444,152,120762,5,8,0:3:0:0:
223,52,120925,1,4,0:3:0:0:
444,152,121249,5,8,0:0:0:0:
358,112,121411,1,8,0:0:0:0:
457,160,121573,1,8,0:0:0:0:
302,197,121735,6,0,P|316:227|325:276,1,76.4999976654053,4|0,0:0|0:0,0:0:0:0:
324,295,122060,1,2,0:0:0:0:
238,259,122222,1,2,0:0:0:0:
324,295,122384,1,4,0:3:0:0:
411,337,122546,1,2,0:0:0:0:
501,380,122708,6,0,P|495:333|475:275,1,101.999996887207,8|0,0:0|0:0,0:0:0:0:
387,96,123357,2,0,P|356:110|294:117,1,76.4999976654053,2|0,0:0|0:0,0:0:0:0:
290,107,123681,6,0,P|252:113|191:145,1,101.999996887207,4|0,0:3|0:0,0:0:0:0:
115,248,124169,2,0,L|101:268,3,16.9999994812012,2|2|2|4,0:0|0:0|0:0|0:3,0:0:0:0:
195,141,124492,1,2,0:0:0:0:
221,296,124654,6,0,P|264:279|323:275,1,101.999996887207,8|0,0:0|0:0,0:0:0:0:
486,295,125303,1,0,0:0:0:0:
319,274,125627,6,0,P|298:217|298:172,1,101.999996887207,4|0,0:3|0:0,0:0:0:0:
334,85,126114,1,2,0:0:0:0:
393,174,126276,1,4,0:3:0:0:
238,87,126438,1,2,0:0:0:0:
297,176,126600,5,8,0:0:0:0:
297,176,126925,2,0,P|249:181|208:202,1,76.4999976654053,2|0,0:0|0:0,0:0:0:0:
214,215,127249,1,2,0:0:0:0:
214,215,127330,1,2,0:0:0:0:
214,215,127411,1,2,0:0:0:0:
111,374,127573,6,0,P|157:358|221:353,1,101.999996887207,4|0,0:3|0:0,0:0:0:0:
436,358,128222,1,4,0:3:0:0:
436,358,128546,6,0,P|422:311|427:253,1,101.999996887207,8|0,0:0|0:0,0:0:0:0:
454,63,129195,1,0,0:0:0:0:
454,63,129519,6,0,P|391:58|356:60,1,76.4999976654053,4|0,0:0|0:0,0:0:0:0:
352,61,129844,1,2,0:0:0:0:
259,70,130006,1,2,0:0:0:0:
352,61,130168,1,4,0:3:0:0:
454,63,130330,1,2,0:0:0:0:
415,155,130492,6,0,P|411:192|417:266,1,101.999996887207,8|0,0:0|0:0,0:0:0:0:
268,372,131141,2,0,P|272:321|269:276,1,76.4999976654053,2|0,0:0|0:0,0:0:0:0:
255,275,131465,6,0,P|250:237|251:198,1,76.4999976654053,4|0,0:3|0:0,0:0:0:0:
255,173,131789,1,2,0:0:0:0:
273,78,131952,1,2,0:0:0:0:
255,173,132114,1,4,0:3:0:0:
271,295,132276,1,2,0:0:0:0:
360,192,132438,6,0,P|391:167|445:143,1,76.4999976654053,8|0,0:0|0:0,0:0:0:0:
446,139,132762,2,0,P|434:177|436:229,1,76.4999976654053,2|0,0:0|0:0,0:0:0:0:
441,237,133087,2,0,P|439:275|428:311,1,76.4999976654053,2|0,0:0|0:0,0:0:0:0:
416,343,133411,6,0,P|370:312|316:303,1,102,4|0,0:3|0:0,0:0:0:0:
297,322,133735,2,0,P|255:351|206:362,1,102,2|0,0:0|0:0,0:0:0:0:
171,365,134060,2,0,P|209:308|218:248,1,102,4|0,0:3|0:0,0:0:0:0:
220,233,134384,6,0,P|176:265|99:283,1,127.5,8|0,0:0|0:0,0:0:0:0:
63,282,134708,2,0,P|121:232|158:180,1,127.5,2|0,0:0|0:0,0:0:0:0:
171,153,135033,2,0,P|96:183|14:189,1,127.5,2|0,0:0|0:0,0:0:0:0:
0,191,135357,6,0,P|46:152|96:68,1,152.999995330811,4|0,0:3|0:0,0:0:0:0:
111,25,135681,1,2,0:0:0:0:
171,153,136006,1,4,0:3:0:0:
275,36,136330,5,8,0:0:0:0:
171,153,136654,1,2,0:0:0:0:
373,138,136816,1,8,0:0:0:0:
153,134,136979,1,8,0:0:0:0:
393,164,137141,1,8,0:0:0:0:
139,116,137303,6,0,P|131:159|91:232,1,102,4|0,0:0|0:0,0:0:0:0:
84,237,137627,2,0,P|152:222|190:227,1,102,2|0,0:0|0:0,0:0:0:0:
214,240,137952,2,0,P|211:290|225:339,1,102,2|0,0:0|0:0,0:0:0:0:
250,362,138276,6,0,P|282:330|314:313,1,68,8|0,0:0|0:0,0:0:0:0:
458,260,138600,2,0,P|435:284|406:303,1,68,2|0,0:0|0:0,0:0:0:0:
302,100,138925,2,0,P|365:140|386:178,1,102,2|0,0:0|0:0,0:0:0:0:
397,190,139249,6,0,P|407:133|433:87,1,102,4|0,0:3|0:0,0:0:0:0:
446,66,139573,1,2,0:0:0:0:
488,158,139735,1,2,0:0:0:0:
302,100,139898,1,4,0:3:0:0:
250,212,140060,1,2,0:0:0:0:
109,82,140222,6,0,P|131:128|126:200,1,102,8|0,0:0|0:0,0:0:0:0:
123,211,140546,2,0,P|124:261|146:307,1,102,2|0,0:0|0:0,0:0:0:0:
173,328,140871,2,0,P|226:300|281:300,1,102,2|0,0:0|0:0,0:0:0:0:
300,305,141195,6,0,P|353:277|408:277,1,102,4|0,0:3|0:0,0:0:0:0:
427,279,141519,2,0,P|393:234|376:172,1,102,2|0,0:0|0:0,0:0:0:0:
370,157,141844,2,0,P|352:109|321:69,1,102,4|0,0:3|0:0,0:0:0:0:
296,46,142168,6,0,P|292:94|275:124,1,68,8|0,0:0|0:0,0:0:0:0:
123,46,142492,2,0,P|177:62|205:82,1,68,2|0,0:0|0:0,0:0:0:0:
217,142,142816,2,0,P|213:190|196:220,1,68,2|0,0:0|0:0,0:0:0:0:
51,131,143142,2,0,P|105:147|133:167,1,68,4|0,0:3|0:0,0:0:0:0:
204,207,143465,6,0,L|269:260,2,73.6666632944744,2|2|2,0:0|0:0|0:0,0:0:0:0:
293,112,143789,6,0,L|311:173,2,62.3333352355958,2|2|2,0:0|0:0|0:0,0:0:0:0:
420,144,144114,6,0,L|383:195,2,50.9999984436036,8|2|2,0:0|0:0|0:0,0:0:0:0:
455,269,144438,6,0,L|385:271,2,39.6666654561361,2|2|2,0:0|0:0|0:0,0:0:0:0:
366,363,144762,6,0,L|332:326,2,28.3333333333333,2|2|2,0:0|0:0|0:0,0:0:0:0:
238,331,145087,6,0,P|167:304|111:304,1,114.749996498108,4|0,0:3|0:0,0:0:0:0:
91,294,145411,2,0,P|162:267|218:267,1,114.749996498108,2|0,0:0|0:0,0:0:0:0:
238,264,145735,2,0,P|167:237|111:237,1,114.749996498108,4|0,0:3|0:0,0:0:0:0:
90,238,146060,6,0,P|156:213|203:183,1,114.749996498108,8|0,0:0|0:0,0:0:0:0:
213,157,146384,2,0,P|262:128|316:109,1,114.749996498108,2|0,0:0|0:0,0:0:0:0:
354,111,146708,2,0,P|322:147|287:217,1,114.749996498108,2|0,0:0|0:0,0:0:0:0:
293,244,147033,6,0,P|267:295|229:338,1,114.749996498108,4|0,0:3|0:0,0:0:0:0:
195,357,147358,1,2,0:0:0:0:
113,220,147520,1,2,0:0:0:0:
348,320,147682,1,2,0:0:0:0:
362,163,147844,1,2,0:0:0:0:
211,103,148006,6,0,P|222:152|261:204,1,114.749996498108,8|0,0:0|0:0,0:0:0:0:
260,204,148331,2,0,P|282:151|325:114,1,114.749996498108,2|0,0:0|0:0,0:0:0:0:
357,109,148654,2,0,P|371:148|426:201,1,114.749996498108,2|0,0:0|0:0,0:0:0:0:
459,208,148979,6,0,P|430:252|423:325,1,114.749996498108,4|0,0:3|0:0,0:0:0:0:
430,349,149303,2,0,P|374:320|319:312,1,114.749996498108,2|0,0:0|0:0,0:0:0:0:
285,312,149627,2,0,P|315:269|327:238,1,76.4999976654053,4|0,0:3|0:0,0:0:0:0:
99,269,149952,6,0,P|115:303|138:334,1,76.4999976654053,8|0,0:0|0:0,0:0:0:0:
202,142,150276,2,0,P|168:111|85:78,1,114.749996498108,2|0,0:0|0:0,0:0:0:0:
69,70,150600,2,0,P|135:78|213:68,1,114.749996498108,2|0,0:0|0:0,0:0:0:0:
218,59,150925,6,0,P|275:55|331:63,1,114.749996498108,8|0,0:0|0:0,0:0:0:0:
353,71,151249,5,2,0:0:0:0:
372,186,151411,1,2,0:0:0:0:
350,59,151573,1,2,0:0:0:0:
375,197,151735,1,2,0:0:0:0:
345,45,151898,2,0,L|405:29,1,59.4999981842042,8|0,0:0|0:0,0:0:0:0:
236,250,152222,5,2,0:0:0:0:
259,110,152384,1,2,0:0:0:0:
233,262,152546,1,2,0:0:0:0:
263,97,152708,1,2,0:0:0:0:
229,276,152871,2,0,L|294:293,1,68,8|0,0:0|0:0,0:0:0:0:
80,84,153195,5,2,0:0:0:0:
110,263,153357,1,2,0:0:0:0:
76,66,153519,1,2,0:0:0:0:
114,280,153681,1,2,0:0:0:0:
161,31,153844,2,0,B|135:26,1,17,4|0,0:1|0:0,0:0:0:0:
305,65,154492,6,0,P|319:68|336:75,1,25.5,2|0,0:0|0:0,0:0:0:0:
355,83,154817,6,0,P|322:122|303:185,1,85,4|0,0:0|0:0,0:0:0:0:
320,332,155141,2,0,P|283:279|240:245,1,85,2|2,0:0|0:0,0:0:0:0:
87,176,155465,2,0,L|178:150,1,85,4|2,3:0|0:0,0:0:0:0:
180,230,155789,6,0,L|326:242,1,127.5,8|0,3:0|0:0,0:0:0:0:
349,245,156114,2,0,P|315:188|316:140,1,85,2|2,0:0|0:0,0:0:0:0:
495,189,156438,2,0,L|404:166,1,85,2|2,0:0|0:0,0:0:0:0:
184,76,156762,6,0,L|326:83,1,127.5,4|0,3:0|0:0,0:0:0:0:
354,85,157087,1,2,0:0:0:0:
184,76,157249,1,2,0:0:0:0:
349,245,157411,2,0,L|326:343,1,85,4|2,3:0|0:0,0:0:0:0:
353,84,157735,6,0,L|271:182,1,127.5,8|0,3:0|0:0,0:0:0:0:
242,214,158060,2,0,P|290:214|328:231,1,85,2|2,0:0|0:0,0:0:0:0:
236,102,158384,1,2,0:0:0:0:
349,245,158546,1,2,0:0:0:0:
236,102,158708,6,0,P|192:138|141:162,1,85,4|0,0:0|0:0,0:0:0:0:
0,213,159033,2,0,P|50:226|88:251,1,85,2|2,0:0|0:0,0:0:0:0:
181,359,159357,1,4,3:0:0:0:
32,326,159519,1,2,0:0:0:0:
167,151,159681,6,0,P|251:185|273:200,1,85,8|0,3:0|0:0,0:0:0:0:
438,92,160006,2,0,P|354:126|332:141,1,85,2|2,0:0|0:0,0:0:0:0:
113,105,160330,2,0,P|197:139|219:154,1,85,2|2,0:0|0:0,0:0:0:0:
492,44,160654,6,0,P|408:67|386:85,1,85,4|0,3:0|0:0,0:0:0:0:
279,233,160979,1,2,0:0:0:0:
491,237,161141,1,2,0:0:0:0:
359,122,161303,1,4,3:0:0:0:
414,313,161465,1,2,0:0:0:0:
221,183,161628,6,0,L|195:167,1,21.25,8|0,3:0|0:0,0:0:0:0:
257,327,161790,5,2,0:0:0:0:
376,224,161952,1,2,0:0:0:0:
341,379,162114,1,0,0:0:0:0:
279,233,162277,1,2,0:0:0:0:
414,313,162439,1,2,0:0:0:0:
137,249,162601,6,0,P|120:206|87:178,1,85,4|2,0:0|0:0,0:0:0:0:
151,7,162925,2,0,P|168:50|201:78,1,85,2|2,0:0|0:0,0:0:0:0:
315,104,163250,1,4,3:0:0:0:
212,182,163412,1,2,0:0:0:0:
460,80,163573,6,0,L|347:178,1,127.5,8|0,3:0|0:0,0:0:0:0:
335,195,163898,2,0,P|401:191|446:214,1,85,2|2,0:0|0:0,0:0:0:0:
233,265,164222,2,0,L|208:164,1,85,2|2,0:0|0:0,0:0:0:0:
195,347,164546,6,0,L|119:230,1,127.5,4|0,3:0|0:0,0:0:0:0:
103,203,164871,1,2,0:0:0:0:
76,307,165033,1,2,0:0:0:0:
233,265,165195,1,4,3:0:0:0:
22,237,165357,1,2,0:0:0:0:
241,132,165519,6,0,P|289:131|330:142,1,85,8|0,3:0|0:0,0:0:0:0:
450,229,165844,1,2,0:0:0:0:
397,57,166006,1,2,0:0:0:0:
326,218,166168,1,2,0:0:0:0:
495,8,166330,2,0,L|450:-1,1,42.5,2|0,0:0|0:0,0:0:0:0:
322,27,166493,6,0,P|299:80|331:145,1,127.5,4|0,0:0|0:0,0:0:0:0:
505,175,166817,2,0,P|452:152|387:184,1,127.5,2|0,0:0|0:0,0:0:0:0:
212,221,167142,2,0,P|265:244|330:212,1,127.5,4|0,3:0|0:0,0:0:0:0:
305,42,167466,6,0,P|286:97|324:159,1,127.5,8|0,3:0|0:0,0:0:0:0:
500,174,167790,2,0,P|445:155|383:193,1,127.5,2|0,0:0|0:0,0:0:0:0:
212,245,168114,2,0,P|267:263|329:226,1,127.5,2|0,0:0|0:0,0:0:0:0:
287,59,168439,6,0,P|274:116|316:174,1,127.5,4|0,3:0|0:0,0:0:0:0:
493,173,168763,2,0,P|437:160|378:203,1,127.5,2|0,0:0|0:0,0:0:0:0:
212,270,169087,2,0,P|269:283|327:240,1,127.5,4|0,3:0|0:0,0:0:0:0:
487,179,169412,6,0,P|429:170|375:218,1,127.5,8|0,0:3|0:0,0:0:0:0:
337,366,169735,1,2,0:0:0:0:
403,191,169898,1,8,3:0:0:0:
228,123,170060,1,8,3:0:0:0:
162,298,170222,1,8,3:0:0:0:
231,80,170384,6,0,P|173:73|97:86,1,127.5,4|0,0:0|0:0,0:0:0:0:
65,97,170708,2,0,P|115:120|172:178,1,127.5,2|0,0:0|0:0,0:0:0:0:
185,208,171033,2,0,P|229:253|286:280,1,127.5,2|0,3:0|0:0,0:0:0:0:
327,291,171357,6,0,L|180:303,1,127.5,8|0,3:0|0:0,0:0:0:0:
157,303,171681,1,2,3:0:0:0:
337,366,171844,1,2,3:0:0:0:
263,275,172006,1,2,3:0:0:0:
445,355,172168,1,2,3:0:0:0:
483,189,172330,6,0,P|440:161|349:142,1,127.5,4|0,3:0|0:0,0:0:0:0:
324,142,172654,2,0,P|274:155|241:176,1,85,2|2,0:0|0:0,0:0:0:0:
420,27,172979,2,0,P|456:47|498:57,1,85,4|2,3:0|0:0,0:0:0:0:
159,50,173303,6,0,L|288:78,1,127.5,8|0,2:0|0:0,0:0:0:0:
325,85,173628,1,2,3:0:0:0:
138,155,173790,1,2,3:0:0:0:
428,117,173952,1,2,3:0:0:0:
245,172,174115,1,2,3:0:0:0:
366,10,174276,6,0,P|410:56|428:124,1,127.5,4|0,0:0|0:0,0:0:0:0:
425,156,174601,2,0,P|379:182|358:218,1,85,2|2,0:0|0:0,0:0:0:0:
491,317,174925,2,0,P|467:265|442:244,1,85,4|2,3:0|0:0,0:0:0:0:
257,322,175250,6,0,L|401:337,1,127.5,8|0,3:0|0:0,0:0:0:0:
417,339,175574,1,2,3:0:0:0:
235,259,175736,1,2,3:0:0:0:
309,350,175898,1,2,3:0:0:0:
129,287,176061,1,2,3:0:0:0:
381,167,176223,6,0,P|319:153|262:117,1,127.5,4|0,3:0|0:0,0:0:0:0:
242,83,176547,2,0,P|295:71|326:52,1,85,2|2,0:0|0:0,0:0:0:0:
136,148,176871,2,0,P|94:141|56:121,1,85,4|2,3:0|0:0,0:0:0:0:
227,258,177196,6,0,L|363:241,1,127.5,8|0,2:0|0:0,0:0:0:0:
395,235,177520,1,2,3:0:0:0:
227,258,177682,1,2,3:0:0:0:
326,155,177844,1,2,3:0:0:0:
296,338,178006,1,2,3:0:0:0:
394,112,178169,6,0,P|444:143|489:230,1,127.5,4|0,0:0|0:0,0:0:0:0:
480,241,178493,2,0,L|386:216,1,85,2|0,0:0|0:0,0:0:0:0:
436,42,178817,2,0,P|406:103|365:123,1,85,2|0,3:0|0:0,0:0:0:0:
180,72,179142,6,0,P|266:100|293:136,1,127.5,8|0,3:0|0:0,0:0:0:0:
306,164,179466,1,2,3:0:0:0:
292,28,179628,1,2,3:0:0:0:
194,208,179790,1,2,3:0:0:0:
180,72,179952,1,2,3:0:0:0:
373,212,180114,6,0,P|333:241|287:308,1,127.5,4|0,3:0|0:0,0:0:0:0:
289,347,180439,2,0,P|348:330|378:298,1,85,2|2,0:0|0:0,0:0:0:0:
194,208,180763,2,0,P|135:225|105:257,1,85,4|2,3:0|0:0,0:0:0:0:
360,152,181087,6,0,L|208:128,1,127.5,8|0,2:0|0:0,0:0:0:0:
191,123,181412,1,2,3:0:0:0:
177,7,181574,1,2,3:0:0:0:
117,239,181736,1,2,3:0:0:0:
103,123,181898,1,2,3:0:0:0:
407,268,182060,6,0,P|369:202|360:152,1,127.5,4|0,0:0|0:0,0:0:0:0:
360,109,182385,2,0,P|419:116|448:108,1,85,2|2,0:0|0:0,0:0:0:0:
281,14,182709,2,0,P|245:58|238:86,1,85,4|2,3:0|0:0,0:0:0:0:
249,244,183033,6,0,L|151:139,1,127.5,8|0,0:3|0:0,0:0:0:0:
135,117,183358,1,2,3:0:0:0:
101,241,183520,1,2,3:0:0:0:
61,41,183682,1,2,3:0:0:0:
27,165,183844,1,2,3:0:0:0:
309,220,184006,6,0,P|357:226|434:252,1,127.5,4|0,3:0|0:0,0:0:0:0:
465,277,184331,5,8,3:0:0:0:
374,308,184493,1,8,3:0:0:0:
465,182,184655,5,8,3:0:0:0:
362,314,184817,1,8,3:0:0:0:
402,119,184979,5,8,0:2:0:0:
350,320,185142,1,8,3:0:0:0:
321,86,185304,5,8,3:0:0:0:
338,326,185466,1,8,3:0:0:0:
231,98,185628,5,8,3:0:0:0:
326,332,185790,1,8,3:0:0:0:
118,144,185952,6,0,P|150:177|104:160,1,131.75,4|0,0:1|0:0,0:0:0:0:
236,244,188547,6,0,P|250:263|269:327,1,89.2499972763062,2|0,0:0|0:0,0:0:0:0:
270,337,188871,1,4,0:0:0:0:
365,256,189033,1,4,0:3:0:0:
388,378,189196,1,4,0:3:0:0:
309,193,189358,1,4,0:3:0:0:
467,310,189520,1,4,0:3:0:0:
230,204,189682,1,4,0:3:0:0:
426,34,189844,6,0,P|359:27|271:65,1,152.999995330811,4|0,0:0|0:0,0:0:0:0:
241,90,190169,1,2,0:0:0:0:
426,34,190331,1,2,0:0:0:0:
241,90,190493,1,4,0:3:0:0:
422,172,190655,1,2,0:0:0:0:
173,56,190817,6,0,P|199:114|202:182,1,101.999996887207,8|0,3:0|0:0,0:0:0:0:
204,330,191142,2,0,P|178:272|175:204,1,101.999996887207,2|0,0:0|0:0,0:0:0:0:
317,53,191466,2,0,L|471:108,1,152.999995330811,2|0,0:0|0:0,0:0:0:0:
508,122,191790,6,0,P|471:167|450:229,1,101.999996887207,4|0,3:0|0:0,0:0:0:0:
436,362,192114,1,2,0:0:0:0:
367,149,192277,1,2,0:0:0:0:
436,362,192439,1,4,0:3:0:0:
256,232,192601,1,2,0:0:0:0:
494,311,192763,6,0,L|307:335,1,152.999995330811,8|0,3:0|0:0,0:0:0:0:
291,335,193087,2,0,L|312:253,1,50.9999984436036,8|0,2:0|0:0,0:0:0:0:
255,232,193250,2,0,L|247:147,1,59.4999981842042,8|0,2:0|0:0,0:0:0:0:
185,143,193412,2,0,L|144:60,1,68,8|0,2:0|0:0,0:0:0:0:
85,71,193574,2,0,L|19:11,1,76.4999976654053,8|0,2:0|0:0,0:0:0:0:
155,83,193736,6,0,L|335:47,1,152.999995330811,4|0,3:0|0:0,0:0:0:0:
354,39,194060,2,0,P|335:93|335:97,1,50.9999984436036,0|0,0:0|0:0,0:0:0:0:
423,179,194223,2,0,P|442:233|442:237,1,50.9999984436036,2|0,0:0|0:0,0:0:0:0:
372,322,194385,2,0,P|306:292|255:231,1,152.999995330811,4|0,3:0|0:0,0:0:0:0:
233,184,194709,6,0,P|205:235|156:289,1,101.999996887207,8|0,3:0|0:0,0:0:0:0:
305,52,195033,2,0,P|336:91|360:136,1,101.999996887207,0|0,0:0|0:0,0:0:0:0:
69,114,195358,2,0,P|127:98|187:100,1,101.999996887207,2|0,0:0|0:0,0:0:0:0:
460,153,195682,6,0,P|409:151|360:136,1,101.999996887207,4|0,3:0|0:0,0:0:0:0:
168,97,196006,1,0,0:0:0:0:
168,97,196169,2,0,P|192:149|199:157,1,50.9999984436036,2|0,0:0|0:0,0:0:0:0:
120,173,196331,2,0,P|112:197|100:219,1,50.9999984436036,4|0,3:0|0:0,0:0:0:0:
178,232,196493,2,0,P|202:284|209:292,1,50.9999984436036,2|0,0:0|0:0,0:0:0:0:
92,316,196655,6,0,P|167:325|203:355,1,101.999996887207,8|0,3:0|0:0,0:0:0:0:
228,314,196979,2,0,P|303:323|339:353,1,101.999996887207,0|0,0:0|0:0,0:0:0:0:
473,272,197304,2,0,P|422:272|377:249,1,101.999996887207,2|0,0:0|0:0,0:0:0:0:
247,99,197628,6,0,P|231:158|161:244,1,152.999995330811,4|0,0:0|0:0,0:0:0:0:
137,263,197952,1,2,0:0:0:0:
340,116,198114,1,2,0:0:0:0:
137,263,198277,1,4,0:3:0:0:
174,43,198439,1,2,0:0:0:0:
97,303,198601,6,0,P|141:325|203:330,1,101.999996887207,8|0,3:0|0:0,0:0:0:0:
426,331,198925,2,0,P|380:308|330:302,1,101.999996887207,2|0,0:0|0:0,0:0:0:0:
192,330,199250,2,0,L|242:178,1,152.999995330811,2|0,0:0|0:0,0:0:0:0:
254,135,199574,6,0,P|263:192|281:234,1,101.999996887207,4|0,3:0|0:0,0:0:0:0:
363,366,199898,1,2,0:0:0:0:
450,125,200060,1,2,0:0:0:0:
363,366,200223,1,4,0:3:0:0:
254,135,200385,1,2,0:0:0:0:
426,331,200547,6,0,L|260:315,1,152.999995330811,8|0,3:0|0:0,0:0:0:0:
223,310,200871,2,0,L|204:249,1,50.9999984436036,8|0,2:0|0:0,0:0:0:0:
267,220,201033,2,0,L|268:152,1,59.4999981842042,8|0,2:0|0:0,0:0:0:0:
333,131,201196,2,0,L|361:67,1,68,8|0,2:0|0:0,0:0:0:0:
433,64,201358,2,0,L|479:-7,1,76.4999976654053,8|0,2:0|0:0,0:0:0:0:
361,69,201520,6,0,L|182:33,1,152.999995330811,4|0,3:0|0:0,0:0:0:0:
160,38,201844,2,0,P|200:102|210:156,1,101.999996887207,0|0,0:0|0:0,0:0:0:0:
177,301,202169,2,0,P|209:259|226:247,1,50.9999984436036,2|0,0:0|0:0,0:0:0:0:
327,225,202331,2,0,P|344:206|357:184,1,50.9999984436036,2|0,0:0|0:0,0:0:0:0:
315,57,202493,6,0,P|358:92|456:100,1,152.999995330811,8|0,3:0|0:0,0:0:0:0:
502,91,202817,2,0,P|467:148|468:204,1,101.999996887207,0|0,0:0|0:0,0:0:0:0:
491,340,203142,2,0,P|449:309|445:308,1,50.9999984436036,2|0,0:0|0:0,0:0:0:0:
317,321,203304,2,0,P|294:309|277:290,1,50.9999984436036,2|0,0:0|0:0,0:0:0:0:
234,162,203466,6,0,P|217:214|159:268,1,101.999996887207,4|0,3:0|0:0,0:0:0:0:
201,50,203790,1,0,0:0:0:0:
201,50,203952,2,0,P|233:41|273:42,1,50.9999984436036,2|0,0:0|0:0,0:0:0:0:
273,61,204114,2,0,P|333:79|376:110,1,101.999996887207,4|0,3:0|0:0,0:0:0:0:
465,235,204439,6,0,P|415:222|372:195,1,101.999996887207,8|0,3:0|0:0,0:0:0:0:
333,60,204763,2,0,P|370:110|379:138,1,50.9999984436036,8|0,2:0|0:0,0:0:0:0:
372,195,204925,2,0,P|360:255|354:264,1,59.4999981842042,8|0,3:0|0:0,0:0:0:0:
250,257,205087,2,0,P|259:229|259:189,1,68,8|0,3:0|0:0,0:0:0:0:
253,103,205250,2,0,P|238:81|202:48,1,76.4999976654053,8|0,3:0|0:0,0:0:0:0:
8,99,205412,6,0,P|19:140|57:188,1,101.999996887207,4|0,0:0|2:0,0:0:0:0:
259,286,205736,1,0,2:0:0:0:
259,286,205898,2,0,L|308:316,1,50.9999984436036,2|0,2:0|0:0,0:0:0:0:
259,190,206060,2,0,L|309:160,1,50.9999984436036,4|0,3:0|0:0,0:0:0:0:
339,240,206223,2,0,L|402:241,1,50.9999984436036,2|0,2:0|0:0,0:0:0:0:
180,284,206385,6,0,P|187:227|178:182,1,101.999996887207,8|0,3:0|2:0,0:0:0:0:
109,33,206709,1,0,2:0:0:0:
275,50,206871,1,0,2:0:0:0:
179,183,207033,2,0,P|121:216|68:227,1,101.999996887207,2|0,2:0|2:0,0:0:0:0:
210,115,207358,6,0,L|244:293,1,152.999995330811,4|0,3:0|0:0,0:0:0:0:
250,314,207682,1,0,2:0:0:0:
397,178,207844,1,2,2:0:0:0:
210,115,208006,1,4,0:3:0:0:
375,269,208169,1,2,2:0:0:0:
423,27,208331,6,0,P|377:73|328:91,1,101.999996887207,8|0,2:0|2:0,0:0:0:0:
210,115,208655,2,0,P|254:152|284:194,1,101.999996887207,0|0,2:0|2:0,0:0:0:0:
329,372,208979,2,0,P|262:329|146:290,1,152.999995330811,2|0,2:0|0:0,0:0:0:0:
143,290,209304,6,0,P|205:260|228:228,1,101.999996887207,4|0,3:0|2:0,0:0:0:0:
73,99,209628,2,0,P|103:161|135:184,1,101.999996887207,0|2,2:0|2:0,0:0:0:0:
293,275,209952,1,4,3:0:0:0:
287,91,210114,1,2,2:0:0:0:
128,180,210277,6,0,P|64:175|23:155,1,101.999996887207,8|0,3:0|2:0,0:0:0:0:
328,181,210601,2,0,P|392:176|433:156,1,101.999996887207,0|0,2:0|2:0,0:0:0:0:
227,177,210925,2,0,L|279:344,1,152.999995330811,2|0,2:0|0:0,0:0:0:0:
291,371,211250,6,0,P|322:308|349:283,1,101.999996887207,4|0,3:0|2:0,0:0:0:0:
490,200,211574,1,0,2:0:0:0:
490,200,211736,2,0,P|460:205|436:220,1,50.9999984436036,2|0,2:0|0:0,0:0:0:0:
375,172,211898,2,0,P|349:168|327:156,1,50.9999984436036,4|0,3:0|0:0,0:0:0:0:
269,202,212060,2,0,P|239:207|215:222,1,50.9999984436036,2|0,2:0|0:0,0:0:0:0:
174,157,212223,6,0,P|123:145|84:114,1,101.999996887207,8|0,2:0|2:0,0:0:0:0:
332,52,212547,1,0,2:0:0:0:
332,52,212709,2,0,P|363:59|395:73,1,59.4999981842042,2|0,2:0|0:0,0:0:0:0:
469,126,212871,2,0,P|493:145|516:172,1,59.4999981842042,2|0,2:0|0:0,0:0:0:0:
475,249,213033,2,0,P|450:219|400:182,1,68,2|0,2:0|0:0,0:0:0:0:
349,142,213196,6,0,P|296:124|250:119,1,101.999996887207,4|0,0:0|2:0,0:0:0:0:
289,341,213520,1,0,2:0:0:0:
289,341,213682,2,0,L|327:384,1,50.9999984436036,2|0,2:0|0:0,0:0:0:0:
317,249,213844,2,0,L|373:234,1,50.9999984436036,4|0,0:3|0:0,0:0:0:0:
378,320,214007,2,0,L|437:339,1,50.9999984436036,2|0,2:0|0:0,0:0:0:0:
214,315,214169,6,0,P|237:262|241:216,1,101.999996887207,8|0,3:0|2:0,0:0:0:0:
216,60,214493,1,0,2:0:0:0:
106,169,214655,1,0,2:0:0:0:
241,218,214817,2,0,P|312:200|357:170,1,101.999996887207,2|0,2:0|2:0,0:0:0:0:
186,155,215142,6,0,L|237:327,1,152.999995330811,4|0,3:0|0:0,0:0:0:0:
243,350,215466,1,0,2:0:0:0:
412,202,215628,1,2,2:0:0:0:
186,155,215790,1,4,3:0:0:0:
406,296,215952,1,2,2:0:0:0:
420,36,216114,6,0,P|390:100|346:136,1,101.999996887207,8|0,2:0|2:0,0:0:0:0:
255,225,216439,2,0,P|216:171|163:149,1,101.999996887207,0|0,2:0|2:0,0:0:0:0:
46,292,216763,2,0,P|116:256|172:178,1,152.999995330811,2|0,2:0|0:0,0:0:0:0:
185,154,217087,6,0,P|126:148|68:119,1,101.999996887207,4|0,3:0|2:0,0:0:0:0:
331,55,217412,2,0,P|356:110|360:160,1,101.999996887207,0|2,2:0|2:0,0:0:0:0:
303,304,217736,1,2,2:0:0:0:
185,154,217898,1,2,2:0:0:0:
360,150,218060,6,0,P|425:166|474:187,1,101.999996887207,8|0,3:0|2:0,0:0:0:0:
182,235,218385,2,0,P|117:251|64:275,1,110.499994941712,2|0,2:0|2:0,0:0:0:0:
370,338,218709,2,0,P|435:354|489:378,1,118.999996368408,8|0,2:0|2:0,0:0:0:0:
293,379,219033,6,0,L|413:228,1,178.499994552612,4|0,3:0|0:0,0:0:0:0:
440,191,219358,2,0,P|363:209|289:203,1,118.999996368408,8|0,2:0|2:0,0:0:0:0:
134,156,219682,2,0,P|188:208|219:264,1,118.999996368408,8|2,2:0|2:0,0:0:0:0:
211,257,219898,1,2,0:0:0:0:
210,268,219952,1,2,2:0:0:0:
207,279,220006,5,10,3:0:0:0:
255,129,220169,1,8,3:0:0:0:
201,292,220331,5,8,3:0:0:0:
70,99,220493,1,8,3:0:0:0:
309,196,220655,5,8,3:0:0:0:
0,151,220817,1,8,3:0:0:0:
206,347,220979,6,0,P|304:344|393:305,1,187,4|0,1:0|0:0,0:0:0:0:
397,298,221952,2,0,P|299:295|210:256,1,187,4|0,0:3|0:0,0:0:0:0:
206,248,222925,2,0,P|304:245|393:206,1,187,4|0,0:3|0:0,0:0:0:0:
398,200,223898,6,0,L|395:248,1,34,4|0,0:3|0:0,0:0:0:0:
455,149,224223,2,0,L|476:192,1,34,4|0,0:3|0:0,0:0:0:0:
479,77,224547,2,0,L|519:103,1,34,4|0,0:3|0:0,0:0:0:0:
296,27,224871,6,0,P|218:66|162:148,1,187,4|0,0:0|0:0,0:0:0:0:
157,162,225844,2,0,P|250:103|324:94,1,187,4|0,0:3|0:0,0:0:0:0:
341,96,226817,2,0,P|246:161|204:222,1,187,4|0,0:3|0:0,0:0:0:0:
202,235,227790,6,0,L|189:192,1,34,4|0,0:3|0:0,0:0:0:0:
168,302,228114,2,0,L|135:271,1,34,4|0,0:3|0:0,0:0:0:0:
167,377,228439,2,0,L|123:366,1,34,4|0,0:3|0:0,0:0:0:0:
342,293,228763,6,0,P|385:300|466:335,1,119,4|0,0:0|0:0,0:0:0:0:
469,337,229412,2,0,L|459:294,1,34,2|0,0:0|0:0,0:0:0:0:
341,203,229736,6,0,L|367:3,1,187,4|0,3:0|0:0,0:0:0:0:
367,0,230709,2,0,L|391:185,1,187,4|0,0:3|0:0,0:0:0:0:
394,202,231682,6,0,P|367:197|343:199,1,51
327,202,232006,2,0,L|329:213,3,11.3333333333333,2|2|2|2,0:0|0:0|0:0|0:0,0:0:0:0:
421,281,232331,2,0,P|368:279|361:281,1,51,4|0,0:3|0:0,0:0:0:0:
354,283,232655,6,0,B|403:324|403:324|351:318|268:345,1,187,4|0,0:0|0:0,0:0:0:0:
265,345,233628,2,0,P|274:264|217:175,1,187,4|0,0:3|0:0,0:0:0:0:
207,165,234601,2,0,P|288:174|377:117,1,187,4|0,0:3|0:0,0:0:0:0:
384,106,235574,6,0,L|376:147,1,34,4|0,0:3|0:0,0:0:0:0:
446,175,235898,2,0,L|418:206,1,34,4|0,0:3|0:0,0:0:0:0:
400,245,236223,2,0,P|418:206|433:192,1,51,4|0,0:3|0:0,0:0:0:0:
468,289,236547,6,0,L|274:262,1,187,4|0,0:0|0:0,0:0:0:0:
265,263,237520,2,0,L|459:236,1,187,4|0,0:3|0:0,0:0:0:0:
467,236,238493,2,0,L|273:209,1,187,4|0,0:3|0:0,0:0:0:0:
264,206,239466,6,0,L|311:190,1,34,4|0,0:3|0:0,0:0:0:0:
197,171,239790,2,0,L|229:133,1,34,4|0,0:3|0:0,0:0:0:0:
255,110,240114,2,0,P|238:132|205:150,1,51,4|0,0:3|0:0,0:0:0:0:
216,42,240439,6,0,L|368:154,1,187,4|0,0:0|0:0,0:0:0:0:
379,163,241412,2,0,L|189:106,1,187,4|0,0:3|0:0,0:0:0:0:
183,105,242385,2,0,L|334:222,1,187,4|0,0:3|0:0,0:0:0:0:
343,231,243358,6,0,L|296:232,1,34,4|0,0:3|0:0,0:0:0:0:
397,286,243682,2,0,L|356:310,1,34,4|0,0:3|0:0,0:0:0:0:
469,311,244006,2,0,L|446:352,1,34,4|0,0:3|0:0,0:0:0:0:
465,140,244331,6,0,P|432:113|396:98,1,76.4999976654053,4|0,0:0|0:0,0:0:0:0:
375,96,244655,2,0,L|404:145,2,50.9999984436036,2|2|2,0:0|0:0|0:0,0:0:0:0:
236,200,245304,6,0,P|269:173|305:158,1,76.4999976654053,4|0,0:3|0:0,0:0:0:0:
326,156,245628,2,0,L|297:205,2,50.9999984436036,2|2|2,0:0|0:0|0:0,0:0:0:0:
429,287,246277,6,0,P|446:324|449:403,1,101.999996887207,4|2,0:3|0:0,0:0:0:0:
414,275,247087,1,2,0:0:0:0:
414,275,247250,6,0,P|354:265|326:265,1,76.4999976654053,4|0,0:3|0:0,0:0:0:0:
313,268,247574,2,0,L|318:291,3,16.9999994812012,4|2|2|2,0:3|0:0|0:0|0:0,0:0:0:0:
249,331,247898,2,0,P|241:279|231:250,1,76.4999976654053,4|0,0:3|0:0,0:0:0:0:
223,232,248223,6,0,P|264:188|283:179,1,76.4999976654053,4|0,0:0|0:0,0:0:0:0:
301,170,248547,2,0,L|239:154,2,50.9999984436036,2|2|2,0:0|0:0|0:0,0:0:0:0:
469,120,249196,6,0,P|428:164|409:173,1,76.4999976654053,4|0,0:3|0:0,0:0:0:0:
391,182,249520,2,0,L|453:198,2,50.9999984436036,2|2|2,0:0|0:0|0:0,0:0:0:0:
297,53,250169,6,0,P|252:46|178:53,1,101.999996887207,4|2,0:3|0:0,0:0:0:0:
314,68,250979,1,2,0:0:0:0:
314,68,251142,6,0,L|331:154,1,76.4999976654053,4|0,0:3|0:0,0:0:0:0:
334,79,251466,2,0,L|336:167,1,76.4999976654053,4|0,0:3|0:0,0:0:0:0:
352,95,251790,2,0,L|339:181,1,76.4999976654053,4|0,0:3|0:0,0:0:0:0:
337,196,252114,6,0,P|290:183|241:187,1,76.4999976654053,4|0,0:0|0:0,0:0:0:0:
236,186,252439,2,0,L|193:217,2,50.9999984436036,2|2|2,0:0|0:0|0:0,0:0:0:0:
364,272,253087,6,0,P|411:285|460:281,1,76.4999976654053,4|0,0:3|0:0,0:0:0:0:
465,282,253412,2,0,L|508:251,2,50.9999984436036,2|2|2,0:0|0:0|0:0,0:0:0:0:
307,336,254060,6,0,P|250:319|208:276,1,101.999996887207,4|2,0:3|0:0,0:0:0:0:
326,326,254871,1,2,0:0:0:0:
326,326,255033,6,0,L|387:375,1,76.4999976654053,4|0,0:3|0:0,0:0:0:0:
348,311,255358,2,0,L|416:349,1,76.4999976654053,4|0,0:3|0:0,0:0:0:0:
367,293,255682,2,0,L|441:319,1,76.4999976654053,4|0,0:3|0:0,0:0:0:0:
464,324,256006,6,0,P|411:199|463:57,1,280.49999143982,4|0,0:0|0:0,0:0:0:0:
471,48,256979,2,0,P|430:82|351:111,1,127.499996109009,4|0,0:3|0:0,0:0:0:0:
336,117,257466,2,0,L|327:177,1,50.9999984436036,2|2,0:0|0:0,0:0:0:0:
351,0,257952,5,4,0:3:0:0:
314,245,258925,6,0,P|233:241|220:245,1,76.4999976654053,8|0,0:3|0:0,0:0:0:0:
214,247,259250,1,0,0:0:0:0:
397,198,259412,2,0,P|382:181|358:169,1,25.4999992218018,8|0,0:3|0:0,0:0:0:0:
356,168,259574,2,0,L|446:162,1,76.4999976654053,4|0,0:3|0:0,0:0:0:0:
466,159,259898,6,0,P|459:201|470:278,1,102,4|0,0:0|0:0,0:0:0:0:
473,293,260223,1,0,0:0:0:0:
380,278,260385,1,0,0:0:0:0:
298,316,260547,2,0,P|273:279|220:232,1,102,4|0,0:3|0:0,0:0:0:0:
208,265,260871,6,0,L|231:126,1,136,8|0,0:0|0:0,0:0:0:0:
251,38,261358,1,0,0:0:0:0:
319,121,261520,2,0,P|354:140|334:108,1,102,4|0,0:3|0:0,0:0:0:0:
304,97,261844,6,0,P|306:154|334:211,1,102,4|0,0:3|0:0,0:0:0:0:
344,221,262169,1,2,0:0:0:0:
376,211,262250,2,0,L|402:200,2,17,2|2|2,0:0|0:0|0:0,0:0:0:0:
228,204,262493,6,0,P|183:220|128:266,1,102,4|0,0:3|0:0,0:0:0:0:
120,280,262817,2,0,L|146:148,1,102,8|0,0:0|0:0,0:0:0:0:
149,146,263142,2,0,L|63:202,1,102,4|0,0:3|0:0,0:0:0:0:
158,128,263466,2,0,L|64:168,1,102,4|0,0:3|0:0,0:0:0:0:
171,112,263790,6,0,P|279:151|288:162,1,102,4|0,0:1|0:0,0:0:0:0:
289,163,264114,1,0,0:0:0:0:
335,252,264277,1,0,0:0:0:0:
306,350,264439,2,0,P|276:314|222:272,1,102,4|0,0:3|0:0,0:0:0:0:
208,302,264763,6,0,L|281:177,1,136,8|0,0:0|0:0,0:0:0:0:
329,100,265250,1,0,0:0:0:0:
372,194,265412,2,0,P|412:183|374:172,1,102,4|0,0:3|0:0,0:0:0:0:
439,208,265736,6,0,P|448:155|428:69,1,136,4|0,0:3|0:0,0:0:0:0:
364,3,266223,1,0,0:0:0:0:
261,5,266385,2,0,P|217:19|162:51,1,102,4|0,0:3|0:0,0:0:0:0:
152,76,266709,6,0,L|270:103,1,102,8|0,0:0|0:0,0:0:0:0:
283,110,267033,2,0,L|217:188,1,102,4|0,0:3|0:0,0:0:0:0:
296,115,267358,2,0,L|217:180,1,102,4|0,0:3|0:0,0:0:0:0:
309,124,267682,6,0,P|398:126|422:139,1,102,4|0,0:1|0:0,0:0:0:0:
435,150,268006,1,0,0:0:0:0:
384,229,268169,1,0,0:0:0:0:
421,318,268331,2,0,P|374:327|317:354,1,102,4|0,0:3|0:0,0:0:0:0:
333,381,268655,6,0,L|249:270,1,136,8|0,0:0|0:0,0:0:0:0:
186,197,269142,1,0,0:0:0:0:
138,278,269304,2,0,P|151:313|161:272,1,102,4|0,0:3|0:0,0:0:0:0:
136,262,269628,6,0,P|87:290|53:335,1,102,4|0,0:3|0:0,0:0:0:0:
57,362,269952,1,2,0:0:0:0:
57,362,270033,1,2,0:0:0:0:
57,362,270114,1,2,0:0:0:0:
211,343,270277,2,0,P|239:307|270:238,1,102,4|0,0:3|0:0,0:0:0:0:
276,224,270601,6,0,L|355:301,1,102,8|0,0:0|0:0,0:0:0:0:
365,324,270925,2,0,L|258:343,1,102,4|0,0:3|0:0,0:0:0:0:
386,303,271250,2,0,L|284:340,1,102,4|0,0:3|0:0,0:0:0:0:
403,278,271574,6,0,P|375:226|334:183,1,102,8|0,0:0|0:0,0:0:0:0:
319,173,271898,1,0,0:0:0:0:
404,124,272060,1,0,0:0:0:0:
503,121,272223,1,4,0:3:0:0:
404,124,272385,1,0,0:0:0:0:
319,173,272547,6,0,P|284:210|257:294,1,136,8|0,0:0|0:0,0:0:0:0:
266,384,273033,1,0,0:0:0:0:
180,336,273196,2,0,P|131:317|87:313,1,68,4|0,0:3|0:0,0:0:0:0:
202,227,273520,6,0,P|173:182|101:131,1,136,8|0,0:0|0:0,0:0:0:0:
12,101,274006,1,0,0:0:0:0:
99,42,274169,2,0,L|178:64,1,68,4|0,0:3|0:0,0:0:0:0:
195,72,274412,2,0,L|214:88,2,17,4|4|4,0:3|0:3|0:3,0:0:0:0:
346,124,274655,5,4,0:3:0:0:
371,5,274817,1,4,0:3:0:0:
337,138,274979,1,4,0:3:0:0:
476,44,275142,1,4,0:3:0:0:
328,152,275304,1,4,0:3:0:0:
511,129,275466,6,0,P|508:179|482:274,1,140.24999571991,8|0,0:0|0:0,0:0:0:0:
480,278,276439,1,2,0:0:0:0:
454,281,276763,1,2,0:0:0:0:
405,298,277087,1,2,0:0:0:0:
480,278,277412,5,2,0:0:0:0:
405,298,277736,1,2,0:0:0:0:
324,360,278060,1,2,0:0:0:0:
480,278,278385,5,2,0:0:0:0:
256,192,280331,5,2,0:3:0:0:
256,192,280817,1,0,0:0:0:0:
156,154,281142,6,0,L|150:185,1,25.4999992218018,0|0,0:0|0:0,0:0:0:0:
136,274,281628,2,0,P|169:269|188:269,1,50.9999984436036,0|0,0:0|0:0,0:0:0:0:
283,278,282277,5,2,0:0:0:0:
283,278,282763,1,0,0:0:0:0:
372,251,283087,6,0,L|378:222,1,25.4999992218018,0|0,0:0|0:0,0:0:0:0:
398,133,283574,2,0,P|373:140|343:143,1,50.9999984436036,0|0,0:0|0:0,0:0:0:0:
250,140,284223,5,2,0:0:0:0:
250,140,284709,1,0,0:0:0:0:
160,103,285033,6,0,L|154:132,1,25.4999992218018,0|0,0:0|0:0,0:0:0:0:
136,220,285520,2,0,P|157:231|185:251,1,50.9999984436036,0|0,0:0|0:0,0:0:0:0:
252,310,286169,5,2,0:0:0:0:
252,310,286655,1,0,0:0:0:0:
351,306,286979,6,0,L|365:280,1,25.4999992218018,0|0,0:0|0:0,0:0:0:0:
413,199,287466,2,0,P|385:194|355:182,1,50.9999984436036,0|0,0:0|0:0,0:0:0:0:
277,146,288114,6,0,P|251:165|218:227,1,85,2|0,0:3|0:0,0:0:0:0:
203,296,288601,2,0,P|170:269|155:264,1,42.5,2|0,0:0|0:0,0:0:0:0:
81,239,288925,2,0,L|108:190,1,42.5,2|2,0:0|0:0,0:0:0:0:
222,66,289412,6,0,L|156:81,1,63.75,2|0,0:0|0:0,0:0:0:0:
239,66,289736,2,0,L|171:59,1,63.75,2|0,0:0|0:0,0:0:0:0:
253,64,290060,6,0,P|276:78|311:142,1,85,2|0,0:0|0:0,0:0:0:0:
322,221,290547,2,0,P|345:190|363:177,1,42.5,2|0,0:0|0:0,0:0:0:0:
442,141,290871,2,0,L|446:184,1,42.5,2|2,0:0|0:0,0:0:0:0:
388,312,291358,6,0,P|416:292|434:262,1,63.75,2|0,0:0|0:0,0:0:0:0:
388,312,291682,2,0,P|421:302|448:280,1,63.75,2|0,0:0|0:0,0:0:0:0:
286,239,292006,6,0,P|241:254|201:292,1,85,2|0,0:0|0:0,0:0:0:0:
148,344,292493,2,0,P|146:309|138:284,1,42.5,2|0,0:0|0:0,0:0:0:0:
82,226,292817,2,0,L|43:256,1,42.5,2|2,0:0|0:0,0:0:0:0:
50,327,293304,6,0,P|50:354|61:329,1,63.75,2|0,0:0|0:0,0:0:0:0:
48,251,293628,2,0,P|48:278|59:253,1,63.75,2|0,0:0|0:0,0:0:0:0:
105,152,293952,6,0,P|93:109|61:61,1,85,2|0,0:0|0:0,0:0:0:0:
0,0,294439,2,0,P|31:4|60:15,1,42.5,2|0,0:0|0:0,0:0:0:0:
142,36,294763,2,0,L|159:81,1,42.5,2|2,0:0|0:0,0:0:0:0:
139,196,295250,6,0,L|212:169,1,63.75,2|0,0:0|0:0,0:0:0:0:
263,220,295574,2,0,L|349:230,1,76.4999976654053,2|0,0:0|0:0,0:0:0:0:
386,286,295898,6,0,P|369:320|284:361,1,118.999996368408,2|0,3:0|0:0,0:0:0:0:
338,228,296385,2,0,P|380:212|407:214,1,59.4999981842042,2|0,0:0|0:0,0:0:0:0:
269,257,296709,2,0,P|264:218|271:195,1,59.4999981842042,2|2,0:0|0:0,0:0:0:0:
334,49,297196,6,0,L|414:71,1,59.4999981842042,2|0,0:0|0:0,0:0:0:0:
216,142,297520,2,0,L|235:61,1,59.4999981842042,2|0,0:0|0:0,0:0:0:0:
269,199,297844,6,0,P|182:212|152:187,1,118.999996368408,2|0,0:0|0:0,0:0:0:0:
299,130,298331,2,0,P|331:158|344:199,1,59.4999981842042,2|0,0:0|0:0,0:0:0:0:
268,62,298655,2,0,P|315:57|334:65,1,59.4999981842042,2|2,0:0|0:0,0:0:0:0:
469,128,299142,6,0,L|451:210,1,59.4999981842042,2|0,0:0|0:0,0:0:0:0:
293,263,299466,2,0,L|376:280,1,59.4999981842042,2|0,0:0|0:0,0:0:0:0:
230,307,299790,6,0,P|229:219|266:190,1,118.999996368408,2|0,0:0|0:0,0:0:0:0:
284,358,300277,2,0,P|245:379|206:373,1,59.4999981842042,2|0,0:0|0:0,0:0:0:0:
347,316,300601,2,0,P|359:357|358:374,1,59.4999981842042,2|2,0:0|0:0,0:0:0:0:
420,226,301087,6,0,L|506:243,1,59.4999981842042,2|0,0:0|0:0,0:0:0:0:
347,316,301412,2,0,L|262:299,1,59.4999981842042,2|0,0:0|0:0,0:0:0:0:
420,226,301736,6,0,P|469:278|476:350,1,118.999996368408,2|0,0:0|0:0,0:0:0:0:
348,211,302223,2,0,P|369:171|403:155,1,59.4999981842042,2|0,0:0|0:0,0:0:0:0:
321,281,302547,2,0,P|287:254|276:227,1,59.4999981842042,2|2,0:0|0:0,0:0:0:0:
407,374,303033,6,0,L|302:380,1,89.2499972763062,2|0,0:0|0:0,0:0:0:0:
258,334,303358,2,0,L|153:328,1,89.2499972763062,2|0,0:0|0:0,0:0:0:0:
104,285,303682,6,0,P|131:251|132:133,1,148.74999546051,2|0,0:0|0:0,0:0:0:0:
123,123,304169,2,0,P|158:174|192:198,1,89.2499972763062,2|0,0:0|0:0,0:0:0:0:
205,203,304493,2,0,L|284:176,1,59.4999981842042,2|2,0:0|0:0,0:0:0:0:
386,138,305628,6,0,B|396:123|418:113|418:113|425:173|398:216,1,140.24999571991,2|0,0:3|0:0,0:0:0:0:
396,220,306601,2,0,B|411:230|421:252|421:252|361:259|318:232,1,140.24999571991,2|0,0:0|0:0,0:0:0:0:
313,230,307574,2,0,B|303:245|281:255|281:255|274:195|301:152,1,140.24999571991,2|0,0:0|0:0,0:0:0:0:
302,147,308547,6,0,P|281:122|274:116,1,38.2499988327027,0|0,0:0|0:0,0:0:0:0:
262,109,308871,2,0,L|321:94,1,51,2|0,0:0|0:0,0:0:0:0:
247,109,309196,2,0,L|305:82,1,63.75,2|0,0:0|0:0,0:0:0:0:
233,111,309520,6,0,P|205:132|186:170,2,76.4999976654053,2|0|0,0:0|0:0|0:0,0:0:0:0:
305,81,310817,1,0,0:0:0:0:
184,33,311142,1,2,0:0:0:0:
294,160,311466,6,0,P|307:204|307:243,2,76.4999976654053,2|0|0,0:0|0:0|0:0,0:0:0:0:
233,111,312763,1,0,0:0:0:0:
305,81,313087,1,0,0:0:0:0:
376,127,313412,6,0,B|389:105|389:82|389:82|421:122|408:177,1,140.24999571991,2|0,0:0|0:0,0:0:0:0:
407,182,314385,2,0,P|351:191|283:244,1,140.24999571991,2|0,0:0|0:0,0:0:0:0:
279,251,315358,2,0,L|289:95,1,152.999995330811,2|0,0:0|0:0,0:0:0:0:
297,5,316655,6,0,P|338:25|355:47,1,63.75,2|0,0:0|0:0,0:0:0:0:
297,5,316979,2,0,P|342:3|383:24,1,89.2499972763062,2|0,0:0|0:0,0:0:0:0:
390,30,317304,6,0,P|366:62|358:101,2,76.4999976654053,2|0|0,0:0|0:0|0:0,0:0:0:0:
461,9,318601,1,0,0:0:0:0:
455,103,318925,1,0,0:0:0:0:
358,97,319250,6,0,L|287:102,1,63.7499980545045,2|0,0:0|0:0,0:0:0:0:
237,154,319736,2,0,L|166:149,1,63.7499980545045
51,244,320223,6,0,P|76:285|137:305,1,101.999996887207,8|0,0:0|0:0,0:0:0:0:
216,266,320709,1,4,0:3:0:0:
240,257,320790,1,4,0:3:0:0:
265,252,320871,1,4,0:3:0:0:
399,276,321033,1,4,0:3:0:0:
354,130,321196,6,0,P|285:94|221:103,1,136,12|0,0:3|0:0,0:0:0:0:
102,148,321682,2,0,P|115:105|120:64,1,68,2|0,0:0|0:0,0:0:0:0:
200,188,322006,1,2,0:0:0:0:
354,130,322169,6,0,P|403:127|474:169,1,101.999996887207,8|0,0:3|0:0,0:0:0:0:
354,130,322493,2,0,P|397:151|440:228,1,127.5,4|0,0:3|0:0,0:0:0:0:
354,130,322817,2,0,P|384:167|389:268,1,152.999995330811,4|0,0:3|0:0,0:0:0:0:
258,384,323142,6,0,P|201:339|183:211,1,203.999993774414,4|0,0:3|0:0,0:0:0:0:
277,86,323628,2,0,P|252:56|216:35,1,68,4|0,0:3|0:0,0:0:0:0:
366,227,323952,1,4,0:3:0:0:
366,227,324114,6,0,P|380:144|336:63,1,152.999995330811,4|0,0:0|0:0,0:0:0:0:
366,227,324439,2,0,P|413:157|414:86,1,127.5,4|0,0:3|0:0,0:0:0:0:
366,226,324763,2,0,P|438:184|459:149,1,102,4|0,0:3|0:0,0:0:0:0:
241,281,325087,6,0,L|466:262,1,203.999993774414,12|0,0:3|0:0,0:0:0:0:
444,263,325574,2,0,P|451:301|477:347,1,68,2|0,0:0|0:0,0:0:0:0:
512,214,325898,1,4,0:3:0:0:
325,226,326060,6,0,P|276:229|205:187,1,102,8|0,0:3|0:0,0:0:0:0:
325,226,326384,2,0,P|282:205|240:133,1,102,4|0,0:3|0:0,0:0:0:0:
325,226,326708,2,0,P|298:185|304:90,1,127.5,4|0,0:3|0:0,0:0:0:0:
424,2,327033,6,0,P|455:56|427:194,1,203.999993774414,4|0,0:3|0:0,0:0:0:0:
319,324,327520,2,0,P|372:316|412:300,1,68,2|0,0:0|0:0,0:0:0:0:
185,233,327844,1,4,0:3:0:0:
185,233,328006,6,0,P|170:315|214:396,1,152.999995330811,4|0,0:0|0:0,0:0:0:0:
185,233,328331,2,0,P|136:302|137:380,1,127.5,4|0,0:3|0:0,0:0:0:0:
185,233,328655,2,0,P|112:275|91:308,1,102,4|0,0:3|0:0,0:0:0:0:
290,264,328979,6,0,L|100:160,1,203.999993774414,12|0,0:3|0:0,0:0:0:0:
111,166,329466,2,0,L|111:197,2,17,2|2|2,0:0|0:0|0:0,0:0:0:0:
111,132,329628,1,2,0:0:0:0:
252,72,329790,1,4,0:3:0:0:
252,72,329952,6,0,P|252:121|299:188,1,102,8|0,0:3|0:0,0:0:0:0:
252,72,330276,2,0,P|275:113|350:150,1,102,4|0,0:3|0:0,0:0:0:0:
252,72,330600,2,0,P|293:96|389:82,1,127.5,4|0,0:3|0:0,0:0:0:0:
508,14,330925,6,0,P|487:115|416:196,1,203.999993774414,4|0,0:3|0:0,0:0:0:0:
296,274,331412,2,0,P|340:295|364:314,1,68,2|0,0:0|0:0,0:0:0:0:
250,174,331736,1,4,0:3:0:0:
250,174,331898,6,0,P|164:174|92:118,1,152.999995330811,4|0,0:0|0:0,0:0:0:0:
250,174,332223,2,0,P|173:211|96:197,1,127.5,4|0,0:3|0:0,0:0:0:0:
250,174,332547,2,0,P|196:238|160:254,1,102,4|0,0:3|0:0,0:0:0:0:
242,41,332871,6,0,L|322:272,1,203.999993774414,12|0,0:3|0:0,0:0:0:0:
309,234,333358,2,0,P|341:206|382:189,1,68,2|0,0:0|0:0,0:0:0:0:
258,343,333682,1,4,0:3:0:0:
258,343,333844,6,0,P|217:314|189:237,1,102,8|0,0:3|0:0,0:0:0:0:
258,343,334168,2,0,P|237:300|250:217,1,102,4|0,0:3|0:0,0:0:0:0:
258,343,334492,2,0,P|261:295|328:225,1,127.5,4|0,0:3|0:0,0:0:0:0:
458,185,334817,6,0,P|428:106|306:53,1,203.999993774414,4|0,0:3|0:0,0:0:0:0:
189,136,335304,2,0,P|233:104|250:86,1,68,2|0,0:0|0:0,0:0:0:0:
78,143,335628,1,4,0:3:0:0:
78,143,335790,6,0,L|142:235,1,102,8|0,0:3|0:0,0:0:0:0:
131,238,336114,2,0,L|258:257,1,127.499996109009,4|0,0:0|0:0,0:0:0:0:
354,271,337087,1,0,0:0:0:0:
354,271,337412,1,0,0:0:0:0:
424,174,337736,6,0,P|325:183|279:169,1,140.24999571991,2|0,0:3|0:0,0:0:0:0:
275,165,338709,2,0,L|394:76,1,140.24999571991,8|0,0:3|0:0,0:0:0:0:
397,73,339682,1,4,0:3:0:0:
425,169,339844,1,0,0:0:0:0:
429,185,339925,2,0,L|434:204,2,14.874999546051,0|0|0,0:0|0:0|0:0,0:0:0:0:
370,299,340169,5,4,0:3:0:0:
391,197,340331,1,0,0:0:0:0:
318,275,340493,1,0,0:0:0:0:
372,186,340655,1,4,0:0:0:0:
279,232,340817,1,0,0:0:0:0:
360,166,340979,1,4,0:3:0:0:
255,178,341142,1,0,0:0:0:0:
353,144,341304,1,4,0:3:0:0:
279,232,341466,1,0,0:0:0:0:
279,232,341628,6,0,P|261:261|249:308,1,76.4999976654053,4|4,0:3|0:3,0:0:0:0:
319,171,342601,2,0,P|297:158|266:151,2,50.9999984436036,8|4|4,0:3|0:3|0:3,0:0:0:0:
183,60,343574,2,0,P|211:48|257:49,1,76.4999976654053,4|4,0:3|0:3,0:0:0:0:
128,150,344547,2,0,P|96:144|75:130,2,50.9999984436036,4|4|4,0:0|0:3|0:3,0:0:0:0:
307,106,345520,6,0,P|312:147|328:183,1,76.4999976654053,4|4,0:3|0:3,0:0:0:0:
403,46,346493,2,0,P|381:37|352:37,2,50.9999984436036,8|4|4,0:3|0:3|0:3,0:0:0:0:
203,97,347466,2,0,P|219:67|262:39,1,76.4999976654053,4|4,0:3|0:3,0:0:0:0:
208,208,348439,2,0,P|184:217|159:217,2,50.9999984436036,4|4|4,0:0|0:3|0:3,0:0:0:0:
252,42,349412,6,0,P|264:71|301:111,1,76.4999976654053,4|4,0:3|0:3,0:0:0:0:
444,51,350385,2,0,P|420:40|390:38,2,50.9999984436036,8|4|4,0:3|0:3|0:3,0:0:0:0:
475,201,351358,2,0,P|465:222|418:265,1,76.4999976654053,4|4,0:3|0:3,0:0:0:0:
207,239,352331,6,0,P|236:224|269:219,1,63.7499980545045,8|0,0:0|0:0,0:0:0:0:
279,220,352817,1,4,0:3:0:0:
290,226,352898,1,4,0:3:0:0:
297,236,352979,1,4,0:3:0:0:
155,164,353142,1,4,0:3:0:0:
288,30,353304,6,0,P|335:52|380:125,1,136,2|0,0:0|0:0,0:0:0:0:
352,276,353790,2,0,L|225:287,1,102,2|0,0:0|0:0,0:0:0:0:
216,287,354114,1,4,0:3:0:0:
91,293,354277,6,0,P|98:241|127:206,1,68,8|0,0:3|0:0,0:0:0:0:
352,276,354601,2,0,P|345:328|316:363,1,68,4|0,0:3|0:0,0:0:0:0:
102,276,354925,2,0,P|109:224|138:189,1,68,4|0,0:3|0:0,0:0:0:0:
226,60,355250,6,0,P|236:98|311:160,1,136,4|0,0:3|0:0,0:0:0:0:
438,178,355736,2,0,L|465:168,2,17,2|2|2,0:0|0:0|0:0,0:0:0:0:
469,167,355898,1,2,0:0:0:0:
253,227,356060,1,4,0:3:0:0:
253,227,356223,6,0,P|226:260|217:287,1,68,4|0,0:0|0:0,0:0:0:0:
433,223,356547,2,0,P|460:190|469:163,1,68,4|0,0:3|0:0,0:0:0:0:
251,267,356871,2,0,P|224:300|215:327,1,68,4|0,0:3|0:0,0:0:0:0:
406,101,357196,6,0,L|268:104,1,136,12|0,0:3|0:0,0:0:0:0:
122,35,357682,2,0,L|119:166,1,102,2|0,0:0|0:0,0:0:0:0:
117,170,358006,1,4,0:3:0:0:
111,293,358169,6,0,P|160:283|179:274,1,68,8|0,0:3|0:0,0:0:0:0:
84,100,358493,2,0,P|35:110|16:119,1,68,4|0,0:3|0:0,0:0:0:0:
137,274,358817,2,0,P|186:264|205:255,1,68,4|0,0:3|0:0,0:0:0:0:
343,110,359142,6,0,P|355:149|418:221,1,136,4|0,0:3|0:0,0:0:0:0:
416,23,359628,2,0,L|289:40,1,102,2|0,0:0|0:0,0:0:0:0:
280,36,359952,2,0,L|292:66,2,17,2|2|2,0:0|0:0|0:0,0:0:0:0:
269,62,360114,6,0,P|268:100|256:135,1,68,6|0,0:0|0:0,0:0:0:0:
89,217,360439,2,0,P|90:179|102:144,1,68,4|0,0:3|0:0,0:0:0:0:
241,266,360763,2,0,P|240:304|228:339,1,68,4|0,0:3|0:0,0:0:0:0:
314,36,361087,6,0,L|468:72,1,136,12|0,0:3|0:0,0:0:0:0:
503,213,361574,2,0,L|375:245,1,102,2|0,0:0|0:0,0:0:0:0:
371,246,361898,1,4,0:3:0:0:
241,266,362060,6,0,P|268:295|298:310,1,68,8|0,0:3|0:0,0:0:0:0:
503,213,362385,2,0,P|480:187|451:170,1,68,4|0,0:3|0:0,0:0:0:0:
278,276,362709,2,0,P|305:305|335:320,1,68,4|0,0:3|0:0,0:0:0:0:
238,85,363033,6,0,P|201:75|103:93,1,136,4|0,0:3|0:0,0:0:0:0:
31,199,363520,2,2,L|34:228,2,17
31,165,363682,1,2,0:0:0:0:
173,94,363844,1,4,0:3:0:0:
173,94,364006,6,0,P|199:129|210:165,1,68,4|0,0:0|0:0,0:0:0:0:
202,358,364331,2,0,P|180:331|167:300,1,68,4|0,0:3|0:0,0:0:0:0:
349,245,364655,2,0,P|375:280|386:316,1,68,4|0,0:3|0:0,0:0:0:0:
263,2,364979,6,0,L|399:19,1,136,12|0,0:3|0:0,0:0:0:0:
321,170,365466,2,0,L|449:155,1,102,2|0,0:0|0:0,0:0:0:0:
455,153,365790,1,4,0:3:0:0:
343,262,365952,6,0,P|327:295|320:328,1,68,8|0,0:3|0:0,0:0:0:0:
422,158,366277,2,0,P|437:127|444:94,1,68,4|0,0:3|0:0,0:0:0:0:
240,157,366601,1,2,0:0:0:0:
240,157,366763,1,4,0:3:0:0:
206,164,366844,1,4,0:3:0:0:
179,186,366925,6,0,P|152:217|138:247,1,63.7499980545045,4|0,0:3|0:0,0:0:0:0:
133,270,367412,2,0,L|261:250,1,102,8|0,0:0|0:0,0:0:0:0:
267,248,367736,1,4,0:3:0:0:
46,279,367898,6,0,P|62:229|64:191,1,68,8|0,0:0|0:0,0:0:0:0:
64,55,368223,1,8,0:0:0:0:
63,213,368385,1,8,0:0:0:0:
184,69,368547,1,8,0:3:0:0:
236,81,368628,1,8,0:0:0:0:
289,93,368709,1,8,0:0:0:0:
341,105,368790,1,8,0:0:0:0:
394,117,368871,6,0,P|353:136|310:184,1,102,0|0,0:0|0:0,0:0:0:0:
300,208,369196,1,2,0:0:0:0:
456,194,369358,1,2,0:0:0:0:
342,22,369520,1,2,0:0:0:0:
226,265,369682,1,2,0:0:0:0:
226,265,369844,6,0,P|175:230|142:169,1,102,8|0,0:3|0:0,0:0:0:0:
146,163,370169,2,0,L|131:275,1,102,4|0,0:3|0:0,0:0:0:0:
102,247,370493,2,0,L|115:348,1,102,4|0,0:3|0:0,0:0:0:0:
83,335,370817,6,0,P|153:327|201:339,1,102,4|0,0:3|0:0,0:0:0:0:
214,346,371142,1,2,0:0:0:0:
83,335,371304,1,2,0:0:0:0:
238,219,371466,1,2,0:0:0:0:
68,326,371628,1,2,0:0:0:0:
298,312,371790,6,0,P|322:267|390:227,1,102,4|0,0:0|0:0,0:0:0:0:
394,226,372114,1,4,0:3:0:0:
287,112,372277,1,4,0:3:0:0:
254,103,372358,1,4,0:3:0:0:
220,106,372439,1,4,0:3:0:0:
107,158,372601,1,4,0:3:0:0:
394,226,372763,6,0,P|412:182|409:120,1,102,4|0,1:0|0:0,0:0:0:0:
400,88,373087,1,2,0:0:0:0:
291,204,373250,1,2,0:0:0:0:
480,248,373412,1,2,0:0:0:0:
416,6,373574,1,2,0:0:0:0:
416,6,373736,6,0,P|350:9|309:24,1,102,8|0,0:3|0:0,0:0:0:0:
279,38,374060,2,0,P|301:92|300:142,1,102,4|0,0:3|0:0,0:0:0:0:
268,106,374385,2,0,P|269:156|290:203,1,102,4|0,0:3|0:0,0:0:0:0:
322,227,374709,6,0,L|206:211,1,102,4|0,0:3|0:0,0:0:0:0:
180,206,375033,1,2,0:0:0:0:
322,227,375196,1,2,0:0:0:0:
145,298,375358,1,2,0:0:0:0:
345,212,375520,1,2,0:0:0:0:
250,379,375682,6,0,L|361:363,1,102,4|0,0:0|0:0,0:0:0:0:
391,357,376006,2,0,L|424:254,1,102,4|0,0:3|0:0,0:0:0:0:
437,221,376331,1,4,0:3:0:0:
287,296,376493,1,4,0:3:0:0:
249,285,376574,1,4,0:3:0:0:
229,263,376655,6,0,P|214:228|213:200,1,63.7499980545045,4|0,1:0|0:0,0:0:0:0:
223,162,377142,2,0,P|171:172|114:226,1,102,2|0,0:0|0:0,0:0:0:0:
111,235,377466,1,4,0:3:0:0:
111,235,377628,6,0,L|93:129,1,102,8|0,0:3|0:0,0:0:0:0:
64,162,377952,2,0,L|81:61,1,102,4|0,0:3|0:0,0:0:0:0:
86,20,378277,2,0,L|194:67,1,102,4|0,0:3|0:0,0:0:0:0:
217,74,378601,6,0,P|269:38|333:31,1,102,4|0,0:3|0:0,0:0:0:0:
346,34,378925,1,2,0:0:0:0:
388,157,379087,2,0,L|318:143,1,68,2|2,0:0|0:0,0:0:0:0:
438,262,379412,1,2,0:0:0:0:
438,262,379574,6,0,P|381:271|328:288,1,102,4|0,0:0|0:0,0:0:0:0:
300,297,379898,1,4,0:3:0:0:
329,151,380060,1,8,0:0:0:0:
329,151,380142,1,8,0:0:0:0:
329,151,380223,1,8,0:0:0:0:
463,335,380385,1,8,0:0:0:0:
256,211,380547,6,0,L|80:231,1,140.25000428009,8|0,0:0|0:0,0:0:0:0:
61,235,380871,1,0,0:0:0:0:
412,59,381033,2,0,L|236:39,1,140.25000428009,8|0,0:0|0:0,0:0:0:0:
217,36,381357,1,0,0:0:0:0:
454,139,381520,6,0,P|435:85|405:53,1,93.5000028533936,8|0,0:3|0:0,0:0:0:0:
346,194,381844,1,4,0:3:0:0:
348,240,381925,1,4,0:3:0:0:
369,281,382006,1,4,0:3:0:0:
405,311,382087,1,4,0:3:0:0:
450,324,382168,5,4,0:3:0:0:
407,304,382250,1,4,0:3:0:0:
363,298,382331,1,4,0:3:0:0:
321,318,382412,1,4,0:3:0:0:
273,346,382493,6,0,L|125:319,1,110.499994941712,8|0,0:3|0:0,0:0:0:0:
40,299,382817,1,8,0:3:0:0:
417,159,382979,2,0,L|269:132,1,110.499994941712,8|0,0:3|0:0,0:0:0:0:
184,112,383303,1,8,0:3:0:0:
340,235,383466,2,0,P|394:193|425:139,1,110.499994941712,8|0,0:3|0:0,0:0:0:0:
197,81,383790,5,8,0:3:0:0:
184,112,383871,1,8,0:3:0:0:
178,146,383952,1,8,0:3:0:0:
180,180,384033,1,8,0:3:0:0:
194,211,384114,5,8,0:3:0:0:
211,240,384195,1,8,0:3:0:0:
220,272,384276,1,8,0:3:0:0:
216,305,384357,1,8,0:3:0:0:
196,333,384439,6,0,P|262:313|313:317,1,102,4|0,1:0|0:0,0:0:0:0:
327,321,384763,2,0,L|300:387,1,68,2|2,0:0|0:0,0:0:0:0:
110,333,385087,2,0,L|135:270,1,68,2|2,0:0|0:0,0:0:0:0:
271,149,385412,6,0,P|305:176|345:240,1,102,8|0,0:0|0:0,0:0:0:0:
347,256,385736,2,0,L|361:215,1,34,4|0,0:3|0:0,0:0:0:0:
271,149,385898,2,0,L|258:187,1,38.2499988327027,2|0,0:0|0:0,0:0:0:0:
363,277,386060,2,0,L|381:231,1,42.5,4|0,0:3|0:0,0:0:0:0:
250,118,386223,2,0,L|237:162,1,46.7500014266968,2|0,0:0|0:0,0:0:0:0:
370,88,386385,6,0,P|349:42|292:2,1,102,4|0,0:3|0:0,0:0:0:0:
276,2,386709,2,0,L|205:46,1,68,2|2,0:0|0:0,0:0:0:0:
412,153,387033,2,0,L|469:117,1,68,2|2,0:0|0:0,0:0:0:0:
236,162,387358,6,0,P|202:229|199:272,1,102,4|0,0:0|0:0,0:0:0:0:
197,288,387682,2,0,P|225:297|254:295,1,34,4|0,0:3|0:0,0:0:0:0:
94,128,387844,2,0,P|70:128|46:133,1,34,4|4,0:3|0:3,0:0:0:0:
139,185,388006,1,4,0:3:0:0:
315,139,388169,1,4,0:3:0:0:
315,139,388331,6,0,L|359:267,1,110.499994941712,4|0,0:3|0:0,0:0:0:0:
393,367,388655,1,2,0:0:0:0:
48,137,388817,2,0,L|92:265,1,110.499994941712,4|0,0:3|0:0,0:0:0:0:
126,365,389141,1,2,0:0:0:0:
304,147,389304,6,0,P|338:96|273:10,1,165.749992412568,4|0,0:0|0:0,0:0:0:0:
304,147,389628,2,0,P|374:181|436:133,1,165.749992412568,4|0,0:3|0:0,0:0:0:0:
304,147,389952,2,0,P|255:209|290:279,1,165.749992412568,4|0,0:3|0:0,0:0:0:0:
304,147,390277,6,0,L|179:117,1,102,4|0,0:3|0:0,0:0:0:0:
172,113,390601,2,0,L|240:47,1,68,2|2,0:0|0:0,0:0:0:0:
391,186,390925,2,0,L|342:233,1,68,2|2,0:0|0:0,0:0:0:0:
356,43,391250,6,0,P|406:32|458:37,1,102,8|0,0:3|0:0,0:0:0:0:
487,50,391574,1,0,0:0:0:0:
292,70,391898,5,8,0:3:0:0:
508,47,392060,1,8,0:3:0:0:
270,73,392223,6,0,P|296:141|415:149,1,191.249994163513,4|0,0:0|0:0,0:0:0:0:
374,131,392709,2,0,P|282:133|247:166,1,114.749996498108,2|0,0:0|0:0,0:0:0:0:
238,171,393033,1,4,0:3:0:0:
436,88,393196,6,0,P|422:40|407:16,1,76.4999976654053,4|0,0:0|0:0,0:0:0:0:
357,230,393520,2,0,P|343:278|328:302,1,76.4999976654053,4|0,0:3|0:0,0:0:0:0:
254,70,393844,2,0,P|240:22|225:-2,1,76.4999976654053,4|0,0:3|0:0,0:0:0:0:
206,275,394169,6,0,P|274:299|358:215,1,191.249994163513,4|0,0:3|0:0,0:0:0:0:
317,234,394655,2,0,P|259:304|260:352,1,114.749996498108,2|0,0:0|0:0,0:0:0:0:
259,362,394979,1,2,0:0:0:0:
350,151,395142,6,0,L|264:129,1,76.4999976654053,8|0,0:3|0:0,0:0:0:0:
53,76,395466,1,4,0:3:0:0:
53,76,395628,1,4,0:3:0:0:
90,85,395709,1,4,0:3:0:0:
127,94,395790,1,4,0:3:0:0:
275,132,395952,1,4,0:3:0:0:
109,217,396114,6,0,P|135:285|254:293,1,191.249994163513,4|0,0:0|0:0,0:0:0:0:
213,275,396600,2,0,P|121:277|86:310,1,114.749996498108,2|0,0:0|0:0,0:0:0:0:
77,315,396924,1,4,0:3:0:0:
275,132,397087,6,0,L|292:56,1,76.4999976654053,4|0,0:0|0:0,0:0:0:0:
321,286,397412,2,0,L|304:360,1,76.4999976654053,4|0,0:3|0:0,0:0:0:0:
428,157,397736,2,0,L|445:81,1,76.4999976654053,4|0,0:3|0:0,0:0:0:0:
120,159,398060,6,0,P|184:192|278:118,1,191.249994163513,4|0,0:3|0:0,0:0:0:0:
235,131,398546,2,0,P|167:194|164:241,1,114.749996498108,2|0,0:0|0:0,0:0:0:0:
161,252,398870,1,2,0:0:0:0:
268,55,399033,6,0,P|212:31|188:31,1,76.4999976654053,8|0,0:3|0:0,0:0:0:0:
373,171,399358,2,0,P|429:147|453:147,1,76.4999976654053,4|0,0:3|0:0,0:0:0:0:
211,266,399682,1,4,0:3:0:0:
211,266,399844,1,4,0:3:0:0:
179,245,399925,1,4,0:3:0:0:
163,212,400006,6,0,L|366:237,1,165.749992412568,8|0,0:0|0:0,0:0:0:0:
383,240,400331,1,4,0:3:0:0:
8,16,400493,2,0,L|210:40,1,165.749992412568,8|0,0:0|0:0,0:0:0:0:
227,43,400818,1,4,0:3:0:0:
163,212,400979,6,0,P|110:251|64:346,1,165.749992412568,8|0,0:0|0:0,0:0:0:0:
327,232,401304,2,0,P|380:193|426:98,1,165.749992412568,4|0,0:3|0:0,0:0:0:0:
245,126,401628,2,0,L|243:311,1,165.749992412568,4|0,0:3|0:0,0:0:0:0:
243,319,401952,5,8,0:0:0:0:
121,151,402114,1,8,0:0:0:0:
317,216,402277,1,8,0:0:0:0:
122,279,402439,1,8,0:0:0:0:
437,49,402601,5,8,0:0:0:0:
317,216,402763,1,8,0:0:0:0:
319,9,402925,1,8,0:0:0:0:
440,176,403087,1,8,0:0:0:0:
243,113,403250,5,8,0:0:0:0:
437,49,403412,1,8,0:0:0:0:
510,270,403574,5,4,0:3:0:0:
467,305,403655,1,4,0:3:0:0:
416,327,403736,1,4,0:3:0:0:
362,333,403817,1,4,0:3:0:0:
308,325,403898,5,4,0:1:0:0:
381,298,404790,5,8,0:3:0:0:
381,298,404871,1,8,0:3:0:0:
241,273,405196,1,8,0:0:0:0:
407,301,405358,1,8,0:0:0:0:
350,118,405520,1,8,0:0:0:0:
228,289,405682,1,8,0:0:0:0:
446,102,405844,6,0,P|421:51|372:21,1,85,4|0,0:0|0:0,0:0:0:0:
265,106,406169,2,0,P|213:83|156:91,1,85,2|2,0:0|0:0,0:0:0:0:
45,153,406493,2,0,L|143:168,1,85,4|2,3:0|0:0,0:0:0:0:
288,297,406817,6,0,L|167:254,1,127.5,8|0,3:0|0:0,0:0:0:0:
126,243,407142,2,0,P|138:286|134:343,1,85,2|2,0:0|0:0,0:0:0:0:
129,165,407466,2,0,L|216:142,1,85,2|2,0:0|0:0,0:0:0:0:
428,96,407790,6,0,L|302:64,1,127.5,4|0,3:0|0:0,0:0:0:0:
263,54,408114,1,2,0:0:0:0:
428,96,408277,1,2,0:0:0:0:
270,211,408439,2,0,L|285:294,1,85,4|2,3:0|0:0,0:0:0:0:
504,189,408763,6,0,L|355:166,1,127.5,8|0,3:0|0:0,0:0:0:0:
336,162,409087,2,0,P|367:125|403:102,1,85,2|2,0:0|0:0,0:0:0:0:
433,325,409412,1,2,0:0:0:0:
336,162,409574,1,2,0:0:0:0:
433,325,409736,6,0,P|386:323|340:338,1,85,4|0,0:0|0:0,0:0:0:0:
203,384,410060,2,0,P|225:341|230:289,1,85,2|2,0:0|0:0,0:0:0:0:
200,176,410385,1,4,3:0:0:0:
323,235,410547,1,2,0:0:0:0:
97,179,410709,6,0,P|105:231|98:277,1,85,8|0,3:0|0:0,0:0:0:0:
415,209,411033,2,0,P|411:166|419:125,1,85,2|2,0:0|0:0,0:0:0:0:
90,198,411358,2,0,P|88:250|73:294,1,85,2|2,0:0|0:0,0:0:0:0:
426,190,411682,6,0,P|426:147|437:106,1,85,4|0,3:0|0:0,0:0:0:0:
310,302,412006,1,2,0:0:0:0:
471,284,412169,1,2,0:0:0:0:
278,169,412331,1,4,3:0:0:0:
402,360,412493,1,2,0:0:0:0:
335,80,412655,6,0,L|330:59,1,21.25,8|0,3:0|0:0,0:0:0:0:
417,152,412817,5,0,0:0:0:0:
244,250,412979,1,2,0:0:0:0:
394,282,413142,1,2,0:0:0:0:
253,141,413304,1,2,0:0:0:0:
335,210,413466,1,2,0:0:0:0:
107,193,413628,6,0,P|61:217|25:247,1,85,4|2,0:0|0:0,0:0:0:0:
172,295,413952,2,0,P|210:276|243:250,1,85,2|2,0:0|0:0,0:0:0:0:
352,121,414277,2,0,L|261:103,1,85,4|2,3:0|0:0,0:0:0:0:
39,58,414601,6,0,L|183:21,1,127.5,8|0,3:0|0:0,0:0:0:0:
201,19,414925,2,0,P|170:56|159:108,1,85,2|2,0:0|0:0,0:0:0:0:
348,75,415250,2,0,L|261:106,1,85,2|2,0:0|0:0,0:0:0:0:
77,162,415574,6,0,L|236:185,1,127.5,4|0,3:0|0:0,0:0:0:0:
245,186,415898,1,2,0:0:0:0:
171,255,416060,1,2,0:0:0:0:
159,90,416223,1,4,3:0:0:0:
329,278,416385,1,2,0:0:0:0:
159,90,416547,6,0,P|222:64|279:66,1,85,8|0,3:0|0:0,0:0:0:0:
373,80,416871,1,2,0:0:0:0:
245,186,417033,1,2,0:0:0:0:
238,62,417196,1,2,0:0:0:0:
480,159,417358,2,0,L|441:195,1,42.5,2|0,0:0|0:0,0:0:0:0:
314,290,417520,6,0,L|173:311,1,127.5,4|0,0:0|0:0,0:0:0:0:
12,218,417844,2,0,L|138:199,1,127.5,2|0,0:0|0:0,0:0:0:0:
322,298,418169,2,0,P|258:309|181:319,1,127.5,4|0,3:0|0:0,0:0:0:0:
9,197,418493,6,0,P|72:190|136:189,1,127.5,8|0,3:0|0:0,0:0:0:0:
324,322,418817,2,0,P|259:330|181:330,1,127.5,2|0,0:0|0:0,0:0:0:0:
1,186,419142,2,0,P|61:176|128:178,1,127.5,2|0,0:0|0:0,0:0:0:0:
326,345,419466,6,0,P|264:352|183:341,1,127.5,4|0,3:0|0:0,0:0:0:0:
2,159,419790,2,0,P|64:151|129:162,1,127.5,2|0,0:0|0:0,0:0:0:0:
334,358,420114,2,0,P|272:369|191:354,1,127.5,4|0,3:0|0:0,0:0:0:0:
0,135,420439,6,0,P|60:129|126:149,1,127.5,8|0,3:0|0:0,0:0:0:0:
143,182,420763,1,2,0:0:0:0:
28,298,420925,1,8,3:0:0:0:
86,61,421087,1,8,3:0:0:0:
210,329,421250,1,8,3:0:0:0:
367,74,421412,6,0,P|412:88|481:145,1,127.5,4|0,0:0|0:0,0:0:0:0:
492,172,421736,2,0,P|420:167|358:180,1,127.5,2|0,0:0|0:0,0:0:0:0:
327,198,422060,2,0,P|263:209|200:204,1,127.5,2|0,3:0|0:0,0:0:0:0:
160,189,422385,6,0,L|276:290,1,127.5,8|0,3:0|0:0,0:0:0:0:
285,302,422709,1,2,3:0:0:0:
123,313,422871,1,2,3:0:0:0:
377,302,423033,1,2,3:0:0:0:
210,352,423196,1,2,3:0:0:0:
262,165,423358,6,0,P|244:106|252:28,1,127.5,4|0,3:0|0:0,0:0:0:0:
270,5,423682,2,0,P|326:65|337:98,1,85,2|2,0:0|0:0,0:0:0:0:
241,211,424006,2,0,P|185:151|174:118,1,85,4|2,3:0|0:0,0:0:0:0:
404,177,424331,6,0,L|421:316,1,127.5,8|0,2:0|0:0,0:0:0:0:
423,345,424655,1,2,3:0:0:0:
262,322,424817,1,2,3:0:0:0:
512,364,424979,1,2,3:0:0:0:
339,378,425142,1,2,3:0:0:0:
467,202,425304,6,0,P|411:156|347:130,1,127.5,4|0,0:0|0:0,0:0:0:0:
319,125,425628,1,2,0:0:0:0:
473,94,425790,1,2,0:0:0:0:
370,251,425952,1,6,3:0:0:0:
307,40,426114,1,2,0:0:0:0:
119,144,426277,6,0,L|265:132,1,127.5,8|0,3:0|0:0,0:0:0:0:
288,129,426601,1,2,3:0:0:0:
265,290,426763,1,2,3:0:0:0:
307,40,426925,1,2,3:0:0:0:
321,213,427088,1,2,3:0:0:0:
453,2,427250,6,0,P|437:66|438:160,1,127.5,4|0,3:0|0:0,0:0:0:0:
440,169,427574,1,2,0:0:0:0:
307,40,427736,1,2,0:0:0:0:
453,2,427898,1,6,3:0:0:0:
288,129,428060,1,2,0:0:0:0:
486,215,428223,6,0,L|359:292,1,127.5,8|0,2:0|0:0,0:0:0:0:
340,302,428547,1,2,3:0:0:0:
371,148,428709,1,2,3:0:0:0:
476,340,428871,1,2,3:0:0:0:
290,216,429033,1,2,3:0:0:0:
478,85,429196,6,0,P|427:36|349:21,1,127.5,4|0,0:0|0:0,0:0:0:0:
331,27,429520,2,0,L|249:79,1,85,2|0,0:0|0:0,0:0:0:0:
374,232,429844,2,0,P|378:172|364:130,1,85,2|0,3:0|0:0,0:0:0:0:
141,194,430169,6,0,P|165:248|217:293,1,127.5,8|0,3:0|0:0,0:0:0:0:
252,313,430493,1,2,3:0:0:0:
91,290,430655,1,2,3:0:0:0:
341,332,430817,1,2,3:0:0:0:
168,346,430980,1,2,3:0:0:0:
343,165,431142,6,0,P|299:97|244:72,1,127.5,4|0,3:0|0:0,0:0:0:0:
217,71,431466,2,0,P|218:130|202:175,1,85,2|2,0:0|0:0,0:0:0:0:
397,100,431790,2,0,P|406:59|403:17,1,85,4|2,3:0|0:0,0:0:0:0:
331,301,432114,6,0,L|455:248,1,127.5,8|0,2:0|0:0,0:0:0:0:
486,232,432439,1,2,3:0:0:0:
509,71,432601,1,2,3:0:0:0:
467,321,432763,1,2,3:0:0:0:
453,148,432926,1,2,3:0:0:0:
311,376,433087,6,0,P|289:305|246:224,1,127.5,4|0,0:0|0:0,0:0:0:0:
239,223,433412,2,0,P|301:234|344:231,1,85,2|2,0:0|0:0,0:0:0:0:
148,132,433736,2,0,P|86:143|43:140,1,85,4|2,3:0|0:0,0:0:0:0:
361,35,434060,6,0,P|314:107|267:131,1,127.5,8|0,0:3|0:0,0:0:0:0:
238,140,434385,1,2,3:0:0:0:
103,48,434547,1,2,3:0:0:0:
309,196,434709,1,2,3:0:0:0:
148,132,434872,1,2,3:0:0:0:
428,139,435033,6,0,P|387:58|342:23,1,127.5,4|0,3:0|0:0,0:0:0:0:
320,19,435358,1,8,3:0:0:0:
222,26,435520,1,8,3:0:0:0:
113,96,435682,5,8,3:0:0:0:
225,103,435844,1,8,3:0:0:0:
359,187,436006,5,8,0:2:0:0:
232,178,436168,1,8,3:0:0:0:
99,246,436331,5,8,3:0:0:0:
240,255,436493,1,8,3:0:0:0:
407,339,436655,5,8,3:0:0:0:
248,328,436817,1,8,3:0:0:0:
386,103,436979,6,0,L|356:78,1,21.25,4|0,0:1|0:0,0:0:0:0:
456,58,437466,1,8,3:0:0:0:
318,154,437628,2,0,P|304:172|292:199,1,51,4|0,3:0|0:0,0:0:0:0:
327,274,437952,6,0,P|234:190|173:165,1,152.999995330811,4|0,0:0|0:0,0:0:0:0:
160,165,438277,1,2,0:0:0:0:
451,224,438439,1,2,0:0:0:0:
138,160,438601,1,4,0:3:0:0:
429,219,438763,1,2,0:0:0:0:
225,0,438925,6,0,P|253:44|271:91,1,101.999996887207,8|0,3:0|0:0,0:0:0:0:
200,350,439250,2,0,P|227:306|245:259,1,101.999996887207,2|0,0:0|0:0,0:0:0:0:
394,19,439574,2,0,L|423:175,1,152.999995330811,2|0,0:0|0:0,0:0:0:0:
429,219,439898,6,0,P|356:152|339:147,1,101.999996887207,4|0,3:0|0:0,0:0:0:0:
192,162,440223,1,2,0:0:0:0:
394,19,440385,1,2,0:0:0:0:
174,177,440547,1,4,0:3:0:0:
376,34,440709,1,2,0:0:0:0:
72,16,440871,6,0,L|240:73,1,152.999995330811,8|0,3:0|0:0,0:0:0:0:
265,83,441196,2,0,L|207:132,1,50.9999984436036,8|0,2:0|0:0,0:0:0:0:
286,162,441358,2,0,P|281:193|281:222,1,59.4999981842042,8|0,2:0|0:0,0:0:0:0:
353,236,441520,2,0,P|364:281|383:304,1,68,8|0,2:0|0:0,0:0:0:0:
445,268,441682,2,0,P|473:296|514:304,1,76.4999976654053,8|0,2:0|0:0,0:0:0:0:
353,236,441844,6,0,L|170:256,1,152.999995330811,4|0,3:0|0:0,0:0:0:0:
149,257,442169,2,0,P|119:306|108:313,1,50.9999984436036,0|0,0:0|0:0,0:0:0:0:
64,154,442331,2,0,P|94:203|105:210,1,50.9999984436036,2|0,0:0|0:0,0:0:0:0:
120,93,442493,2,0,P|178:73|265:111,1,152.999995330811,4|0,3:0|0:0,0:0:0:0:
293,143,442817,6,0,P|294:92|320:46,1,101.999996887207,8|0,3:0|0:0,0:0:0:0:
368,229,443142,2,0,P|366:279|341:326,1,101.999996887207,0|0,0:0|0:0,0:0:0:0:
163,253,443466,2,0,P|212:240|263:252,1,101.999996887207,2|0,0:0|0:0,0:0:0:0:
416,49,443790,6,0,P|366:36|315:48,1,101.999996887207,4|0,3:0|0:0,0:0:0:0:
162,140,444114,1,0,0:0:0:0:
162,140,444277,2,0,L|146:171,2,33.9999989624024,2|0|0,0:0|0:0|0:0,0:0:0:0:
178,110,444439,2,0,L|236:158,1,50.9999984436036,4|0,3:0|0:0,0:0:0:0:
293,143,444601,2,0,L|300:217,1,50.9999984436036,2|0,0:0|0:0,0:0:0:0:
376,196,444763,6,0,P|356:253|317:292,1,101.999996887207,8|0,3:0|0:0,0:0:0:0:
378,97,445087,2,0,P|426:111|463:151,1,101.999996887207,0|0,0:0|0:0,0:0:0:0:
331,377,445412,2,0,P|280:364|245:327,1,101.999996887207,2|0,0:0|0:0,0:0:0:0:
124,95,445736,6,0,P|154:145|127:239,1,152.999995330811,4|0,0:0|0:0,0:0:0:0:
96,268,446060,1,2,0:0:0:0:
311,63,446222,1,2,0:0:0:0:
79,283,446384,1,4,0:3:0:0:
294,78,446546,1,2,0:0:0:0:
323,380,446709,6,0,P|363:336|386:254,1,101.999996887207,8|0,3:0|0:0,0:0:0:0:
319,55,447033,2,0,P|354:91|375:137,1,101.999996887207,2|0,0:0|0:0,0:0:0:0:
152,249,447358,2,0,L|321:217,1,152.999995330811,2|0,0:0|0:0,0:0:0:0:
344,217,447682,6,0,P|295:264|267:313,1,101.999996887207,4|0,3:0|0:0,0:0:0:0:
170,234,448006,1,2,0:0:0:0:
372,91,448168,1,2,0:0:0:0:
152,249,448330,1,4,0:3:0:0:
354,106,448492,1,2,0:0:0:0:
415,359,448655,6,0,L|255:283,1,152.999995330811,8|0,3:0|0:0,0:0:0:0:
231,270,448979,2,0,L|182:328,1,50.9999984436036,8|0,2:0|0:0,0:0:0:0:
152,249,449141,2,0,P|121:254|92:252,1,50.9999984436036,8|0,2:0|0:0,0:0:0:0:
78,182,449303,2,0,P|33:171|10:152,1,59.4999981842042,8|0,2:0|0:0,0:0:0:0:
46,90,449465,2,0,P|18:62|11:26,1,68,8|0,2:0|0:0,0:0:0:0:
78,182,449628,6,0,L|56:341,1,152.999995330811,4|0,3:0|0:0,0:0:0:0:
47,383,449952,2,0,P|124:325|156:313,1,101.999996887207
281,304,450277,2,0,P|264:359|256:370,1,50.9999984436036,2|0,0:0|0:0,0:0:0:0:
205,185,450439,2,0,P|208:210|218:233,1,50.9999984436036,2|0,0:0|0:0,0:0:0:0:
263,108,450601,6,0,P|317:122|381:196,1,152.999995330811,8|0,3:0|0:0,0:0:0:0:
388,242,450925,2,0,P|393:176|410:122,1,101.999996887207,0|0,0:0|0:0,0:0:0:0:
466,5,451250,2,0,P|488:14|513:36,1,50.9999984436036,2|0,0:0|0:0,0:0:0:0:
335,22,451412,2,0,P|354:38|377:48,1,50.9999984436036,2|0,0:0|0:0,0:0:0:0:
234,34,451574,6,0,P|177:73|147:136,1,101.999996887207,4|0,3:0|0:0,0:0:0:0:
182,269,451898,1,0,0:0:0:0:
182,269,452060,2,0,P|222:228|231:215,1,50.9999984436036,2|0,0:0|0:0,0:0:0:0:
249,273,452223,2,0,P|296:240|373:226,1,101.999996887207,4|0,3:0|0:0,0:0:0:0:
104,301,452547,6,0,P|55:285|14:255,1,101.999996887207,8|0,3:0|0:0,0:0:0:0:
214,116,452871,2,0,L|284:155,1,50.9999984436036,8|0,2:0|0:0,0:0:0:0:
389,113,453033,2,0,L|337:142,1,59.4999981842042,8|0,3:0|0:0,0:0:0:0:
203,195,453196,2,0,L|277:236,1,68,8|0,3:0|0:0,0:0:0:0:
404,189,453358,2,0,L|338:227,1,76.4999976654053,8|0,3:0|0:0,0:0:0:0:
134,170,453520,6,0,P|161:216|173:276,1,101.999996887207,4|0,0:0|2:0,0:0:0:0:
401,371,453844,2,0,P|377:313|376:306,1,50.9999984436036,0|0,2:0|0:0,0:0:0:0:
264,319,454006,2,0,P|322:295|329:294,1,50.9999984436036,2|0,2:0|0:0,0:0:0:0:
316,181,454169,2,0,P|340:239|341:246,1,50.9999984436036,4|0,3:0|0:0,0:0:0:0:
454,233,454331,2,0,P|430:241|408:254,1,50.9999984436036,2|0,2:0|0:0,0:0:0:0:
242,139,454493,6,0,P|293:99|343:100,1,101.999996887207,8|0,3:0|2:0,0:0:0:0:
498,130,454817,1,0,2:0:0:0:
401,3,454979,1,0,2:0:0:0:
408,254,455142,2,0,P|423:310|443:363,1,101.999996887207,2|0,2:0|2:0,0:0:0:0:
498,130,455466,6,0,L|309:178,1,152.999995330811,4|0,3:0|0:0,0:0:0:0:
301,183,455790,1,0,2:0:0:0:
422,76,455952,1,2,2:0:0:0:
197,185,456114,1,4,2:3:0:0:
318,78,456276,1,2,2:0:0:0:
282,269,456439,6,0,P|226:284|174:319,1,101.999996887207,8|0,2:0|2:0,0:0:0:0:
13,187,456763,2,0,P|69:202|121:237,1,101.999996887207,0|0,2:0|2:0,0:0:0:0:
244,133,457087,2,0,P|210:82|108:41,1,152.999995330811,2|0,2:0|0:0,0:0:0:0:
78,33,457412,6,0,P|163:27|211:35,1,101.999996887207,4|0,3:0|2:0,0:0:0:0:
427,101,457736,2,0,P|376:107|325:105,1,101.999996887207,0|2,2:0|2:0,0:0:0:0:
179,28,458060,1,4,3:0:0:0:
182,183,458223,1,2,2:0:0:0:
362,25,458385,6,0,P|396:50|428:105,1,101.999996887207,8|0,3:0|2:0,0:0:0:0:
446,331,458709,2,0,P|406:299|381:255,1,101.999996887207,0|0,2:0|2:0,0:0:0:0:
362,25,459033,2,0,L|206:102,1,152.999995330811,2|0,2:0|0:0,0:0:0:0:
183,123,459358,6,0,P|256:128|304:155,1,101.999996887207,4|0,3:0|2:0,0:0:0:0:
381,255,459682,1,0,2:0:0:0:
376,249,459844,2,0,L|337:201,1,50.9999984436036,2|0,2:0|0:0,0:0:0:0:
298,273,460006,2,0,L|244:241,1,50.9999984436036,4|0,3:0|0:0,0:0:0:0:
219,316,460169,2,0,L|158:304,1,50.9999984436036,2|0,2:0|0:0,0:0:0:0:
376,249,460331,6,0,P|429:284|471:346,1,101.999996887207,8|0,2:0|2:0,0:0:0:0:
255,35,460655,2,0,L|325:74,1,50.9999984436036,0|0,2:0|0:0,0:0:0:0:
430,32,460817,2,0,L|378:61,1,59.4999981842042,2|0,2:0|0:0,0:0:0:0:
244,114,460980,2,0,L|318:155,1,68,2|0,2:0|0:0,0:0:0:0:
445,108,461142,2,0,L|379:146,1,76.4999976654053,2|0,2:0|0:0,0:0:0:0:
163,79,461304,6,0,P|154:155|114:212,1,101.999996887207,4|0,0:0|2:0,0:0:0:0:
293,336,461628,2,0,P|317:278|318:271,1,50.9999984436036,0|0,2:0|0:0,0:0:0:0:
430,284,461790,2,0,P|372:260|365:259,1,50.9999984436036,2|0,2:0|0:0,0:0:0:0:
378,146,461953,2,0,P|354:204|353:211,1,50.9999984436036,4|0,0:3|0:0,0:0:0:0:
240,198,462115,2,0,P|263:206|285:219,1,50.9999984436036,2|0,2:0|0:0,0:0:0:0:
452,104,462277,6,0,P|401:64|351:65,1,101.999996887207,8|0,3:0|2:0,0:0:0:0:
216,116,462601,1,0,2:0:0:0:
356,191,462763,1,0,2:0:0:0:
230,33,462925,2,0,P|176:41|137:88,1,101.999996887207,2|0,2:0|2:0,0:0:0:0:
240,198,463250,6,0,L|56:231,1,152.999995330811,4|0,3:0|0:0,0:0:0:0:
38,230,463574,1,0,2:0:0:0:
143,73,463736,1,2,2:0:0:0:
183,286,463898,1,4,3:0:0:0:
30,119,464060,1,2,2:0:0:0:
292,115,464223,6,0,P|348:93|402:45,1,101.999996887207,8|0,2:0|2:0,0:0:0:0:
509,195,464547,2,0,P|461:212|419:241,1,101.999996887207,0|0,2:0|2:0,0:0:0:0:
346,379,464871,2,0,P|316:319|236:253,1,152.999995330811,2|0,2:0|0:0,0:0:0:0:
205,241,465196,6,0,P|267:215|307:174,1,101.999996887207,4|0,3:0|2:0,0:0:0:0:
106,159,465520,2,0,P|58:141|18:110,1,101.999996887207,0|2,2:0|2:0,0:0:0:0:
210,103,465844,1,2,2:0:0:0:
96,273,466006,1,2,2:0:0:0:
210,103,466169,6,0,P|267:108|323:130,1,101.999996887207,8|0,3:0|2:0,0:0:0:0:
452,207,466493,2,0,P|401:203|342:184,1,110.499994941712,2|0,2:0|2:0,0:0:0:0:
166,190,466817,2,0,P|220:194|281:221,1,118.999996368408,8|0,2:0|2:0,0:0:0:0:
111,125,467142,6,0,L|153:320,1,178.499994552612,4|0,3:0|0:0,0:0:0:0:
158,358,467466,2,0,P|90:335|52:296,1,118.999996368408,8|0,2:0|2:0,0:0:0:0:
109,72,467790,2,0,P|154:84|182:105,1,59.4999981842042,8|0,2:0|0:0,0:0:0:0:
232,62,467952,2,0,P|248:84|253:119,2,39.6666654561361,2|2|2,2:0|2:0|2:0,0:0:0:0:
258,128,468114,5,10,3:0:0:0:
377,69,468277,1,8,3:0:0:0:
250,157,468439,5,8,3:0:0:0:
441,179,468601,1,8,3:0:0:0:
242,185,468763,5,8,3:0:0:0:
509,302,468925,1,8,3:0:0:0:
234,213,469086,6,0,B|131:157|149:255|48:207,1,195.5,4|0,0:1|0:0,0:0:0:0:
29,199,471657,2,0,P|61:244|102:258,1,97.75,2|0,0:0|0:0,0:0:0:0:
116,261,474192,2,0,P|84:306|43:320,1,97.75,2|0,0:0|0:0,0:0:0:0:
29,326,476727,2,0,P|85:316|109:320,1,80.75,2|0,0:0|0:0,0:0:0:0:
130,332,478840,2,0,P|147:273|167:242,1,89.2499972763062,0|0,0:0|0:0,0:0:0:0:
173,226,479685,6,0,L|79:209,1,89.2499972763062,2|0,0:0|0:0,0:0:0:0:
61,200,480530,2,0,P|78:182|86:165,1,38.2499988327027,0|0,0:0|0:0,0:0:0:0:
78,145,480952,2,0,P|87:128|154:97,1,89.2499972763062,0|0,0:0|0:0,0:0:0:0:
173,98,481797,2,0,P|158:127|157:142,1,38.2499988327027,0|0,0:0|0:0,0:0:0:0:
157,157,482220,6,0,L|203:153,1,38.2499988327027,2|0,0:0|0:0,0:0:0:0:
211,173,482642,2,0,P|259:172|315:182,1,101.999996887207,0|0,0:0|0:0,0:0:0:0:
312,181,484755,6,0,P|299:209|372:183,1,191.249994163513,2|0,0:0|0:0,0:0:0:0:
360,167,486445,2,0,P|328:162|314:155,1,38.2499988327027,0|0,0:0|0:0,0:0:0:0:
302,143,486868,2,0,P|283:137|264:135,1,38.2499988327027,0|0,0:0|0:0,0:0:0:0:
239,136,487290,6,0,L|137:88,1,101.999996887207,2|0,0:0|0:0,0:0:0:0:
146,92,488980,2,0,P|142:117|111:174,1,89.2499972763062,0|0,0:0|0:0,0:0:0:0:
96,192,489825,6,0,L|195:185,1,89.2499972763062,2|0,0:0|0:0,0:0:0:0:
210,182,490670,2,0,P|218:152|226:140,1,38.2499988327027,0|0,0:0|0:0,0:0:0:0:
243,132,491093,2,0,P|235:102|227:90,1,38.2499988327027,0|0,0:0|0:0,0:0:0:0:
220,73,491515,2,0,P|237:64|255:61,1,38.2499988327027,0|0,0:0|0:0,0:0:0:0:
270,82,491938,2,0,P|287:90|305:93,1,38.2499988327027,0|0,0:0|0:0,0:0:0:0:
331,87,492361,6,0,L|311:192,1,101.999996887207,2|0,0:0|0:0,0:0:0:0:
311,187,494473,2,0,P|273:190|268:192,1,38.2499988327027,0|0,0:0|0:0,0:0:0:0:
250,202,494896,6,0,L|279:249,2,50.9999984436036,2|2|2,0:0|0:0|0:0,0:0:0:0:
166,137,496163,2,0,L|177:191,1,50.9999984436036,2|2,0:0|0:0,0:0:0:0:
226,74,497008,1,2,0:0:0:0:
226,74,497431,2,0,L|172:53,2,50.9999984436036,2|2|2,0:0|0:0|0:0,0:0:0:0:
75,42,498699,6,0,L|92:65,1,17,2|4,0:0|0:0,0:0:0:0:
37,44,498804,2,0,P|32:90|20:121,1,76.5,2|0,0:0|0:0,0:0:0:0:
17,130,500811,6,0,L|65:144,2,50.9999984436036,2|2|2,0:0|0:0|0:0,0:0:0:0:
73,217,502078,2,0,L|123:214,1,50.9999984436036,2|2,0:0|0:0,0:0:0:0:
244,212,502923,1,2,0:0:0:0:
244,212,503346,2,0,L|231:264,2,50.9999984436036,2|2|2,0:0|0:0|0:0,0:0:0:0:
305,292,504613,2,0,L|310:345,1,50.9999984436036,4|2,0:0|0:0,0:0:0:0:
218,261,505458,2,0,L|178:248,1,38.2499988327027,2|0,0:0|0:0,0:0:0:0:
161,264,505881,6,0,L|110:282,2,50.9999984436036,2|2|2,0:0|0:0|0:0,0:0:0:0:
250,206,507149,2,0,L|202:190,1,50.9999984436036,2|2,0:0|0:0,0:0:0:0:
333,188,507994,1,2,0:0:0:0:
333,188,508416,2,0,L|362:238,2,50.9999984436036,2|2|2,0:0|0:0|0:0,0:0:0:0:
243,134,509684,2,0,L|253:190,1,50.9999984436036,4|2,0:0|0:0,0:0:0:0:
182,77,510529,2,0,L|134:84,1,38.2499988327027,2|0,0:0|0:0,0:0:0:0:
132,106,510951,6,0,L|87:132,2,50.9999984436036,2|2|2,0:0|0:0|0:0,0:0:0:0:
225,141,512219,2,0,L|270:106,1,50.9999984436036,2|2,0:0|0:0,0:0:0:0:
370,38,513064,1,2,0:0:0:0:
370,38,513487,2,0,L|383:94,2,50.9999984436036,2|2|2,0:0|0:0|0:0,0:0:0:0:
449,114,514754,2,0,L|437:163,1,50.9999984436036,4|2,0:0|0:0,0:0:0:0:
406,284,515599,2,0,L|417:331,1,38.2499988327027,2|0,0:0|0:0,0:0:0:0:
421,346,516022,6,0,L|361:338,2,50.9999984436036,2|2|2,0:0|0:0|0:0,0:0:0:0:
359,266,517289,2,0,L|314:241,1,50.9999984436036,2|2,0:0|0:0,0:0:0:0:
435,214,518134,1,2,0:0:0:0:
435,214,518557,2,0,L|408:158,2,50.9999984436036,2|2|2,0:0|0:0|0:0,0:0:0:0:
341,177,519825,2,0,L|334:115,1,50.9999984436036,6|2,0:0|0:0,0:0:0:0:
231,197,520670,2,0,L|187:186,1,38.2499988327027,2|0,0:0|0:0,0:0:0:0:
171,174,521092,6,0,L|120:187,2,50.9999984436036,2|2|2,0:0|0:0|0:0,0:0:0:0:
55,100,522360,2,0,L|106:115,1,50.9999984436036,2|2,0:0|0:0,0:0:0:0:
224,149,523205,1,2,0:0:0:0:
224,149,523627,2,0,L|217:207,2,50.9999984436036,2|2|2,0:0|0:0|0:0,0:0:0:0:
288,226,524895,2,0,L|261:278,1,50.9999984436036,6|2,0:0|0:0,0:0:0:0:
172,192,525740,2,0,L|126:189,1,38.2499988327027,2|0,0:0|0:0,0:0:0:0:
115,188,526163,6,0,P|129:140|193:90,1,127.5,2|0,0:0|0:0,0:0:0:0:
200,89,527853,2,0,P|175:64|149:51,1,63.75
125,44,529543,2,0,L|257:20,1,127.5,6|0,0:0|0:0,0:0:0:0:
275,19,531233,2,0,P|255:58|316:188,1,195.5
336,193,533768,2,0,L|340:190,1,5.66666666666667,2|2,0:0|0:0,0:0:0:0:
256,192,533980,12,0,537571,0:0:0:0:
