osu file format v14

[General]
AudioFilename: audio.mp3
AudioLeadIn: 0
PreviewTime: 188487
Countdown: 0
SampleSet: Soft
StackLeniency: 0.7
Mode: 3
LetterboxInBreaks: 0
SpecialStyle: 0
WidescreenStoryboard: 0

[Editor]
DistanceSpacing: 0.5
BeatDivisor: 8
GridSize: 4
TimelineZoom: 2.450002

[Metadata]
Title:The Undertakers Daughter instrumental
TitleUnicode:The Undertakers Daughter instrumental
Artist:steampianist
ArtistUnicode:steampianist
Creator:AncuL
Version:Journey
Source:
Tags:ironpianist newgrounds folk vocaloid oliver liliandstitch strings violin
BeatmapID:935489
BeatmapSetID:434087

[Difficulty]
HPDrainRate:8.5
CircleSize:7
OverallDifficulty:8
ApproachRate:5
SliderMultiplier:1.4
SliderTickRate:1

[Events]
//Background and Video events
0,0,"medieval.jpg",0,0
//Break Periods
//Storyboard Layer 0 (Background)
//Storyboard Layer 1 (Fail)
//Storyboard Layer 2 (Pass)
//Storyboard Layer 3 (Foreground)
//Storyboard Sound Samples
Sample,66865,0,"Additional Kick.wav",60
Sample,68811,0,"Additional Kick.wav",60
Sample,70757,0,"Additional Kick.wav",60
Sample,72703,0,"Additional Kick.wav",60
Sample,74649,0,"Additional Kick.wav",60
Sample,76595,0,"Additional Kick.wav",60
Sample,78541,0,"Additional Kick.wav",60
Sample,139838,0,"Click.wav",20
Sample,143730,0,"Click.wav",20
Sample,147622,0,"Click.wav",20
Sample,196271,0,"Click.wav",20
Sample,372379,0,"Hihat.wav",50
Sample,379838,0,"Hihat.wav",50
Sample,380163,0,"Hihat.wav",50
Sample,422000,0,"Additional Kick.wav",60
Sample,423946,0,"Additional Kick.wav",60
Sample,425892,0,"Additional Kick.wav",60
Sample,427838,0,"Additional Kick.wav",60
Sample,429784,0,"Additional Kick.wav",60
Sample,431730,0,"Additional Kick.wav",60
Sample,433676,0,"Additional Kick.wav",60

[TimingPoints]
55,324.324324324324,3,2,1,10,1,0
55,-133.333333333333,3,2,1,10,0,0
32163,-119.047619047619,3,2,1,10,0,0
32811,-107.52688172043,3,2,1,10,0,0
33136,-100,3,2,1,20,0,0
49676,-33.3333333333333,3,2,1,20,0,0
49757,-166.666666666667,3,2,1,20,0,0
50163,-133.333333333333,3,2,1,20,0,0
50649,-100,3,2,1,20,0,0
81784,-33.3333333333333,3,2,1,20,0,0
81865,-166.666666666667,3,2,1,20,0,0
82271,-133.333333333333,3,2,1,20,0,0
82433,-333.333333333333,3,2,1,20,0,0
82676,-42.9184549356223,3,2,1,20,0,0
82757,-100,3,2,1,30,0,1
113892,-133.333333333333,3,2,1,10,0,0
121190,-125,3,2,1,10,0,0
121352,-114.942528735632,3,2,1,10,0,0
121514,-105.263157894737,3,2,1,10,0,0
121676,-100,3,2,1,20,0,0
153784,-15.1515151515152,3,2,1,10,0,0
153865,-500,3,2,1,10,0,0
154433,-166.666666666667,3,2,1,10,0,0
154514,-153.846153846154,3,2,1,10,0,0
154595,-142.857142857143,3,2,1,10,0,0
154676,-133.333333333333,3,2,1,10,0,0
154757,-100,3,2,1,20,0,0
185892,-10,3,2,1,10,0,0
185973,-500,3,2,1,10,0,0
188487,-208.333333333333,3,2,1,10,0,0
188568,-178.571428571429,3,2,1,10,0,0
188649,-156.25,3,2,1,10,0,0
188730,-138.888888888889,3,2,1,10,0,0
188811,-100,3,2,1,20,0,0
189784,-100,3,2,1,30,0,1
220919,-133.333333333333,3,2,1,10,0,0
227730,-125,3,2,1,10,0,0
228054,-114.942528735632,3,2,1,10,0,0
228379,-104.166666666667,3,2,1,10,0,0
228703,-100,3,2,1,20,0,0
276379,-105.263157894737,3,2,1,20,0,0
276703,-111.111111111111,3,2,1,20,0,0
277027,-117.647058823529,3,2,1,20,0,0
277352,-125,3,2,1,20,0,0
277676,-133.333333333333,3,2,1,20,0,0
278000,-142.857142857143,3,2,1,20,0,0
278325,-153.846153846154,3,2,1,20,0,0
280271,-166.666666666667,3,2,1,5,0,0
287082,-153.846153846154,3,2,1,5,0,0
287406,-142.857142857143,3,2,1,5,0,0
287730,-133.333333333333,3,2,1,5,0,0
288054,-125,3,2,1,5,0,0
305568,-125,3,2,1,10,0,0
320163,-100,3,2,1,10,0,0
320203,-20,3,2,1,20,0,0
320244,-166.666666666667,3,2,1,20,0,0
320649,-100,3,2,1,20,0,0
335730,-40,3,2,1,20,0,0
335811,-200,3,2,1,20,0,0
336054,-100,3,2,1,20,0,0
337027,-106.382978723404,3,2,1,20,0,0
337352,-113.636363636364,3,2,1,20,0,0
337676,-121.951219512195,3,2,1,10,0,0
352311,-20,3,2,1,20,0,0
352352,-166.666666666667,3,2,1,20,0,0
352757,-121.951219512195,3,2,1,20,0,0
353244,-100,3,2,1,20,0,0
366973,-20,3,2,1,20,0,0
367027,-303.030303030303,3,2,1,20,0,0
367352,-19.2307692307692,3,2,1,20,0,0
367392,-250,3,2,1,20,0,0
367676,-100,3,2,1,20,0,0
367838,-19.2307692307692,3,2,1,20,0,0
367879,-250,3,2,1,20,0,0
368163,-100,3,2,1,30,0,0
376595,-20,3,2,1,30,0,0
376676,-500,3,2,1,30,0,0
377082,-100,3,2,1,30,0,0
403838,-12.5,3,2,1,30,0,0
403892,-333.333333333333,3,2,1,30,0,0
404757,-133.333333333333,3,2,1,30,0,0
404811,-100,3,2,1,30,0,0
436919,-20,3,2,1,30,0,0
437000,-500,3,2,1,30,0,0
437406,-133.333333333333,3,2,1,30,0,0
437568,-200,3,2,1,30,0,0
437730,-117.647058823529,3,2,1,30,0,0
437784,-74.0740740740741,3,2,1,30,0,0
437838,-64.5161290322581,3,2,1,30,0,0
437892,-100,3,2,1,30,0,1
469027,430.10752688172,3,2,1,10,1,0
469027,-10.7411385606874,3,2,1,10,0,0
469053,-500,3,2,1,5,0,0
471607,422.535211267606,3,2,1,5,1,0
471607,-153.846153846154,3,2,1,5,0,0
474142,424.028268551237,3,2,1,5,1,0
474142,-153.846153846154,3,2,1,5,0,0
476686,526.315789473684,3,2,1,5,1,0
476686,-123.456790123457,3,2,1,5,0,0
478791,422.535211267606,3,2,1,5,1,0
478791,-192.307692307692,3,2,1,5,0,0
479636,422.535211267606,3,2,1,5,1,0
479636,-153.846153846154,3,2,1,5,0,0
500762,422.535211267606,3,2,1,5,1,0
500762,-153.846153846154,3,2,1,5,0,0
526114,422.535211267606,4,2,1,5,1,0
526114,-153.846153846154,4,2,1,5,0,0
531184,422.535211267606,6,2,1,5,1,0
531184,-153.846153846154,6,2,1,5,0,0

[HitObjects]
329,192,55,128,0,2000:0:0:0:0:
109,192,55,128,0,703:0:0:0:0:
182,192,703,128,0,1027:0:0:0:0:
109,192,1027,128,0,1514:0:0:0:0:
402,192,1027,128,0,3946:0:0:0:0:
36,192,1514,128,0,2000:0:0:0:0:
182,192,1676,128,0,2973:0:0:0:0:
109,192,2000,128,0,3946:0:0:0:0:
475,192,2000,128,0,3946:0:0:0:0:
256,192,2973,128,0,3946:0:0:0:0:
182,192,3622,1,0,0:0:0:50:Additional Kick.wav
36,192,3946,128,0,4919:0:0:0:50:Additional Kick.wav
329,192,3946,128,0,4919:0:0:0:0:
182,192,3946,1,0,0:0:0:0:
475,192,4595,128,0,4919:0:0:0:0:
182,192,4919,128,0,5406:0:0:0:0:
402,192,4919,128,0,5892:0:0:0:0:
109,192,5406,128,0,6865:0:0:0:0:
256,192,5568,128,0,5892:0:0:0:0:
36,192,5892,128,0,7838:0:0:0:0:
475,192,5892,128,0,7838:0:0:0:0:
256,192,6865,128,0,7838:0:0:0:0:
329,192,7838,128,0,8163:0:0:0:50:Additional Kick.wav
109,192,7838,128,0,8811:0:0:0:0:
402,192,7838,1,0,0:0:0:0:
402,192,8163,128,0,8487:0:0:0:0:
475,192,8487,128,0,8811:0:0:0:0:
182,192,8487,128,0,9136:0:0:0:0:
36,192,8811,128,0,9460:0:0:0:0:
329,192,8811,128,0,9136:0:0:0:0:
109,192,9136,128,0,9784:0:0:0:0:
402,192,9136,128,0,9460:0:0:0:0:
182,192,9460,128,0,10433:0:0:0:0:
475,192,9460,128,0,9784:0:0:0:0:
36,192,9784,128,0,10757:0:0:0:0:
329,192,9784,128,0,10109:0:0:0:0:
402,192,10109,128,0,10433:0:0:0:0:
475,192,10433,128,0,10757:0:0:0:0:
182,192,10757,128,0,11730:0:0:0:0:
402,192,10757,128,0,11406:0:0:0:0:
329,192,11406,128,0,11568:0:0:0:50:Additional Kick.wav
109,192,11406,128,0,11730:0:0:0:0:
256,192,11406,1,0,0:0:0:0:
475,192,11568,128,0,12379:0:0:0:0:
329,192,11730,128,0,12054:0:0:0:50:Additional Kick.wav
36,192,11730,128,0,12054:0:0:0:0:
256,192,11730,1,0,0:0:0:0:
182,192,12054,128,0,12217:0:0:0:0:
402,192,12054,128,0,12379:0:0:0:0:
109,192,12217,128,0,12379:0:0:0:0:
329,192,12379,128,0,12703:0:0:0:0:
182,192,12379,128,0,12541:0:0:0:0:
109,192,12541,128,0,12703:0:0:0:0:
402,192,12703,128,0,13027:0:0:0:0:
36,192,12703,128,0,13352:0:0:0:0:
475,192,13027,128,0,13352:0:0:0:0:
182,192,13027,128,0,13352:0:0:0:0:
109,192,13352,128,0,13676:0:0:0:0:
329,192,13352,128,0,13676:0:0:0:0:
182,192,13676,128,0,14163:0:0:0:50:Additional Kick.wav
402,192,13676,128,0,14000:0:0:0:0:
36,192,13676,1,0,0:0:0:0:
36,192,14000,128,0,14163:0:0:0:0:
475,192,14000,128,0,14325:0:0:0:0:
109,192,14163,128,0,14325:0:0:0:0:
182,192,14325,128,0,14487:0:0:0:0:
402,192,14325,128,0,14649:0:0:0:0:
256,192,14487,128,0,14649:0:0:0:0:
329,192,14649,128,0,14973:0:0:0:0:
109,192,14649,128,0,14973:0:0:0:0:
36,192,14973,128,0,15136:0:0:0:0:
475,192,14973,128,0,15136:0:0:0:0:
402,192,15136,128,0,15298:0:0:0:0:
109,192,15136,128,0,15298:0:0:0:0:
329,192,15298,128,0,15460:0:0:0:0:
182,192,15298,128,0,15460:0:0:0:0:
402,192,15460,128,0,15622:0:0:0:0:
109,192,15460,128,0,15622:0:0:0:0:
36,192,15622,128,0,15946:0:0:0:0:
475,192,15622,128,0,15946:0:0:0:0:
329,192,15946,1,0,0:0:0:0:
109,192,15946,1,0,0:0:0:0:
402,192,16109,1,0,0:0:0:0:
109,192,16109,1,0,0:0:0:0:
182,192,16271,1,0,0:0:0:0:
402,192,16271,1,0,0:0:0:0:
475,192,16433,1,0,0:0:0:0:
182,192,16433,1,0,0:0:0:0:
475,192,16595,1,0,0:0:0:0:
36,192,16595,1,0,0:0:0:0:
109,192,16595,1,0,0:0:0:0:
256,192,16595,1,0,0:0:0:0:
182,192,16919,1,0,0:0:0:0:
329,192,17244,1,0,0:0:0:50:Additional Kick.wav
36,192,17244,1,0,0:0:0:0:
182,192,17568,128,0,18541:0:0:0:50:Additional Kick.wav
475,192,17568,128,0,19514:0:0:0:0:
256,192,17568,128,0,19514:0:0:0:0:
109,192,18541,128,0,21460:0:0:0:0:
182,192,19514,128,0,20352:0:0:0:0:
36,192,19514,128,0,21460:0:0:0:0:
402,192,20352,1,0,0:0:0:0:
329,192,20386,1,0,0:0:0:0:
256,192,20433,1,0,0:0:0:0:
182,192,20487,1,0,0:0:0:0:
475,192,20487,128,0,21460:0:0:0:0:
329,192,21460,128,0,22433:0:0:0:50:Additional Kick.wav
402,192,21460,128,0,23406:0:0:0:0:
182,192,21460,128,0,22433:0:0:0:0:
256,192,22433,128,0,23406:0:0:0:0:
475,192,22433,128,0,23406:0:0:0:0:
329,192,23406,1,0,0:0:0:0:
182,192,23406,1,0,0:0:0:0:
402,192,23446,1,0,0:0:0:0:
36,192,23527,128,0,25352:0:0:0:0:
475,192,23527,1,0,0:0:0:0:
256,192,24298,1,0,0:0:0:0:
329,192,24325,1,0,0:0:0:0:
402,192,24352,1,0,0:0:0:0:
475,192,24379,1,0,0:0:0:0:
402,192,24487,1,0,0:0:0:0:
329,192,24595,1,0,0:0:0:0:
256,192,24703,1,0,0:0:0:0:
182,192,24811,1,0,0:0:0:0:
402,192,24919,1,0,0:0:0:0:
329,192,25027,1,0,0:0:0:50:Additional Kick.wav
109,192,25027,1,0,0:0:0:0:
256,192,25136,1,0,0:0:0:0:
182,192,25244,1,0,0:0:0:0:
109,192,25352,128,0,26325:0:0:0:50:Additional Kick.wav
329,192,25352,1,0,0:0:0:0:
475,192,25433,128,0,26325:0:0:0:0:
36,192,26325,1,0,0:0:0:0:
329,192,26325,128,0,27298:0:0:0:0:
402,192,26325,128,0,27622:0:0:0:0:
109,192,26386,1,0,0:0:0:0:
256,192,26446,128,0,27622:0:0:0:0:
182,192,26446,1,0,0:0:0:0:
109,192,27298,128,0,28271:0:0:0:0:
36,192,27298,128,0,28271:0:0:0:0:
329,192,27622,128,0,27784:0:0:0:0:
402,192,27784,128,0,27946:0:0:0:0:
329,192,27946,128,0,28109:0:0:0:0:
256,192,28109,128,0,29244:0:0:0:0:
182,192,28271,128,0,28919:0:0:0:0:
475,192,28271,128,0,29244:0:0:0:0:
109,192,28919,128,0,29082:0:0:0:0:
182,192,29082,128,0,30217:0:0:0:0:
402,192,29244,128,0,30217:0:0:0:50:Additional Kick.wav
329,192,29244,128,0,29892:0:0:0:0:
109,192,29244,1,0,0:0:0:0:
36,192,29892,128,0,30054:0:0:0:0:
256,192,30054,128,0,31190:0:0:0:0:
329,192,30217,128,0,30541:0:0:0:0:
36,192,30217,128,0,31190:0:0:0:0:
475,192,30217,1,0,0:0:0:0:
402,192,30541,128,0,30865:0:0:0:0:
182,192,30865,128,0,31190:0:0:0:0:
329,192,31190,128,0,32163:0:0:0:0:
402,192,31190,1,0,0:0:0:0:
109,192,31190,128,0,31514:0:0:0:0:
36,192,31514,128,0,31676:0:0:0:0:
109,192,31676,128,0,31838:0:0:0:0:
182,192,31838,128,0,32000:0:0:0:0:
256,192,32000,128,0,32163:0:0:0:0:
402,192,32163,128,0,32325:0:0:0:90:Bell.wav
36,192,32163,128,0,32325:0:0:0:0:
475,192,32163,1,0,0:0:0:0:
36,192,32487,1,0,0:0:0:0:
329,192,32487,128,0,32811:0:0:0:0:
402,192,32811,1,0,0:0:0:20:Click.wav
182,192,32811,128,0,33136:0:0:0:0:
402,192,32973,1,0,0:0:0:20:Click.wav
36,192,32973,1,0,0:0:0:0:
475,192,33136,1,0,0:0:0:50:Additional Kick.wav
329,192,33136,128,0,33460:0:0:0:0:
36,192,33136,128,0,34109:0:0:0:0:
256,192,33136,1,0,0:0:0:0:
402,192,33460,128,0,33784:0:0:0:0:
475,192,33784,128,0,34109:0:0:0:20:Click.wav
182,192,33784,1,0,0:0:0:0:
182,192,34109,128,0,35082:0:0:0:90:Bell.wav
402,192,34109,128,0,34433:0:0:0:0:
256,192,34109,1,0,0:0:0:0:
109,192,34109,1,0,0:0:0:0:
329,192,34433,128,0,34757:0:0:0:0:
256,192,34757,128,0,35082:0:0:0:20:Click.wav
475,192,34757,1,0,0:0:0:0:
36,192,35082,128,0,37027:0:0:0:50:Additional Kick.wav
329,192,35082,128,0,35406:0:0:0:0:
402,192,35082,1,0,0:0:0:0:
182,192,35406,128,0,35568:0:0:0:20:Click.wav
475,192,35406,1,0,0:0:0:0:
256,192,35568,128,0,35730:0:0:0:20:Click.wav
402,192,35568,1,0,0:0:0:0:
329,192,35730,128,0,35892:0:0:0:20:Click.wav
109,192,35730,1,0,0:0:0:0:
402,192,35892,128,0,36054:0:0:0:20:Click.wav
182,192,35892,1,0,0:0:0:0:
256,192,36054,1,0,0:0:0:20:Click.wav
109,192,36054,1,0,0:0:0:90:Bell.wav
475,192,36054,128,0,36379:0:0:0:0:
402,192,36379,128,0,36703:0:0:0:20:Click.wav
182,192,36379,1,0,0:0:0:0:
329,192,36703,128,0,37027:0:0:0:20:Click.wav
109,192,36703,1,0,0:0:0:0:
109,192,37027,1,0,0:0:0:50:Additional Kick.wav
475,192,37027,128,0,37352:0:0:0:0:
182,192,37068,128,0,38000:0:0:0:0:
329,192,37352,128,0,37676:0:0:0:0:
109,192,37676,1,0,0:0:0:20:Click.wav
402,192,37676,128,0,38000:0:0:0:0:
475,192,38000,1,0,0:0:0:20:Click.wav
36,192,38000,128,0,38325:0:0:0:90:Bell.wav
256,192,38000,1,0,0:0:0:0:
329,192,38054,1,0,0:0:0:0:
402,192,38109,128,0,38973:0:0:0:0:
109,192,38325,128,0,38649:0:0:0:0:
182,192,38649,128,0,38973:0:0:0:20:Click.wav
475,192,38649,1,0,0:0:0:0:
256,192,38973,128,0,40919:0:0:0:50:Additional Kick.wav
36,192,38973,1,0,0:0:0:0:
475,192,38973,1,0,0:0:0:0:
329,192,39298,1,0,0:0:0:20:Click.wav
182,192,39298,1,0,0:0:0:0:
109,192,39406,1,0,0:0:0:0:
402,192,39460,1,0,0:0:0:20:Click.wav
36,192,39514,1,0,0:0:0:0:
329,192,39622,1,0,0:0:0:20:Click.wav
182,192,39622,1,0,0:0:0:0:
109,192,39730,1,0,0:0:0:0:
402,192,39784,1,0,0:0:0:20:Click.wav
36,192,39838,1,0,0:0:0:0:
402,192,39946,1,0,0:0:0:20:Click.wav
182,192,39946,1,0,0:0:0:90:Bell.wav
109,192,39946,1,0,0:0:0:0:
329,192,40054,1,0,0:0:0:0:
109,192,40163,1,0,0:0:0:0:
402,192,40271,1,0,0:0:0:20:Click.wav
475,192,40271,1,0,0:0:0:0:
109,192,40379,1,0,0:0:0:0:
329,192,40487,1,0,0:0:0:0:
475,192,40595,1,0,0:0:0:20:Click.wav
109,192,40595,1,0,0:0:0:0:
329,192,40703,1,0,0:0:0:0:
402,192,40811,1,0,0:0:0:0:
329,192,40919,1,0,0:0:0:50:Additional Kick.wav
475,192,40919,128,0,41244:0:0:0:0:
36,192,40919,1,0,0:0:0:0:
109,192,40946,1,0,0:0:0:0:
182,192,40973,128,0,41892:0:0:0:0:
329,192,41244,128,0,41568:0:0:0:0:
402,192,41568,128,0,41892:0:0:0:20:Click.wav
36,192,41568,1,0,0:0:0:0:
256,192,41892,1,0,0:0:0:0:
475,192,41892,128,0,42865:0:0:0:90:Bell.wav
36,192,41892,1,0,0:0:0:0:
329,192,41953,1,0,0:0:0:0:
402,192,42014,128,0,42217:0:0:0:0:
36,192,42217,128,0,42541:0:0:0:0:
256,192,42541,128,0,42865:0:0:0:20:Click.wav
182,192,42865,1,0,0:0:0:50:Additional Kick.wav
329,192,42865,128,0,43352:0:0:0:0:
109,192,42906,1,0,0:0:0:0:
36,192,42946,128,0,43838:0:0:0:0:
182,192,43190,1,0,0:0:0:20:Click.wav
475,192,43352,128,0,43514:0:0:0:20:Click.wav
109,192,43352,1,0,0:0:0:0:
182,192,43514,1,0,0:0:0:20:Click.wav
402,192,43514,128,0,43676:0:0:0:0:
182,192,43676,1,0,0:0:0:20:Click.wav
329,192,43676,128,0,43838:0:0:0:0:
256,192,43838,128,0,44487:0:0:0:20:Click.wav
109,192,43838,128,0,44811:0:0:0:90:Bell.wav
475,192,43838,1,0,0:0:0:0:
329,192,44163,1,0,0:0:0:20:Click.wav
182,192,44487,128,0,44649:0:0:0:20:Click.wav
402,192,44487,1,0,0:0:0:0:
256,192,44649,128,0,44811:0:0:0:0:
329,192,44811,128,0,45460:0:0:0:50:Additional Kick.wav
475,192,44811,128,0,45136:0:0:0:20:Click.wav
36,192,44811,1,0,0:0:0:0:
182,192,45136,128,0,45460:0:0:0:0:
256,192,45460,128,0,45622:0:0:0:20:Click.wav
36,192,45460,128,0,45784:0:0:0:0:
475,192,45460,1,0,0:0:0:0:
329,192,45622,128,0,45784:0:0:0:0:
402,192,45784,128,0,46109:0:0:0:20:Click.wav
109,192,45784,128,0,46109:0:0:0:90:Bell.wav
475,192,45784,1,0,0:0:0:0:
256,192,45784,1,0,0:0:0:0:
182,192,46109,128,0,46433:0:0:0:0:
475,192,46109,128,0,46433:0:0:0:0:
402,192,46433,128,0,46757:0:0:0:20:Click.wav
256,192,46433,1,0,0:0:0:0:
109,192,46717,1,0,0:0:0:0:
182,192,46757,1,0,0:0:0:50:Additional Kick.wav
36,192,46757,1,0,0:0:0:0:
475,192,46757,1,0,0:0:0:0:
256,192,46798,128,0,47082:0:0:0:0:
182,192,47082,128,0,47244:0:0:0:20:Click.wav
402,192,47082,1,0,0:0:0:0:
256,192,47244,128,0,47406:0:0:0:20:Click.wav
402,192,47244,1,0,0:0:0:0:
329,192,47406,128,0,47568:0:0:0:20:Click.wav
109,192,47406,1,0,0:0:0:0:
402,192,47568,128,0,47730:0:0:0:20:Click.wav
109,192,47568,1,0,0:0:0:0:
36,192,47730,1,0,0:0:0:20:Click.wav
329,192,47730,1,0,0:0:0:90:Bell.wav
475,192,47730,1,0,0:0:0:0:
109,192,48054,128,0,48379:0:0:0:20:Click.wav
329,192,48054,1,0,0:0:0:0:
475,192,48054,1,0,0:0:0:0:
256,192,48217,128,0,48541:0:0:0:20:Click.wav
36,192,48217,1,0,0:0:0:0:
475,192,48217,1,0,0:0:0:0:
402,192,48379,1,0,0:0:0:20:Click.wav
329,192,48379,128,0,48703:0:0:0:0:
182,192,48379,1,0,0:0:0:0:
475,192,48541,128,0,48703:0:0:0:20:Click.wav
182,192,48541,1,0,0:0:0:0:
36,192,48541,1,0,0:0:0:0:
402,192,48703,1,0,0:0:0:20:Click.wav
36,192,48703,1,0,0:0:0:90:Bell.wav
256,192,48703,1,0,0:0:0:0:
475,192,49027,1,0,0:0:0:20:Click.wav
36,192,49027,1,0,0:0:0:50:Additional Kick.wav
329,192,49027,128,0,49514:0:0:0:0:
182,192,49027,1,0,0:0:0:0:
256,192,49190,1,0,0:0:0:50:Additional Kick.wav
36,192,49190,1,0,0:0:0:20:Click.wav
402,192,49190,128,0,49514:0:0:0:0:
109,192,49190,1,0,0:0:0:0:
109,192,49352,1,0,0:0:0:20:Click.wav
256,192,49352,1,0,0:0:0:50:Additional Kick.wav
475,192,49352,128,0,49514:0:0:0:0:
182,192,49352,1,0,0:0:0:0:
36,192,49514,1,0,0:0:0:20:Click.wav
182,192,49514,128,0,49676:0:0:0:50:Additional Kick.wav
109,192,49514,1,0,0:0:0:0:
256,192,49514,1,0,0:0:0:0:
402,192,49676,1,0,0:0:0:50:Additional Kick.wav
475,192,49676,1,0,0:0:0:20:Click.wav
36,192,49676,1,0,0:0:0:65:Click.wav
256,192,49676,1,0,0:0:0:0:
256,192,50163,5,0,0:0:0:0:
329,192,50325,1,0,0:0:0:0:
256,192,50487,1,0,0:0:0:0:
402,192,50649,128,0,51298:0:0:0:60:Additional Kick.wav
182,192,50649,1,0,0:0:0:50:Hihat.wav
36,192,50649,1,0,0:0:0:90:Bell.wav
109,192,50973,1,0,0:0:0:50:Hihat.wav
256,192,51136,1,0,0:0:0:0:
475,192,51298,1,0,0:0:0:50:Hihat.wav
182,192,51298,1,0,0:0:0:60:Additional Kick.wav
109,192,51460,1,0,0:0:0:0:
475,192,51622,128,0,52595:0:0:0:50:Hihat.wav
402,192,51622,1,0,0:0:0:60:Clapsnare Instru.wav
36,192,51622,1,0,0:0:0:0:
256,192,51946,1,0,0:0:0:50:Hihat.wav
182,192,52109,1,0,0:0:0:0:
402,192,52271,128,0,52595:0:0:0:50:Hihat.wav
36,192,52271,1,0,0:0:0:0:
109,192,52433,1,0,0:0:0:0:
329,192,52595,128,0,53082:0:0:0:50:Hihat.wav
182,192,52595,1,0,0:0:0:60:Additional Kick.wav
36,192,52919,1,0,0:0:0:50:Hihat.wav
402,192,53082,128,0,53244:0:0:0:0:
109,192,53082,1,0,0:0:0:0:
329,192,53244,128,0,53568:0:0:0:50:Hihat.wav
182,192,53244,1,0,0:0:0:60:Additional Kick.wav
109,192,53406,1,0,0:0:0:0:
402,192,53568,128,0,54217:0:0:0:50:Hihat.wav
256,192,53568,1,0,0:0:0:60:Clapsnare Instru.wav
36,192,53568,1,0,0:0:0:0:
109,192,53892,1,0,0:0:0:50:Hihat.wav
182,192,54054,1,0,0:0:0:0:
36,192,54217,128,0,54379:0:0:0:50:Hihat.wav
256,192,54217,1,0,0:0:0:0:
109,192,54379,128,0,54541:0:0:0:0:
329,192,54379,1,0,0:0:0:0:
182,192,54541,128,0,55190:0:0:0:50:Hihat.wav
402,192,54541,1,0,0:0:0:60:Additional Kick.wav
475,192,54541,1,0,0:0:0:90:Bell.wav
329,192,54865,1,0,0:0:0:50:Hihat.wav
256,192,55027,1,0,0:0:0:0:
329,192,55190,128,0,55352:0:0:0:50:Hihat.wav
475,192,55190,1,0,0:0:0:60:Additional Kick.wav
402,192,55352,128,0,55514:0:0:0:0:
36,192,55352,1,0,0:0:0:0:
475,192,55514,128,0,55838:0:0:0:50:Hihat.wav
182,192,55514,1,0,0:0:0:60:Clapsnare Instru.wav
256,192,55514,1,0,0:0:0:0:
256,192,55838,128,0,56163:0:0:0:50:Hihat.wav
402,192,55838,1,0,0:0:0:0:
36,192,56000,1,0,0:0:0:0:
182,192,56163,128,0,56487:0:0:0:50:Hihat.wav
329,192,56163,128,0,56487:0:0:0:0:
475,192,56325,1,0,0:0:0:0:
109,192,56487,128,0,57622:0:0:0:50:Hihat.wav
402,192,56487,128,0,56811:0:0:0:60:Additional Kick.wav
256,192,56811,128,0,57136:0:0:0:50:Hihat.wav
475,192,56811,128,0,56973:0:0:0:0:
182,192,56973,1,0,0:0:0:0:
329,192,57136,128,0,57460:0:0:0:50:Hihat.wav
475,192,57136,1,0,0:0:0:60:Additional Kick.wav
256,192,57298,1,0,0:0:0:0:
36,192,57419,1,0,0:0:0:0:
182,192,57460,128,0,57622:0:0:0:50:Hihat.wav
402,192,57460,1,0,0:0:0:60:Clapsnare Instru.wav
475,192,57622,128,0,57784:0:0:0:0:
402,192,57784,128,0,57946:0:0:0:50:Hihat.wav
109,192,57784,128,0,57946:0:0:0:0:
329,192,57946,128,0,58109:0:0:0:0:
256,192,58109,128,0,58271:0:0:0:50:Hihat.wav
109,192,58109,128,0,58271:0:0:0:0:
182,192,58271,128,0,58433:0:0:0:0:
109,192,58433,128,0,59082:0:0:0:50:Hihat.wav
475,192,58433,1,0,0:0:0:60:Additional Kick.wav
329,192,58433,1,0,0:0:0:90:Bell.wav
329,192,58757,1,0,0:0:0:50:Hihat.wav
256,192,58919,1,0,0:0:0:0:
36,192,59082,128,0,59244:0:0:0:50:Hihat.wav
475,192,59082,1,0,0:0:0:60:Additional Kick.wav
256,192,59244,128,0,59406:0:0:0:0:
329,192,59244,1,0,0:0:0:0:
402,192,59406,128,0,60054:0:0:0:50:Hihat.wav
36,192,59406,1,0,0:0:0:60:Clapsnare Instru.wav
182,192,59406,1,0,0:0:0:0:
109,192,59730,1,0,0:0:0:50:Hihat.wav
182,192,59892,1,0,0:0:0:0:
475,192,60054,128,0,60379:0:0:0:50:Hihat.wav
256,192,60054,1,0,0:0:0:0:
329,192,60217,1,0,0:0:0:0:
182,192,60379,128,0,60865:0:0:0:50:Hihat.wav
402,192,60379,1,0,0:0:0:60:Additional Kick.wav
36,192,60379,1,0,0:0:0:0:
475,192,60703,1,0,0:0:0:50:Hihat.wav
109,192,60865,128,0,61352:0:0:0:0:
402,192,60865,1,0,0:0:0:0:
256,192,61027,128,0,61352:0:0:0:50:Hihat.wav
329,192,61027,1,0,0:0:0:60:Additional Kick.wav
475,192,61190,1,0,0:0:0:0:
402,192,61352,128,0,62163:0:0:0:50:Hihat.wav
36,192,61352,1,0,0:0:0:60:Clapsnare Instru.wav
182,192,61352,1,0,0:0:0:0:
109,192,61676,1,0,0:0:0:50:Hihat.wav
256,192,61838,1,0,0:0:0:0:
36,192,62000,1,0,0:0:0:50:Hihat.wav
182,192,62163,1,0,0:0:0:0:
256,192,62163,128,0,62325:0:0:0:0:
109,192,62325,128,0,62649:0:0:0:50:Hihat.wav
329,192,62325,1,0,0:0:0:60:Additional Kick.wav
475,192,62325,1,0,0:0:0:90:Bell.wav
182,192,62649,128,0,62973:0:0:0:50:Hihat.wav
402,192,62649,1,0,0:0:0:0:
109,192,62811,1,0,0:0:0:0:
256,192,62973,128,0,63298:0:0:0:50:Hihat.wav
329,192,62973,1,0,0:0:0:60:Additional Kick.wav
475,192,62973,1,0,0:0:0:0:
109,192,63136,1,0,0:0:0:0:
402,192,63136,1,0,0:0:0:0:
182,192,63298,128,0,63622:0:0:0:50:Hihat.wav
36,192,63298,1,0,0:0:0:60:Clapsnare Instru.wav
475,192,63298,1,0,0:0:0:0:
256,192,63622,128,0,63946:0:0:0:50:Hihat.wav
402,192,63622,1,0,0:0:0:0:
109,192,63784,1,0,0:0:0:0:
329,192,63946,128,0,64271:0:0:0:50:Hihat.wav
475,192,63946,1,0,0:0:0:0:
36,192,63946,1,0,0:0:0:0:
182,192,64109,1,0,0:0:0:0:
256,192,64109,1,0,0:0:0:0:
402,192,64271,128,0,64595:0:0:0:50:Hihat.wav
109,192,64271,1,0,0:0:0:60:Additional Kick.wav
36,192,64271,1,0,0:0:0:0:
182,192,64595,128,0,65244:0:0:0:50:Hihat.wav
329,192,64595,128,0,64757:0:0:0:0:
36,192,64757,1,0,0:0:0:0:
329,192,64919,128,0,65568:0:0:0:50:Hihat.wav
475,192,64919,1,0,0:0:0:60:Additional Kick.wav
256,192,65082,1,0,0:0:0:0:
475,192,65244,128,0,66217:0:0:0:50:Hihat.wav
109,192,65244,1,0,0:0:0:60:Clapsnare Instru.wav
36,192,65244,1,0,0:0:0:0:
182,192,65406,1,0,0:0:0:0:
36,192,65568,128,0,66217:0:0:0:50:Hihat.wav
256,192,65568,1,0,0:0:0:0:
402,192,65730,1,0,0:0:0:60:Clapsnare Instru.wav
329,192,65730,1,0,0:0:0:0:
182,192,65892,128,0,66217:0:0:0:50:Hihat.wav
109,192,65892,1,0,0:0:0:60:Clapsnare Instru.wav
402,192,66054,1,0,0:0:0:60:Clapsnare Instru.wav
329,192,66054,1,0,0:0:0:0:
109,192,66217,1,0,0:0:0:50:Hihat.wav
329,192,66217,128,0,67190:0:0:0:60:Additional Kick.wav
256,192,66217,1,0,0:0:0:90:Bell.wav
256,192,66541,1,0,0:0:0:60:Bell.wav
109,192,66541,1,0,0:0:0:0:
36,192,66703,1,0,0:0:0:0:
182,192,66865,1,0,0:0:0:60:Bell.wav
402,192,66865,1,0,0:0:0:20:Click.wav
109,192,67027,1,0,0:0:0:0:
256,192,67190,128,0,68163:0:0:0:50:Clapsnare Instru.wav
36,192,67190,1,0,0:0:0:60:Bell.wav
475,192,67190,1,0,0:0:0:0:
402,192,67514,1,0,0:0:0:20:Click.wav
109,192,67514,1,0,0:0:0:60:Bell.wav
402,192,67676,1,0,0:0:0:20:Click.wav
36,192,67676,1,0,0:0:0:0:
182,192,67838,1,0,0:0:0:20:Click.wav
329,192,67838,1,0,0:0:0:60:Bell.wav
182,192,68000,1,0,0:0:0:20:Click.wav
402,192,68000,1,0,0:0:0:0:
109,192,68163,128,0,69136:0:0:0:60:Additional Kick.wav
475,192,68163,1,0,0:0:0:60:Bell.wav
36,192,68163,1,0,0:0:0:0:
256,192,68487,1,0,0:0:0:60:Bell.wav
36,192,68487,1,0,0:0:0:0:
329,192,68649,128,0,69136:0:0:0:0:
402,192,68811,128,0,69136:0:0:0:60:Bell.wav
36,192,68811,1,0,0:0:0:20:Click.wav
182,192,68973,1,0,0:0:0:0:
475,192,69136,1,0,0:0:0:50:Clapsnare Instru.wav
36,192,69136,1,0,0:0:0:60:Bell.wav
256,192,69136,128,0,70109:0:0:0:0:
109,192,69460,1,0,0:0:0:20:Click.wav
329,192,69460,1,0,0:0:0:60:Bell.wav
109,192,69622,1,0,0:0:0:20:Click.wav
475,192,69622,1,0,0:0:0:0:
402,192,69784,1,0,0:0:0:20:Click.wav
36,192,69784,1,0,0:0:0:60:Bell.wav
402,192,69946,1,0,0:0:0:20:Click.wav
182,192,69946,1,0,0:0:0:0:
36,192,70109,128,0,71082:0:0:0:90:Bell.wav
109,192,70109,1,0,0:0:0:60:Additional Kick.wav
329,192,70109,1,0,0:0:0:60:Bell.wav
402,192,70271,128,0,70433:0:0:0:0:
256,192,70433,128,0,70595:0:0:0:60:Bell.wav
182,192,70595,128,0,70757:0:0:0:0:
256,192,70757,128,0,70919:0:0:0:20:Click.wav
475,192,70757,1,0,0:0:0:60:Bell.wav
329,192,70919,128,0,71082:0:0:0:0:
402,192,71082,128,0,71244:0:0:0:60:Bell.wav
182,192,71082,128,0,72054:0:0:0:50:Clapsnare Instru.wav
109,192,71082,1,0,0:0:0:0:
475,192,71244,128,0,71406:0:0:0:0:
256,192,71406,128,0,71568:0:0:0:60:Bell.wav
402,192,71406,1,0,0:0:0:20:Click.wav
109,192,71568,128,0,71730:0:0:0:20:Click.wav
402,192,71568,1,0,0:0:0:0:
256,192,71730,128,0,71892:0:0:0:60:Bell.wav
36,192,71730,1,0,0:0:0:20:Click.wav
402,192,71892,128,0,72054:0:0:0:20:Click.wav
36,192,71892,1,0,0:0:0:0:
329,192,72054,128,0,73027:0:0:0:60:Additional Kick.wav
475,192,72054,1,0,0:0:0:60:Bell.wav
109,192,72054,128,0,72217:0:0:0:0:
402,192,72217,128,0,72379:0:0:0:0:
256,192,72379,128,0,72541:0:0:0:60:Bell.wav
182,192,72541,128,0,72703:0:0:0:0:
36,192,72703,128,0,72865:0:0:0:60:Bell.wav
475,192,72703,1,0,0:0:0:20:Click.wav
109,192,72865,128,0,73027:0:0:0:0:
182,192,73027,128,0,73352:0:0:0:50:Clapsnare Instru.wav
475,192,73027,1,0,0:0:0:60:Bell.wav
402,192,73027,128,0,73190:0:0:0:0:
329,192,73190,128,0,73352:0:0:0:0:
256,192,73352,128,0,73676:0:0:0:20:Click.wav
36,192,73352,128,0,73514:0:0:0:60:Bell.wav
402,192,73352,1,0,0:0:0:0:
402,192,73514,1,0,0:0:0:30:Click.wav
109,192,73514,128,0,73676:0:0:0:0:
329,192,73676,128,0,74000:0:0:0:30:Click.wav
182,192,73676,128,0,73838:0:0:0:60:Bell.wav
36,192,73676,1,0,0:0:0:0:
475,192,73838,128,0,74000:0:0:0:30:Click.wav
36,192,73838,1,0,0:0:0:0:
256,192,74000,1,0,0:0:0:90:Bell.wav
109,192,74000,1,0,0:0:0:60:Bell.wav
402,192,74000,128,0,74973:0:0:0:60:Additional Kick.wav
182,192,74325,1,0,0:0:0:60:Bell.wav
36,192,74487,1,0,0:0:0:0:
256,192,74649,1,0,0:0:0:30:Click.wav
475,192,74649,1,0,0:0:0:60:Bell.wav
109,192,74811,1,0,0:0:0:0:
329,192,74973,128,0,75946:0:0:0:60:Bell.wav
182,192,74973,1,0,0:0:0:50:Clapsnare Instru.wav
475,192,74973,1,0,0:0:0:0:
109,192,75298,1,0,0:0:0:60:Bell.wav
475,192,75298,1,0,0:0:0:30:Click.wav
109,192,75460,1,0,0:0:0:30:Click.wav
402,192,75460,1,0,0:0:0:0:
182,192,75622,1,0,0:0:0:60:Bell.wav
36,192,75622,1,0,0:0:0:30:Click.wav
182,192,75784,1,0,0:0:0:30:Click.wav
402,192,75784,1,0,0:0:0:0:
256,192,75946,128,0,76919:0:0:0:60:Additional Kick.wav
36,192,75946,1,0,0:0:0:60:Bell.wav
475,192,75946,1,0,0:0:0:0:
402,192,76271,1,0,0:0:0:60:Bell.wav
182,192,76433,1,0,0:0:0:0:
109,192,76595,1,0,0:0:0:60:Bell.wav
329,192,76595,1,0,0:0:0:30:Click.wav
475,192,76757,1,0,0:0:0:0:
329,192,76919,128,0,77892:0:0:0:50:Clapsnare Instru.wav
402,192,76919,1,0,0:0:0:60:Bell.wav
36,192,76919,1,0,0:0:0:0:
475,192,77244,1,0,0:0:0:30:Click.wav
109,192,77244,1,0,0:0:0:60:Bell.wav
182,192,77406,1,0,0:0:0:30:Click.wav
475,192,77406,1,0,0:0:0:0:
256,192,77568,1,0,0:0:0:30:Click.wav
36,192,77568,1,0,0:0:0:60:Bell.wav
256,192,77730,1,0,0:0:0:30:Click.wav
475,192,77730,1,0,0:0:0:0:
36,192,77892,128,0,81784:0:0:0:90:Bell.wav
402,192,77892,1,0,0:0:0:60:Bell.wav
182,192,77892,1,0,0:0:0:60:Additional Kick.wav
329,192,78217,1,0,0:0:0:60:Bell.wav
109,192,78379,1,0,0:0:0:0:
329,192,78541,1,0,0:0:0:30:Click.wav
475,192,78541,1,0,0:0:0:60:Bell.wav
182,192,78703,1,0,0:0:0:0:
402,192,78865,1,0,0:0:0:60:Bell.wav
256,192,78865,1,0,0:0:0:50:Clapsnare Instru.wav
329,192,79190,1,0,0:0:0:60:Bell.wav
182,192,79190,1,0,0:0:0:30:Click.wav
329,192,79352,1,0,0:0:0:30:Click.wav
109,192,79352,1,0,0:0:0:0:
402,192,79514,1,0,0:0:0:60:Bell.wav
182,192,79514,1,0,0:0:0:30:Click.wav
329,192,79676,1,0,0:0:0:30:Click.wav
182,192,79676,1,0,0:0:0:0:
475,192,79838,128,0,81784:0:0:0:60:Bell.wav
109,192,79838,1,0,0:0:0:60:Additional Kick.wav
256,192,79838,1,0,0:0:0:0:
402,192,80163,1,0,0:0:0:60:Bell.wav
182,192,80163,1,0,0:0:0:50:Clapsnare Instru.wav
256,192,80163,1,0,0:0:0:0:
329,192,80325,1,0,0:0:0:30:Clapsnare Instru.wav
182,192,80325,1,0,0:0:0:0:
402,192,80487,1,0,0:0:0:60:Bell.wav
109,192,80487,1,0,0:0:0:50:Clapsnare Instru.wav
256,192,80487,1,0,0:0:0:0:
402,192,80649,1,0,0:0:0:30:Clapsnare Instru.wav
182,192,80649,1,0,0:0:0:0:
256,192,80811,128,0,81784:0:0:0:60:Bell.wav
329,192,80811,1,0,0:0:0:50:Clapsnare Instru.wav
109,192,80811,1,0,0:0:0:60:Additional Kick.wav
182,192,80811,1,0,0:0:0:0:
329,192,80973,1,0,0:0:0:30:Clapsnare Instru.wav
109,192,80973,1,0,0:0:0:0:
402,192,81136,1,0,0:0:0:60:Bell.wav
182,192,81136,1,0,0:0:0:50:Clapsnare Instru.wav
329,192,81136,1,0,0:0:0:60:Additional Kick.wav
402,192,81298,1,0,0:0:0:30:Clapsnare Instru.wav
182,192,81298,1,0,0:0:0:0:
329,192,81460,1,0,0:0:0:60:Bell.wav
109,192,81460,1,0,0:0:0:50:Clapsnare Instru.wav
182,192,81460,1,0,0:0:0:60:Additional Kick.wav
109,192,81622,1,0,0:0:0:30:Clapsnare Instru.wav
329,192,81622,1,0,0:0:0:0:
402,192,81784,1,0,0:0:0:65:Click.wav
329,192,81784,1,0,0:0:0:90:Bell.wav
182,192,81784,1,0,0:0:0:30:Click.wav
109,192,81784,1,0,0:0:0:0:
402,192,82271,1,0,0:0:0:50:Clapsnare Instru.wav
329,192,82271,1,0,0:0:0:0:
182,192,82433,1,0,0:0:0:60:Additional Kick.wav
109,192,82433,1,0,0:0:0:0:
329,192,82757,1,0,0:0:0:60:Additional Kick.wav
475,192,82757,1,0,0:0:0:50:Hihat.wav
256,192,82757,128,0,83244:0:0:0:90:Bell.wav
36,192,82757,128,0,83082:0:0:0:0:
402,192,83082,1,0,0:0:0:50:Hihat.wav
36,192,83244,128,0,83406:0:0:0:0:
109,192,83244,1,0,0:0:0:0:
256,192,83406,128,0,83568:0:0:0:50:Hihat.wav
402,192,83406,1,0,0:0:0:60:Additional Kick.wav
36,192,83568,128,0,84054:0:0:0:0:
109,192,83568,1,0,0:0:0:0:
256,192,83730,128,0,84054:0:0:0:50:Hihat.wav
329,192,83730,1,0,0:0:0:60:Clapsnare Instru.wav
475,192,83730,1,0,0:0:0:0:
109,192,84054,1,0,0:0:0:50:Hihat.wav
475,192,84054,128,0,84217:0:0:0:0:
256,192,84217,1,0,0:0:0:0:
36,192,84379,1,0,0:0:0:50:Hihat.wav
329,192,84379,128,0,84541:0:0:0:0:
182,192,84541,1,0,0:0:0:0:
402,192,84703,128,0,85190:0:0:0:50:Hihat.wav
256,192,84703,128,0,85027:0:0:0:60:Additional Kick.wav
329,192,84703,1,0,0:0:0:0:
36,192,85027,1,0,0:0:0:50:Hihat.wav
256,192,85190,128,0,85352:0:0:0:0:
182,192,85190,1,0,0:0:0:0:
36,192,85352,1,0,0:0:0:50:Hihat.wav
402,192,85352,128,0,85514:0:0:0:60:Additional Kick.wav
256,192,85514,128,0,86000:0:0:0:0:
109,192,85514,1,0,0:0:0:0:
402,192,85676,128,0,86000:0:0:0:50:Hihat.wav
475,192,85676,1,0,0:0:0:60:Clapsnare Instru.wav
182,192,85676,1,0,0:0:0:0:
109,192,86000,128,0,86163:0:0:0:50:Hihat.wav
329,192,86000,1,0,0:0:0:0:
182,192,86163,128,0,86325:0:0:0:0:
402,192,86163,1,0,0:0:0:0:
256,192,86325,128,0,86487:0:0:0:50:Hihat.wav
36,192,86325,1,0,0:0:0:0:
402,192,86487,128,0,86649:0:0:0:0:
109,192,86487,1,0,0:0:0:0:
329,192,86649,128,0,87136:0:0:0:50:Hihat.wav
475,192,86649,1,0,0:0:0:60:Additional Kick.wav
182,192,86649,1,0,0:0:0:0:
36,192,86973,1,0,0:0:0:50:Hihat.wav
256,192,87136,128,0,87622:0:0:0:0:
182,192,87136,1,0,0:0:0:0:
109,192,87298,128,0,87622:0:0:0:50:Hihat.wav
36,192,87298,1,0,0:0:0:60:Additional Kick.wav
329,192,87460,1,0,0:0:0:0:
402,192,87622,128,0,88271:0:0:0:50:Hihat.wav
182,192,87622,1,0,0:0:0:60:Clapsnare Instru.wav
475,192,87622,1,0,0:0:0:0:
182,192,87946,1,0,0:0:0:50:Hihat.wav
109,192,88109,1,0,0:0:0:0:
182,192,88271,128,0,88595:0:0:0:50:Hihat.wav
36,192,88271,1,0,0:0:0:0:
256,192,88433,1,0,0:0:0:0:
329,192,88595,128,0,89082:0:0:0:50:Hihat.wav
475,192,88595,1,0,0:0:0:60:Additional Kick.wav
109,192,88595,1,0,0:0:0:0:
36,192,88919,1,0,0:0:0:50:Hihat.wav
402,192,89082,128,0,89244:0:0:0:0:
182,192,89082,1,0,0:0:0:0:
329,192,89244,128,0,89406:0:0:0:50:Hihat.wav
109,192,89244,1,0,0:0:0:60:Additional Kick.wav
256,192,89406,128,0,89568:0:0:0:0:
36,192,89406,1,0,0:0:0:0:
182,192,89568,128,0,90217:0:0:0:50:Hihat.wav
475,192,89568,1,0,0:0:0:60:Clapsnare Instru.wav
402,192,89568,1,0,0:0:0:0:
329,192,89892,1,0,0:0:0:50:Hihat.wav
402,192,90054,1,0,0:0:0:0:
36,192,90217,128,0,90541:0:0:0:50:Hihat.wav
256,192,90217,1,0,0:0:0:0:
329,192,90379,1,0,0:0:0:0:
475,192,90541,1,0,0:0:0:50:Hihat.wav
182,192,90541,128,0,90865:0:0:0:60:Additional Kick.wav
402,192,90541,128,0,91027:0:0:0:90:Bell.wav
109,192,90541,1,0,0:0:0:0:
36,192,90865,1,0,0:0:0:50:Hihat.wav
182,192,91027,128,0,91190:0:0:0:0:
256,192,91027,1,0,0:0:0:0:
402,192,91190,128,0,91352:0:0:0:50:Hihat.wav
36,192,91190,1,0,0:0:0:60:Additional Kick.wav
256,192,91352,1,0,0:0:0:0:
182,192,91352,128,0,91838:0:0:0:0:
402,192,91514,128,0,91838:0:0:0:50:Hihat.wav
36,192,91514,1,0,0:0:0:60:Clapsnare Instru.wav
475,192,91514,1,0,0:0:0:0:
109,192,91838,1,0,0:0:0:50:Hihat.wav
329,192,91838,128,0,92000:0:0:0:0:
256,192,92000,1,0,0:0:0:0:
402,192,92163,1,0,0:0:0:50:Hihat.wav
36,192,92163,128,0,92325:0:0:0:0:
182,192,92325,1,0,0:0:0:0:
402,192,92487,128,0,92811:0:0:0:50:Hihat.wav
36,192,92487,128,0,92973:0:0:0:60:Additional Kick.wav
329,192,92487,1,0,0:0:0:0:
182,192,92811,1,0,0:0:0:50:Hihat.wav
402,192,92973,128,0,93136:0:0:0:0:
329,192,92973,1,0,0:0:0:0:
36,192,93136,128,0,93298:0:0:0:50:Hihat.wav
182,192,93136,1,0,0:0:0:60:Additional Kick.wav
402,192,93298,128,0,93784:0:0:0:0:
475,192,93298,1,0,0:0:0:0:
36,192,93460,128,0,93784:0:0:0:50:Hihat.wav
256,192,93460,1,0,0:0:0:60:Clapsnare Instru.wav
182,192,93460,1,0,0:0:0:0:
109,192,93784,128,0,93946:0:0:0:50:Hihat.wav
475,192,93784,1,0,0:0:0:0:
256,192,93946,128,0,94109:0:0:0:0:
182,192,93946,1,0,0:0:0:0:
402,192,94109,128,0,94271:0:0:0:50:Hihat.wav
36,192,94109,1,0,0:0:0:0:
329,192,94271,128,0,94433:0:0:0:0:
109,192,94271,1,0,0:0:0:0:
475,192,94433,1,0,0:0:0:50:Hihat.wav
36,192,94433,1,0,0:0:0:60:Additional Kick.wav
256,192,94433,128,0,95082:0:0:0:0:
475,192,94757,1,0,0:0:0:50:Hihat.wav
402,192,94919,1,0,0:0:0:0:
329,192,95082,128,0,95244:0:0:0:50:Hihat.wav
182,192,95082,1,0,0:0:0:60:Additional Kick.wav
256,192,95244,128,0,95406:0:0:0:0:
36,192,95244,1,0,0:0:0:0:
182,192,95406,128,0,96054:0:0:0:50:Hihat.wav
475,192,95406,1,0,0:0:0:60:Clapsnare Instru.wav
402,192,95406,1,0,0:0:0:0:
256,192,95730,1,0,0:0:0:50:Hihat.wav
329,192,95892,1,0,0:0:0:0:
256,192,96054,128,0,96217:0:0:0:50:Hihat.wav
475,192,96054,1,0,0:0:0:0:
182,192,96217,128,0,96379:0:0:0:0:
402,192,96217,1,0,0:0:0:0:
109,192,96379,128,0,96865:0:0:0:50:Hihat.wav
329,192,96379,1,0,0:0:0:60:Additional Kick.wav
36,192,96379,1,0,0:0:0:0:
329,192,96703,1,0,0:0:0:50:Hihat.wav
36,192,96865,128,0,97027:0:0:0:0:
402,192,96865,1,0,0:0:0:0:
109,192,97027,128,0,97352:0:0:0:50:Hihat.wav
475,192,97027,1,0,0:0:0:60:Additional Kick.wav
256,192,97190,1,0,0:0:0:0:
329,192,97352,128,0,97676:0:0:0:50:Hihat.wav
36,192,97352,1,0,0:0:0:60:Clapsnare Instru.wav
475,192,97352,1,0,0:0:0:0:
109,192,97676,128,0,97838:0:0:0:50:Hihat.wav
402,192,97676,1,0,0:0:0:0:
182,192,97838,128,0,98000:0:0:0:60:Clapsnare Instru.wav
329,192,97838,1,0,0:0:0:0:
256,192,98000,128,0,98163:0:0:0:50:Hihat.wav
475,192,98000,1,0,0:0:0:60:Clapsnare Instru.wav
329,192,98163,128,0,98325:0:0:0:60:Clapsnare Instru.wav
109,192,98163,1,0,0:0:0:0:
182,192,98325,1,0,0:0:0:50:Hihat.wav
475,192,98325,1,0,0:0:0:60:Additional Kick.wav
36,192,98325,1,0,0:0:0:60:Bell.wav
402,192,98325,128,0,98811:0:0:0:90:Bell.wav
182,192,98649,1,0,0:0:0:60:Bell.wav
475,192,98811,128,0,98973:0:0:0:0:
109,192,98811,1,0,0:0:0:0:
402,192,98973,128,0,99136:0:0:0:60:Bell.wav
256,192,98973,1,0,0:0:0:60:Additional Kick.wav
36,192,98973,1,0,0:0:0:0:
329,192,99136,128,0,99946:0:0:0:0:
182,192,99136,1,0,0:0:0:0:
256,192,99298,128,0,99946:0:0:0:50:Clapsnare Instru.wav
109,192,99298,1,0,0:0:0:60:Bell.wav
475,192,99298,1,0,0:0:0:0:
36,192,99622,1,0,0:0:0:30:Click.wav
182,192,99622,1,0,0:0:0:60:Bell.wav
36,192,99784,1,0,0:0:0:30:Click.wav
475,192,99784,1,0,0:0:0:0:
182,192,99946,128,0,100271:0:0:0:30:Click.wav
109,192,99946,1,0,0:0:0:60:Bell.wav
402,192,99946,1,0,0:0:0:0:
402,192,100109,1,0,0:0:0:30:Click.wav
36,192,100109,1,0,0:0:0:0:
256,192,100271,128,0,100757:0:0:0:60:Additional Kick.wav
109,192,100271,128,0,100595:0:0:0:60:Bell.wav
329,192,100271,1,0,0:0:0:0:
475,192,100271,1,0,0:0:0:0:
402,192,100595,1,0,0:0:0:60:Bell.wav
109,192,100757,128,0,100919:0:0:0:0:
36,192,100757,1,0,0:0:0:0:
402,192,100919,1,0,0:0:0:60:Bell.wav
256,192,100919,128,0,101082:0:0:0:60:Additional Kick.wav
475,192,100919,1,0,0:0:0:0:
109,192,101082,128,0,101892:0:0:0:0:
182,192,101082,1,0,0:0:0:0:
256,192,101244,1,0,0:0:0:50:Clapsnare Instru.wav
475,192,101244,1,0,0:0:0:60:Bell.wav
329,192,101244,128,0,101892:0:0:0:0:
36,192,101568,1,0,0:0:0:30:Click.wav
402,192,101568,1,0,0:0:0:60:Bell.wav
182,192,101730,1,0,0:0:0:30:Click.wav
402,192,101730,1,0,0:0:0:0:
256,192,101892,128,0,102217:0:0:0:30:Click.wav
475,192,101892,1,0,0:0:0:60:Bell.wav
36,192,101892,1,0,0:0:0:0:
109,192,102054,1,0,0:0:0:30:Click.wav
475,192,102054,1,0,0:0:0:0:
329,192,102217,128,0,102703:0:0:0:60:Additional Kick.wav
182,192,102217,128,0,102541:0:0:0:60:Bell.wav
402,192,102217,1,0,0:0:0:0:
36,192,102217,1,0,0:0:0:0:
475,192,102541,1,0,0:0:0:60:Bell.wav
182,192,102703,128,0,102865:0:0:0:0:
36,192,102703,1,0,0:0:0:0:
329,192,102865,128,0,103027:0:0:0:60:Bell.wav
256,192,102865,1,0,0:0:0:60:Additional Kick.wav
402,192,102865,1,0,0:0:0:0:
182,192,103027,128,0,103838:0:0:0:0:
109,192,103027,1,0,0:0:0:0:
402,192,103190,128,0,103838:0:0:0:50:Clapsnare Instru.wav
329,192,103190,1,0,0:0:0:60:Bell.wav
36,192,103190,1,0,0:0:0:0:
329,192,103514,1,0,0:0:0:30:Click.wav
109,192,103514,1,0,0:0:0:60:Bell.wav
109,192,103676,1,0,0:0:0:30:Click.wav
256,192,103676,1,0,0:0:0:0:
475,192,103838,128,0,104163:0:0:0:30:Click.wav
36,192,103838,1,0,0:0:0:60:Bell.wav
329,192,103838,1,0,0:0:0:0:
36,192,104000,1,0,0:0:0:30:Click.wav
182,192,104000,1,0,0:0:0:0:
256,192,104163,128,0,104649:0:0:0:60:Additional Kick.wav
109,192,104163,1,0,0:0:0:60:Bell.wav
329,192,104163,1,0,0:0:0:0:
109,192,104487,1,0,0:0:0:60:Bell.wav
329,192,104649,128,0,104811:0:0:0:0:
402,192,104649,1,0,0:0:0:0:
256,192,104811,128,0,104973:0:0:0:60:Bell.wav
109,192,104811,1,0,0:0:0:60:Additional Kick.wav
36,192,104811,1,0,0:0:0:0:
182,192,104973,128,0,105136:0:0:0:0:
475,192,104973,1,0,0:0:0:0:
36,192,105136,128,0,105622:0:0:0:50:Clapsnare Instru.wav
402,192,105136,1,0,0:0:0:60:Bell.wav
329,192,105136,1,0,0:0:0:0:
402,192,105460,1,0,0:0:0:30:Click.wav
182,192,105460,1,0,0:0:0:60:Bell.wav
109,192,105622,128,0,105784:0:0:0:30:Click.wav
256,192,105622,1,0,0:0:0:0:
402,192,105622,1,0,0:0:0:0:
182,192,105784,128,0,105946:0:0:0:30:Click.wav
329,192,105784,1,0,0:0:0:60:Bell.wav
475,192,105784,1,0,0:0:0:0:
256,192,105946,128,0,106109:0:0:0:30:Click.wav
36,192,105946,1,0,0:0:0:0:
329,192,105946,1,0,0:0:0:0:
182,192,106109,1,0,0:0:0:90:Bell.wav
109,192,106109,1,0,0:0:0:60:Additional Kick.wav
475,192,106109,1,0,0:0:0:60:Bell.wav
402,192,106109,128,0,106595:0:0:0:0:
182,192,106433,1,0,0:0:0:60:Bell.wav
256,192,106595,128,0,106757:0:0:0:0:
109,192,106595,1,0,0:0:0:0:
182,192,106757,128,0,106919:0:0:0:60:Bell.wav
36,192,106757,1,0,0:0:0:60:Additional Kick.wav
475,192,106757,1,0,0:0:0:0:
109,192,106919,128,0,107082:0:0:0:0:
402,192,106919,1,0,0:0:0:0:
36,192,107082,128,0,107730:0:0:0:50:Clapsnare Instru.wav
329,192,107082,1,0,0:0:0:60:Bell.wav
256,192,107082,1,0,0:0:0:0:
182,192,107406,1,0,0:0:0:30:Click.wav
475,192,107406,1,0,0:0:0:60:Bell.wav
329,192,107568,1,0,0:0:0:30:Click.wav
475,192,107568,1,0,0:0:0:0:
256,192,107730,128,0,108054:0:0:0:30:Click.wav
182,192,107730,1,0,0:0:0:60:Bell.wav
402,192,107730,1,0,0:0:0:0:
475,192,107892,1,0,0:0:0:30:Click.wav
182,192,107892,1,0,0:0:0:0:
329,192,108054,128,0,108541:0:0:0:60:Additional Kick.wav
109,192,108054,128,0,108379:0:0:0:60:Bell.wav
402,192,108054,1,0,0:0:0:0:
475,192,108379,1,0,0:0:0:60:Bell.wav
109,192,108541,128,0,108703:0:0:0:0:
182,192,108541,1,0,0:0:0:0:
329,192,108703,128,0,108865:0:0:0:60:Bell.wav
256,192,108703,1,0,0:0:0:60:Additional Kick.wav
475,192,108703,1,0,0:0:0:0:
109,192,108865,128,0,109676:0:0:0:0:
182,192,108865,1,0,0:0:0:0:
475,192,109027,128,0,109676:0:0:0:50:Clapsnare Instru.wav
402,192,109027,1,0,0:0:0:60:Bell.wav
329,192,109027,1,0,0:0:0:0:
182,192,109352,1,0,0:0:0:30:Click.wav
36,192,109352,1,0,0:0:0:60:Bell.wav
182,192,109514,1,0,0:0:0:30:Click.wav
329,192,109514,1,0,0:0:0:0:
36,192,109676,128,0,110000:0:0:0:30:Click.wav
256,192,109676,1,0,0:0:0:60:Bell.wav
402,192,109676,1,0,0:0:0:0:
256,192,109838,1,0,0:0:0:30:Click.wav
475,192,109838,1,0,0:0:0:0:
329,192,110000,128,0,110487:0:0:0:60:Additional Kick.wav
402,192,110000,1,0,0:0:0:60:Bell.wav
182,192,110000,128,0,110325:0:0:0:0:
36,192,110325,1,0,0:0:0:60:Bell.wav
182,192,110487,128,0,110649:0:0:0:0:
329,192,110649,128,0,110811:0:0:0:60:Bell.wav
402,192,110649,1,0,0:0:0:60:Additional Kick.wav
109,192,110649,1,0,0:0:0:0:
182,192,110811,128,0,111298:0:0:0:0:
256,192,110811,1,0,0:0:0:0:
475,192,110973,128,0,111298:0:0:0:50:Clapsnare Instru.wav
329,192,110973,1,0,0:0:0:60:Bell.wav
109,192,110973,1,0,0:0:0:0:
109,192,111298,128,0,111622:0:0:0:60:Bell.wav
36,192,111298,1,0,0:0:0:50:Clapsnare Instru.wav
402,192,111298,1,0,0:0:0:0:
329,192,111298,1,0,0:0:0:0:
329,192,111460,1,0,0:0:0:30:Clapsnare Instru.wav
402,192,111622,128,0,111946:0:0:0:60:Bell.wav
182,192,111622,1,0,0:0:0:50:Clapsnare Instru.wav
475,192,111622,1,0,0:0:0:0:
182,192,111784,1,0,0:0:0:30:Clapsnare Instru.wav
256,192,111946,128,0,112919:0:0:0:50:Clapsnare Instru.wav
36,192,111946,1,0,0:0:0:60:Additional Kick.wav
109,192,111946,1,0,0:0:0:0:
402,192,112271,1,0,0:0:0:60:Additional Kick.wav
109,192,112271,1,0,0:0:0:50:Clapsnare Instru.wav
329,192,112271,1,0,0:0:0:0:
109,192,112595,1,0,0:0:0:50:Clapsnare Instru.wav
329,192,112595,1,0,0:0:0:60:Additional Kick.wav
182,192,112595,1,0,0:0:0:0:
402,192,112757,1,0,0:0:0:0:
329,192,112811,1,0,0:0:0:0:
182,192,112865,1,0,0:0:0:0:
475,192,112919,1,0,0:0:0:60:Additional Kick.wav
36,192,112919,1,0,0:0:0:50:Clapsnare Instru.wav
109,192,112919,1,0,0:0:0:0:
182,192,113082,1,0,0:0:0:30:Clapsnare Instru.wav
329,192,113082,1,0,0:0:0:0:
402,192,113244,1,0,0:0:0:50:Clapsnare Instru.wav
182,192,113244,1,0,0:0:0:60:Additional Kick.wav
109,192,113244,1,0,0:0:0:0:
256,192,113406,1,0,0:0:0:30:Clapsnare Instru.wav
329,192,113406,1,0,0:0:0:0:
182,192,113568,1,0,0:0:0:60:Additional Kick.wav
256,192,113568,1,0,0:0:0:50:Clapsnare Instru.wav
36,192,113568,128,0,113892:0:0:0:0:
329,192,113730,1,0,0:0:0:30:Clapsnare Instru.wav
402,192,113730,1,0,0:0:0:0:
402,192,113892,1,0,0:0:0:90:Bell.wav
329,192,113892,1,0,0:0:0:60:Additional Kick.wav
475,192,113892,1,0,0:0:0:0:
182,192,113892,1,0,0:0:0:0:
109,192,114217,128,0,114271:0:0:0:0:
329,192,114541,128,0,114595:0:0:0:0:
109,192,114865,1,0,0:0:0:40:Bell.wav
402,192,114865,128,0,114919:0:0:0:40:Additional Kick.wav
329,192,115190,128,0,115244:0:0:0:0:
182,192,115514,128,0,115568:0:0:0:0:
402,192,115838,1,0,0:0:0:40:Additional Kick.wav
36,192,115838,128,0,115892:0:0:0:40:Bell.wav
109,192,116163,128,0,116217:0:0:0:0:
329,192,116487,128,0,116541:0:0:0:0:
36,192,116811,1,0,0:0:0:40:Bell.wav
402,192,116811,128,0,116865:0:0:0:40:Additional Kick.wav
329,192,117136,128,0,117190:0:0:0:0:
109,192,117136,1,0,0:0:0:0:
256,192,117460,128,0,117514:0:0:0:0:
475,192,117460,1,0,0:0:0:0:
36,192,117784,1,0,0:0:0:40:Bell.wav
402,192,117784,1,0,0:0:0:40:Additional Kick.wav
109,192,117784,128,0,117838:0:0:0:0:
182,192,118109,128,0,118163:0:0:0:0:
329,192,118433,128,0,118487:0:0:0:0:
109,192,118757,1,0,0:0:0:40:Additional Kick.wav
402,192,118757,128,0,118811:0:0:0:40:Bell.wav
329,192,119082,128,0,119136:0:0:0:0:
182,192,119406,128,0,119460:0:0:0:0:
402,192,119730,1,0,0:0:0:40:Bell.wav
36,192,119730,128,0,119784:0:0:0:40:Additional Kick.wav
109,192,120054,128,0,120109:0:0:0:0:
329,192,120379,128,0,120433:0:0:0:0:
36,192,120703,1,0,0:0:0:50:Clapsnare Instru.wav
402,192,120703,1,0,0:0:0:0:
475,192,120703,1,0,0:0:0:0:
256,192,120865,1,0,0:0:0:60:Additional Kick.wav
109,192,120865,1,0,0:0:0:0:
402,192,121027,1,0,0:0:0:0:
329,192,121190,1,0,0:0:0:50:Clapsnare Instru.wav
475,192,121190,1,0,0:0:0:0:
329,192,121352,1,0,0:0:0:50:Clapsnare Instru.wav
182,192,121352,1,0,0:0:0:0:
182,192,121514,1,0,0:0:0:50:Clapsnare Instru.wav
36,192,121514,1,0,0:0:0:0:
475,192,121676,1,0,0:0:0:60:Additional Kick.wav
256,192,121676,1,0,0:0:0:90:Bell.wav
109,192,121676,1,0,0:0:0:0:
329,192,121838,1,0,0:0:0:0:
402,192,122000,1,0,0:0:0:0:
182,192,122000,1,0,0:0:0:0:
36,192,122000,1,0,0:0:0:0:
256,192,122163,1,0,0:0:0:0:
475,192,122163,1,0,0:0:0:0:
402,192,122325,1,0,0:0:0:60:Additional Kick.wav
182,192,122325,1,0,0:0:0:0:
109,192,122325,1,0,0:0:0:0:
36,192,122487,1,0,0:0:0:0:
329,192,122487,1,0,0:0:0:0:
256,192,122649,1,0,0:0:0:50:Clapsnare Instru.wav
182,192,122649,1,0,0:0:0:0:
475,192,122649,1,0,0:0:0:0:
109,192,122649,1,0,0:0:0:0:
402,192,122811,1,0,0:0:0:0:
329,192,122973,1,0,0:0:0:0:
36,192,122973,1,0,0:0:0:0:
182,192,123136,1,0,0:0:0:0:
109,192,123298,1,0,0:0:0:0:
475,192,123298,1,0,0:0:0:0:
256,192,123460,1,0,0:0:0:0:
402,192,123622,1,0,0:0:0:60:Additional Kick.wav
182,192,123622,1,0,0:0:0:0:
36,192,123622,1,0,0:0:0:0:
329,192,123784,1,0,0:0:0:0:
256,192,123946,1,0,0:0:0:0:
109,192,123946,1,0,0:0:0:0:
475,192,123946,1,0,0:0:0:0:
329,192,124109,1,0,0:0:0:0:
402,192,124163,1,0,0:0:0:0:
329,192,124217,1,0,0:0:0:0:
475,192,124271,1,0,0:0:0:60:Additional Kick.wav
109,192,124271,1,0,0:0:0:0:
256,192,124271,1,0,0:0:0:0:
36,192,124433,1,0,0:0:0:0:
182,192,124433,1,0,0:0:0:0:
256,192,124595,1,0,0:0:0:50:Clapsnare Instru.wav
475,192,124595,1,0,0:0:0:0:
402,192,124595,1,0,0:0:0:0:
109,192,124595,1,0,0:0:0:0:
182,192,124757,1,0,0:0:0:0:
329,192,124919,1,0,0:0:0:0:
36,192,124919,1,0,0:0:0:0:
256,192,125082,1,0,0:0:0:0:
182,192,125244,1,0,0:0:0:0:
402,192,125244,1,0,0:0:0:0:
329,192,125406,1,0,0:0:0:0:
256,192,125568,1,0,0:0:0:60:Additional Kick.wav
109,192,125568,1,0,0:0:0:0:
475,192,125568,1,0,0:0:0:0:
182,192,125730,1,0,0:0:0:0:
402,192,125892,1,0,0:0:0:0:
109,192,125892,1,0,0:0:0:0:
256,192,125892,1,0,0:0:0:0:
329,192,126054,1,0,0:0:0:0:
36,192,126054,1,0,0:0:0:0:
329,192,126217,1,0,0:0:0:60:Additional Kick.wav
182,192,126217,1,0,0:0:0:0:
109,192,126217,1,0,0:0:0:0:
402,192,126379,1,0,0:0:0:0:
256,192,126379,1,0,0:0:0:0:
36,192,126541,1,0,0:0:0:50:Clapsnare Instru.wav
329,192,126541,1,0,0:0:0:0:
475,192,126541,1,0,0:0:0:0:
182,192,126541,1,0,0:0:0:0:
109,192,126703,1,0,0:0:0:0:
402,192,126865,1,0,0:0:0:0:
256,192,126865,1,0,0:0:0:0:
36,192,126865,1,0,0:0:0:0:
329,192,127027,1,0,0:0:0:0:
36,192,127190,1,0,0:0:0:0:
402,192,127190,1,0,0:0:0:0:
256,192,127190,1,0,0:0:0:0:
475,192,127271,1,0,0:0:0:0:
109,192,127352,1,0,0:0:0:0:
329,192,127352,1,0,0:0:0:0:
329,192,127514,1,0,0:0:0:60:Additional Kick.wav
182,192,127514,1,0,0:0:0:0:
36,192,127514,1,0,0:0:0:0:
402,192,127676,1,0,0:0:0:0:
36,192,127838,1,0,0:0:0:0:
329,192,127838,1,0,0:0:0:0:
109,192,128000,1,0,0:0:0:0:
256,192,128163,1,0,0:0:0:60:Additional Kick.wav
182,192,128163,1,0,0:0:0:0:
329,192,128163,1,0,0:0:0:0:
109,192,128325,1,0,0:0:0:0:
475,192,128487,1,0,0:0:0:50:Clapsnare Instru.wav
402,192,128487,1,0,0:0:0:0:
36,192,128487,1,0,0:0:0:0:
329,192,128487,1,0,0:0:0:0:
182,192,128649,1,0,0:0:0:0:
329,192,128811,1,0,0:0:0:0:
109,192,128811,1,0,0:0:0:0:
256,192,128973,1,0,0:0:0:0:
182,192,129136,1,0,0:0:0:0:
475,192,129136,1,0,0:0:0:0:
329,192,129298,1,0,0:0:0:0:
36,192,129460,1,0,0:0:0:60:Additional Kick.wav
109,192,129460,1,0,0:0:0:90:Bell.wav
256,192,129460,1,0,0:0:0:0:
475,192,129460,1,0,0:0:0:0:
182,192,129622,1,0,0:0:0:0:
256,192,129784,1,0,0:0:0:0:
402,192,129784,1,0,0:0:0:0:
109,192,129784,1,0,0:0:0:0:
329,192,129946,1,0,0:0:0:0:
475,192,129946,1,0,0:0:0:0:
402,192,130109,1,0,0:0:0:60:Additional Kick.wav
256,192,130109,1,0,0:0:0:0:
36,192,130109,1,0,0:0:0:0:
329,192,130271,1,0,0:0:0:0:
182,192,130271,1,0,0:0:0:0:
36,192,130433,1,0,0:0:0:50:Clapsnare Instru.wav
402,192,130433,1,0,0:0:0:0:
256,192,130433,1,0,0:0:0:0:
475,192,130433,1,0,0:0:0:0:
182,192,130595,1,0,0:0:0:0:
475,192,130757,1,0,0:0:0:0:
329,192,130757,1,0,0:0:0:0:
109,192,130919,1,0,0:0:0:0:
256,192,131082,1,0,0:0:0:0:
402,192,131082,1,0,0:0:0:0:
36,192,131082,1,0,0:0:0:0:
182,192,131244,1,0,0:0:0:0:
109,192,131406,1,0,0:0:0:60:Additional Kick.wav
475,192,131406,1,0,0:0:0:0:
329,192,131406,1,0,0:0:0:0:
256,192,131568,1,0,0:0:0:0:
182,192,131730,1,0,0:0:0:0:
36,192,131730,1,0,0:0:0:0:
329,192,131730,1,0,0:0:0:0:
402,192,131892,1,0,0:0:0:0:
109,192,131892,1,0,0:0:0:0:
329,192,132054,1,0,0:0:0:60:Additional Kick.wav
182,192,132054,1,0,0:0:0:0:
475,192,132054,1,0,0:0:0:0:
256,192,132217,1,0,0:0:0:0:
109,192,132217,1,0,0:0:0:0:
36,192,132379,1,0,0:0:0:50:Clapsnare Instru.wav
329,192,132379,1,0,0:0:0:0:
402,192,132379,1,0,0:0:0:0:
182,192,132379,1,0,0:0:0:0:
256,192,132541,1,0,0:0:0:0:
475,192,132703,1,0,0:0:0:0:
36,192,132703,1,0,0:0:0:0:
182,192,132703,1,0,0:0:0:0:
329,192,132865,1,0,0:0:0:0:
182,192,133027,1,0,0:0:0:0:
402,192,133027,1,0,0:0:0:0:
109,192,133027,1,0,0:0:0:0:
256,192,133190,1,0,0:0:0:0:
329,192,133352,1,0,0:0:0:60:Additional Kick.wav
475,192,133352,1,0,0:0:0:0:
36,192,133352,1,0,0:0:0:0:
182,192,133514,1,0,0:0:0:0:
109,192,133676,1,0,0:0:0:0:
256,192,133676,1,0,0:0:0:0:
402,192,133676,1,0,0:0:0:0:
329,192,133838,1,0,0:0:0:0:
182,192,134000,1,0,0:0:0:60:Additional Kick.wav
36,192,134000,1,0,0:0:0:0:
475,192,134000,1,0,0:0:0:0:
256,192,134163,1,0,0:0:0:0:
402,192,134325,1,0,0:0:0:50:Clapsnare Instru.wav
329,192,134325,1,0,0:0:0:0:
109,192,134325,1,0,0:0:0:0:
36,192,134325,1,0,0:0:0:0:
182,192,134487,1,0,0:0:0:0:
256,192,134649,1,0,0:0:0:0:
36,192,134649,1,0,0:0:0:0:
475,192,134649,1,0,0:0:0:0:
402,192,134811,1,0,0:0:0:0:
182,192,134973,1,0,0:0:0:0:
109,192,134973,1,0,0:0:0:0:
329,192,134973,1,0,0:0:0:0:
402,192,135136,1,0,0:0:0:0:
475,192,135298,1,0,0:0:0:60:Additional Kick.wav
182,192,135298,1,0,0:0:0:0:
36,192,135298,1,0,0:0:0:0:
256,192,135460,1,0,0:0:0:0:
402,192,135622,128,0,135730:0:0:0:50:Hihat.wav
109,192,135622,128,0,135730:0:0:0:0:
329,192,135622,1,0,0:0:0:0:
256,192,135784,1,0,0:0:0:0:
475,192,135946,128,0,136054:0:0:0:60:Additional Kick.wav
182,192,135946,128,0,136054:0:0:0:50:Hihat.wav
36,192,135946,1,0,0:0:0:0:
329,192,136109,1,0,0:0:0:0:
36,192,136271,1,0,0:0:0:50:Clapsnare Instru.wav
256,192,136271,128,0,136379:0:0:0:50:Hihat.wav
402,192,136271,128,0,136379:0:0:0:0:
109,192,136271,1,0,0:0:0:0:
182,192,136433,1,0,0:0:0:0:
109,192,136595,128,0,136703:0:0:0:50:Hihat.wav
36,192,136595,128,0,136703:0:0:0:0:
329,192,136595,1,0,0:0:0:0:
402,192,136757,1,0,0:0:0:50:Clapsnare Instru.wav
182,192,136757,1,0,0:0:0:0:
256,192,136757,1,0,0:0:0:0:
182,192,136919,1,0,0:0:0:50:Clapsnare Instru.wav
402,192,136919,1,0,0:0:0:0:
329,192,136919,1,0,0:0:0:0:
182,192,137082,1,0,0:0:0:50:Clapsnare Instru.wav
36,192,137082,1,0,0:0:0:0:
402,192,137082,1,0,0:0:0:0:
475,192,137244,1,0,0:0:0:60:Additional Kick.wav
329,192,137244,1,0,0:0:0:90:Bell.wav
36,192,137244,1,0,0:0:0:50:Hihat.wav
256,192,137244,128,0,137568:0:0:0:0:
109,192,137406,1,0,0:0:0:0:
182,192,137568,128,0,137892:0:0:0:50:Hihat.wav
475,192,137568,1,0,0:0:0:0:
36,192,137730,1,0,0:0:0:0:
109,192,137892,128,0,138217:0:0:0:60:Additional Kick.wav
329,192,137892,1,0,0:0:0:50:Hihat.wav
475,192,138054,1,0,0:0:0:0:
256,192,138217,1,0,0:0:0:50:Clapsnare Instru.wav
402,192,138217,128,0,138541:0:0:0:50:Hihat.wav
36,192,138217,1,0,0:0:0:0:
182,192,138379,1,0,0:0:0:0:
329,192,138541,128,0,138865:0:0:0:50:Hihat.wav
109,192,138541,1,0,0:0:0:0:
182,192,138703,1,0,0:0:0:0:
256,192,138865,128,0,139190:0:0:0:50:Hihat.wav
475,192,138865,1,0,0:0:0:0:
109,192,139027,1,0,0:0:0:0:
402,192,139190,1,0,0:0:0:60:Additional Kick.wav
36,192,139190,128,0,140163:0:0:0:50:Hihat.wav
329,192,139352,1,0,0:0:0:0:
182,192,139514,128,0,139676:0:0:0:50:Hihat.wav
475,192,139514,1,0,0:0:0:30:Click.wav
256,192,139676,128,0,139838:0:0:0:30:Click.wav
329,192,139838,128,0,140000:0:0:0:60:Additional Kick.wav
109,192,139838,1,0,0:0:0:50:Hihat.wav
402,192,140000,128,0,140163:0:0:0:30:Click.wav
475,192,140163,128,0,140487:0:0:0:50:Clapsnare Instru.wav
329,192,140163,1,0,0:0:0:50:Hihat.wav
109,192,140163,1,0,0:0:0:30:Click.wav
256,192,140325,1,0,0:0:0:0:
329,192,140487,128,0,140811:0:0:0:50:Hihat.wav
182,192,140487,1,0,0:0:0:30:Click.wav
109,192,140649,1,0,0:0:0:0:
182,192,140811,128,0,141136:0:0:0:50:Hihat.wav
36,192,140811,1,0,0:0:0:30:Click.wav
402,192,140973,1,0,0:0:0:0:
36,192,141136,128,0,141460:0:0:0:60:Additional Kick.wav
475,192,141136,1,0,0:0:0:50:Hihat.wav
256,192,141136,1,0,0:0:0:0:
329,192,141298,1,0,0:0:0:0:
256,192,141460,128,0,141784:0:0:0:50:Hihat.wav
182,192,141460,1,0,0:0:0:0:
402,192,141622,1,0,0:0:0:0:
36,192,141784,128,0,142109:0:0:0:60:Additional Kick.wav
109,192,141784,1,0,0:0:0:50:Hihat.wav
256,192,141946,1,0,0:0:0:0:
182,192,142109,1,0,0:0:0:50:Clapsnare Instru.wav
475,192,142109,1,0,0:0:0:50:Hihat.wav
109,192,142109,1,0,0:0:0:90:Bell.wav
402,192,142149,1,0,0:0:0:0:
329,192,142190,128,0,142433:0:0:0:0:
36,192,142271,1,0,0:0:0:0:
475,192,142433,128,0,142757:0:0:0:50:Hihat.wav
182,192,142433,1,0,0:0:0:0:
402,192,142595,1,0,0:0:0:0:
256,192,142757,128,0,143082:0:0:0:50:Hihat.wav
109,192,142757,1,0,0:0:0:0:
329,192,142919,1,0,0:0:0:0:
475,192,143082,1,0,0:0:0:60:Additional Kick.wav
36,192,143082,128,0,144703:0:0:0:50:Hihat.wav
182,192,143082,1,0,0:0:0:0:
402,192,143244,1,0,0:0:0:0:
475,192,143406,1,0,0:0:0:50:Hihat.wav
109,192,143406,1,0,0:0:0:30:Click.wav
402,192,143514,1,0,0:0:0:0:
182,192,143568,1,0,0:0:0:30:Click.wav
329,192,143622,1,0,0:0:0:0:
475,192,143730,1,0,0:0:0:60:Additional Kick.wav
109,192,143730,1,0,0:0:0:50:Hihat.wav
402,192,143838,1,0,0:0:0:0:
182,192,143892,1,0,0:0:0:30:Click.wav
329,192,143946,1,0,0:0:0:0:
109,192,144054,1,0,0:0:0:50:Clapsnare Instru.wav
402,192,144054,1,0,0:0:0:50:Hihat.wav
182,192,144054,1,0,0:0:0:30:Click.wav
329,192,144163,1,0,0:0:0:0:
256,192,144271,1,0,0:0:0:0:
475,192,144379,1,0,0:0:0:50:Hihat.wav
182,192,144379,1,0,0:0:0:30:Click.wav
329,192,144487,1,0,0:0:0:0:
402,192,144595,1,0,0:0:0:0:
329,192,144703,1,0,0:0:0:50:Hihat.wav
109,192,144703,1,0,0:0:0:30:Click.wav
182,192,144811,1,0,0:0:0:0:
256,192,144919,1,0,0:0:0:0:
36,192,145027,1,0,0:0:0:60:Additional Kick.wav
475,192,145027,1,0,0:0:0:50:Hihat.wav
329,192,145027,1,0,0:0:0:0:
182,192,145082,128,0,145352:0:0:0:0:
402,192,145190,1,0,0:0:0:0:
256,192,145352,128,0,145676:0:0:0:50:Hihat.wav
36,192,145352,1,0,0:0:0:0:
182,192,145514,1,0,0:0:0:0:
402,192,145676,128,0,146000:0:0:0:60:Additional Kick.wav
109,192,145676,1,0,0:0:0:50:Hihat.wav
256,192,145838,1,0,0:0:0:0:
36,192,146000,1,0,0:0:0:50:Clapsnare Instru.wav
475,192,146000,1,0,0:0:0:50:Hihat.wav
109,192,146000,1,0,0:0:0:90:Bell.wav
329,192,146054,128,0,146325:0:0:0:0:
182,192,146163,1,0,0:0:0:0:
256,192,146325,128,0,146649:0:0:0:50:Hihat.wav
475,192,146325,1,0,0:0:0:0:
402,192,146487,1,0,0:0:0:0:
182,192,146649,128,0,146973:0:0:0:50:Hihat.wav
36,192,146649,1,0,0:0:0:0:
475,192,146811,1,0,0:0:0:0:
329,192,146973,1,0,0:0:0:60:Additional Kick.wav
36,192,146973,1,0,0:0:0:50:Hihat.wav
402,192,147014,1,0,0:0:0:0:
475,192,147054,128,0,147946:0:0:0:0:
182,192,147136,1,0,0:0:0:0:
109,192,147298,1,0,0:0:0:50:Hihat.wav
402,192,147298,1,0,0:0:0:30:Click.wav
256,192,147460,128,0,147622:0:0:0:30:Click.wav
109,192,147460,1,0,0:0:0:0:
182,192,147622,128,0,147784:0:0:0:60:Additional Kick.wav
329,192,147622,1,0,0:0:0:50:Hihat.wav
109,192,147784,128,0,147946:0:0:0:30:Click.wav
329,192,147784,1,0,0:0:0:0:
256,192,147946,1,0,0:0:0:50:Clapsnare Instru.wav
402,192,147946,128,0,148271:0:0:0:50:Hihat.wav
36,192,147946,128,0,148919:0:0:0:30:Click.wav
182,192,148109,1,0,0:0:0:0:
475,192,148271,1,0,0:0:0:50:Hihat.wav
109,192,148271,128,0,148595:0:0:0:30:Click.wav
256,192,148433,1,0,0:0:0:0:
329,192,148595,128,0,148757:0:0:0:50:Hihat.wav
182,192,148595,128,0,148919:0:0:0:30:Click.wav
402,192,148757,128,0,148919:0:0:0:0:
329,192,148919,1,0,0:0:0:60:Additional Kick.wav
475,192,148919,128,0,149892:0:0:0:50:Hihat.wav
256,192,148919,1,0,0:0:0:0:
182,192,149082,1,0,0:0:0:0:
109,192,149244,1,0,0:0:0:50:Hihat.wav
256,192,149244,1,0,0:0:0:0:
329,192,149406,1,0,0:0:0:0:
36,192,149568,128,0,149730:0:0:0:60:Additional Kick.wav
402,192,149568,1,0,0:0:0:50:Hihat.wav
109,192,149730,128,0,149892:0:0:0:0:
182,192,149892,128,0,150541:0:0:0:50:Clapsnare Instru.wav
329,192,149892,1,0,0:0:0:50:Hihat.wav
256,192,149892,1,0,0:0:0:90:Bell.wav
402,192,149892,1,0,0:0:0:0:
36,192,150054,1,0,0:0:0:0:
329,192,150217,128,0,150865:0:0:0:50:Hihat.wav
475,192,150217,1,0,0:0:0:0:
256,192,150379,1,0,0:0:0:0:
36,192,150541,128,0,151190:0:0:0:50:Hihat.wav
402,192,150541,1,0,0:0:0:0:
182,192,150703,1,0,0:0:0:0:
109,192,150825,1,0,0:0:0:0:
402,192,150865,1,0,0:0:0:90:Bell.wav
475,192,150865,128,0,151190:0:0:0:60:Additional Kick.wav
256,192,150865,1,0,0:0:0:50:Hihat.wav
109,192,151190,128,0,151352:0:0:0:50:Hihat.wav
256,192,151190,1,0,0:0:0:0:
182,192,151352,128,0,151514:0:0:0:0:
329,192,151352,1,0,0:0:0:0:
256,192,151514,128,0,151676:0:0:0:60:Additional Kick.wav
402,192,151514,1,0,0:0:0:50:Hihat.wav
329,192,151676,128,0,151838:0:0:0:0:
475,192,151676,1,0,0:0:0:0:
402,192,151838,128,0,152000:0:0:0:50:Clapsnare Instru.wav
182,192,151838,1,0,0:0:0:50:Hihat.wav
36,192,151838,1,0,0:0:0:90:Bell.wav
256,192,151838,1,0,0:0:0:0:
109,192,152163,128,0,152487:0:0:0:50:Hihat.wav
329,192,152163,1,0,0:0:0:30:Click.wav
182,192,152325,128,0,152649:0:0:0:30:Click.wav
329,192,152325,1,0,0:0:0:0:
475,192,152487,1,0,0:0:0:30:Click.wav
256,192,152487,128,0,152811:0:0:0:50:Hihat.wav
329,192,152649,128,0,152811:0:0:0:30:Click.wav
475,192,152649,1,0,0:0:0:0:
402,192,152811,128,0,152973:0:0:0:90:Bell.wav
36,192,152811,1,0,0:0:0:30:Click.wav
109,192,152811,1,0,0:0:0:60:Additional Kick.wav
182,192,152811,1,0,0:0:0:50:Hihat.wav
182,192,153136,128,0,153460:0:0:0:50:Clapsnare Instru.wav
329,192,153136,1,0,0:0:0:50:Hihat.wav
36,192,153136,1,0,0:0:0:0:
475,192,153136,1,0,0:0:0:0:
329,192,153298,128,0,153622:0:0:0:50:Clapsnare Instru.wav
402,192,153298,1,0,0:0:0:0:
256,192,153298,1,0,0:0:0:0:
36,192,153298,1,0,0:0:0:0:
36,192,153460,128,0,153784:0:0:0:50:Clapsnare Instru.wav
475,192,153460,1,0,0:0:0:50:Hihat.wav
256,192,153460,1,0,0:0:0:0:
109,192,153460,1,0,0:0:0:0:
109,192,153622,128,0,153784:0:0:0:50:Clapsnare Instru.wav
402,192,153622,1,0,0:0:0:0:
475,192,153622,1,0,0:0:0:0:
182,192,153622,1,0,0:0:0:0:
182,192,153784,1,0,0:0:0:90:Bell.wav
475,192,153784,1,0,0:0:0:50:Clapsnare Instru.wav
256,192,153784,1,0,0:0:0:65:Click.wav
402,192,153784,1,0,0:0:0:60:Additional Kick.wav
329,192,153784,1,0,0:0:0:30:Click.wav
182,192,154433,128,0,154757:0:0:0:0:
475,192,154757,1,0,0:0:0:60:Additional Kick.wav
402,192,154757,1,0,0:0:0:50:Hihat.wav
36,192,154757,1,0,0:0:0:90:Bell.wav
256,192,154757,128,0,155406:0:0:0:0:
329,192,155082,1,0,0:0:0:50:Hihat.wav
182,192,155082,1,0,0:0:0:0:
109,192,155244,1,0,0:0:0:0:
36,192,155406,1,0,0:0:0:50:Hihat.wav
475,192,155406,1,0,0:0:0:60:Additional Kick.wav
402,192,155406,1,0,0:0:0:0:
182,192,155568,1,0,0:0:0:0:
402,192,155730,128,0,156379:0:0:0:50:Hihat.wav
256,192,155730,1,0,0:0:0:60:Clapsnare Instru.wav
109,192,155730,1,0,0:0:0:0:
475,192,156054,1,0,0:0:0:50:Hihat.wav
329,192,156054,1,0,0:0:0:0:
256,192,156217,1,0,0:0:0:0:
329,192,156379,128,0,156703:0:0:0:50:Hihat.wav
109,192,156379,128,0,156541:0:0:0:0:
182,192,156541,128,0,156703:0:0:0:0:
256,192,156703,128,0,157190:0:0:0:50:Hihat.wav
36,192,156703,1,0,0:0:0:60:Additional Kick.wav
402,192,156703,1,0,0:0:0:0:
109,192,157027,1,0,0:0:0:50:Hihat.wav
475,192,157027,1,0,0:0:0:0:
329,192,157190,128,0,157352:0:0:0:0:
36,192,157190,128,0,157352:0:0:0:0:
402,192,157352,128,0,157676:0:0:0:50:Hihat.wav
109,192,157352,128,0,157676:0:0:0:60:Additional Kick.wav
256,192,157514,1,0,0:0:0:0:
182,192,157676,128,0,158325:0:0:0:50:Hihat.wav
329,192,157676,128,0,158649:0:0:0:60:Clapsnare Instru.wav
36,192,157676,1,0,0:0:0:0:
402,192,158000,1,0,0:0:0:50:Hihat.wav
36,192,158000,1,0,0:0:0:0:
475,192,158163,1,0,0:0:0:0:
109,192,158325,128,0,158487:0:0:0:50:Hihat.wav
256,192,158325,1,0,0:0:0:0:
182,192,158487,128,0,158649:0:0:0:0:
402,192,158487,1,0,0:0:0:0:
256,192,158649,128,0,159298:0:0:0:50:Hihat.wav
475,192,158649,1,0,0:0:0:60:Additional Kick.wav
36,192,158649,1,0,0:0:0:90:Bell.wav
36,192,158973,128,0,159136:0:0:0:50:Hihat.wav
402,192,158973,1,0,0:0:0:0:
109,192,159136,128,0,159298:0:0:0:0:
182,192,159298,128,0,159622:0:0:0:50:Hihat.wav
402,192,159298,128,0,159460:0:0:0:60:Additional Kick.wav
475,192,159298,1,0,0:0:0:0:
329,192,159460,128,0,159622:0:0:0:0:
109,192,159460,1,0,0:0:0:0:
256,192,159622,128,0,159946:0:0:0:50:Hihat.wav
36,192,159622,1,0,0:0:0:60:Clapsnare Instru.wav
402,192,159622,1,0,0:0:0:0:
182,192,159946,128,0,160271:0:0:0:50:Hihat.wav
475,192,159946,1,0,0:0:0:0:
36,192,159946,1,0,0:0:0:0:
402,192,160109,128,0,160271:0:0:0:0:
109,192,160271,1,0,0:0:0:50:Hihat.wav
256,192,160271,1,0,0:0:0:0:
329,192,160271,128,0,161730:0:0:0:0:
182,192,160433,128,0,160595:0:0:0:0:
475,192,160595,128,0,161730:0:0:0:50:Hihat.wav
109,192,160595,1,0,0:0:0:60:Additional Kick.wav
36,192,160595,1,0,0:0:0:0:
182,192,160919,1,0,0:0:0:50:Hihat.wav
402,192,160919,1,0,0:0:0:0:
109,192,161082,1,0,0:0:0:0:
36,192,161244,1,0,0:0:0:50:Hihat.wav
256,192,161244,1,0,0:0:0:60:Additional Kick.wav
182,192,161406,1,0,0:0:0:0:
36,192,161514,1,0,0:0:0:0:
256,192,161568,1,0,0:0:0:50:Hihat.wav
109,192,161568,1,0,0:0:0:60:Clapsnare Instru.wav
402,192,161730,128,0,161892:0:0:0:0:
182,192,161730,1,0,0:0:0:0:
256,192,161892,128,0,162054:0:0:0:50:Hihat.wav
109,192,161892,1,0,0:0:0:0:
109,192,162054,128,0,162217:0:0:0:0:
475,192,162054,1,0,0:0:0:0:
329,192,162217,128,0,162379:0:0:0:50:Hihat.wav
182,192,162217,1,0,0:0:0:0:
182,192,162379,128,0,162541:0:0:0:0:
256,192,162379,1,0,0:0:0:0:
475,192,162541,1,0,0:0:0:50:Hihat.wav
402,192,162541,1,0,0:0:0:60:Additional Kick.wav
36,192,162541,128,0,163190:0:0:0:90:Bell.wav
329,192,162865,1,0,0:0:0:50:Hihat.wav
109,192,162865,1,0,0:0:0:0:
256,192,163027,1,0,0:0:0:0:
182,192,163190,128,0,163352:0:0:0:50:Hihat.wav
475,192,163190,1,0,0:0:0:60:Additional Kick.wav
329,192,163352,128,0,163514:0:0:0:0:
109,192,163352,1,0,0:0:0:0:
475,192,163514,128,0,164163:0:0:0:50:Hihat.wav
36,192,163514,1,0,0:0:0:60:Clapsnare Instru.wav
182,192,163514,1,0,0:0:0:0:
329,192,163838,1,0,0:0:0:50:Hihat.wav
109,192,163838,128,0,164163:0:0:0:0:
256,192,164000,1,0,0:0:0:0:
329,192,164163,128,0,164487:0:0:0:50:Hihat.wav
182,192,164163,128,0,164325:0:0:0:0:
402,192,164163,1,0,0:0:0:0:
109,192,164325,128,0,164487:0:0:0:0:
182,192,164487,128,0,164973:0:0:0:50:Hihat.wav
475,192,164487,1,0,0:0:0:60:Additional Kick.wav
402,192,164487,1,0,0:0:0:0:
402,192,164811,1,0,0:0:0:50:Hihat.wav
36,192,164811,1,0,0:0:0:0:
329,192,164973,128,0,165460:0:0:0:0:
256,192,164973,1,0,0:0:0:0:
475,192,165136,128,0,165460:0:0:0:50:Hihat.wav
402,192,165136,1,0,0:0:0:60:Additional Kick.wav
109,192,165136,1,0,0:0:0:0:
182,192,165298,1,0,0:0:0:0:
36,192,165460,128,0,166271:0:0:0:50:Hihat.wav
256,192,165460,1,0,0:0:0:60:Clapsnare Instru.wav
109,192,165460,1,0,0:0:0:0:
402,192,165784,128,0,165946:0:0:0:50:Hihat.wav
182,192,165784,1,0,0:0:0:0:
329,192,165946,128,0,166109:0:0:0:0:
256,192,166109,128,0,166271:0:0:0:50:Hihat.wav
109,192,166109,1,0,0:0:0:0:
182,192,166271,128,0,166433:0:0:0:0:
475,192,166271,128,0,166433:0:0:0:0:
36,192,166433,128,0,166757:0:0:0:50:Hihat.wav
109,192,166433,1,0,0:0:0:90:Bell.wav
329,192,166433,128,0,166595:0:0:0:60:Additional Kick.wav
182,192,166757,128,0,167082:0:0:0:50:Hihat.wav
329,192,166757,128,0,166919:0:0:0:0:
402,192,166919,128,0,167082:0:0:0:0:
475,192,167082,128,0,167406:0:0:0:50:Hihat.wav
109,192,167082,128,0,167244:0:0:0:60:Additional Kick.wav
182,192,167244,128,0,167406:0:0:0:0:
109,192,167406,128,0,167730:0:0:0:50:Hihat.wav
36,192,167406,1,0,0:0:0:0:
329,192,167406,128,0,167568:0:0:0:60:Clapsnare Instru.wav
256,192,167730,128,0,168054:0:0:0:50:Hihat.wav
475,192,167730,1,0,0:0:0:0:
329,192,167892,128,0,168054:0:0:0:0:
402,192,168054,128,0,168379:0:0:0:50:Hihat.wav
182,192,168054,128,0,168217:0:0:0:0:
109,192,168217,128,0,168379:0:0:0:0:
475,192,168379,128,0,168703:0:0:0:50:Hihat.wav
36,192,168379,128,0,168541:0:0:0:60:Additional Kick.wav
256,192,168379,1,0,0:0:0:0:
36,192,168703,128,0,169027:0:0:0:50:Hihat.wav
182,192,168703,1,0,0:0:0:0:
402,192,168703,1,0,0:0:0:0:
329,192,168865,1,0,0:0:0:0:
182,192,169027,128,0,169352:0:0:0:50:Hihat.wav
329,192,169027,128,0,169190:0:0:0:60:Additional Kick.wav
256,192,169027,1,0,0:0:0:0:
402,192,169190,128,0,169352:0:0:0:0:
475,192,169352,128,0,169676:0:0:0:50:Hihat.wav
109,192,169352,128,0,169514:0:0:0:60:Clapsnare Instru.wav
36,192,169352,1,0,0:0:0:0:
36,192,169676,128,0,170325:0:0:0:50:Hihat.wav
256,192,169676,1,0,0:0:0:0:
329,192,169676,1,0,0:0:0:0:
402,192,169838,1,0,0:0:0:60:Clapsnare Instru.wav
182,192,169838,1,0,0:0:0:0:
109,192,169838,1,0,0:0:0:0:
256,192,170000,128,0,170325:0:0:0:50:Hihat.wav
329,192,170000,1,0,0:0:0:60:Clapsnare Instru.wav
475,192,170000,1,0,0:0:0:0:
182,192,170000,1,0,0:0:0:0:
402,192,170163,1,0,0:0:0:60:Clapsnare Instru.wav
109,192,170163,1,0,0:0:0:0:
329,192,170163,1,0,0:0:0:0:
402,192,170325,1,0,0:0:0:50:Hihat.wav
182,192,170325,1,0,0:0:0:60:Additional Kick.wav
109,192,170325,1,0,0:0:0:60:Bell.wav
475,192,170325,128,0,171298:0:0:0:90:Bell.wav
182,192,170649,1,0,0:0:0:60:Bell.wav
329,192,170649,1,0,0:0:0:0:
109,192,170811,1,0,0:0:0:0:
36,192,170973,1,0,0:0:0:60:Bell.wav
256,192,170973,1,0,0:0:0:30:Click.wav
182,192,171136,1,0,0:0:0:0:
329,192,171298,128,0,172271:0:0:0:50:Clapsnare Instru.wav
109,192,171298,1,0,0:0:0:60:Bell.wav
402,192,171298,1,0,0:0:0:0:
256,192,171622,1,0,0:0:0:30:Click.wav
36,192,171622,1,0,0:0:0:60:Bell.wav
36,192,171784,1,0,0:0:0:30:Click.wav
182,192,171784,1,0,0:0:0:0:
402,192,171946,1,0,0:0:0:30:Click.wav
109,192,171946,1,0,0:0:0:60:Bell.wav
402,192,172109,1,0,0:0:0:30:Click.wav
256,192,172109,1,0,0:0:0:0:
182,192,172271,128,0,172757:0:0:0:60:Additional Kick.wav
475,192,172271,1,0,0:0:0:60:Bell.wav
36,192,172271,1,0,0:0:0:0:
402,192,172595,1,0,0:0:0:60:Bell.wav
109,192,172595,1,0,0:0:0:0:
329,192,172757,128,0,173244:0:0:0:0:
256,192,172757,1,0,0:0:0:0:
182,192,172919,128,0,173244:0:0:0:60:Bell.wav
109,192,172919,1,0,0:0:0:30:Click.wav
475,192,172919,1,0,0:0:0:0:
256,192,173082,1,0,0:0:0:0:
402,192,173244,128,0,174217:0:0:0:50:Clapsnare Instru.wav
36,192,173244,1,0,0:0:0:60:Bell.wav
109,192,173244,1,0,0:0:0:0:
256,192,173568,1,0,0:0:0:30:Click.wav
109,192,173568,1,0,0:0:0:60:Bell.wav
256,192,173730,1,0,0:0:0:30:Click.wav
36,192,173730,1,0,0:0:0:0:
182,192,173892,1,0,0:0:0:30:Click.wav
329,192,173892,1,0,0:0:0:60:Bell.wav
182,192,174054,1,0,0:0:0:30:Click.wav
256,192,174054,1,0,0:0:0:0:
109,192,174217,128,0,175190:0:0:0:60:Bell.wav
36,192,174217,1,0,0:0:0:60:Additional Kick.wav
329,192,174217,128,0,174379:0:0:0:0:
475,192,174217,1,0,0:0:0:0:
402,192,174379,128,0,174541:0:0:0:0:
329,192,174541,128,0,174703:0:0:0:60:Bell.wav
182,192,174541,1,0,0:0:0:0:
256,192,174703,128,0,174865:0:0:0:0:
329,192,174865,128,0,175027:0:0:0:60:Bell.wav
475,192,174865,1,0,0:0:0:30:Click.wav
402,192,175027,128,0,175190:0:0:0:0:
182,192,175190,128,0,176163:0:0:0:60:Bell.wav
36,192,175190,128,0,175352:0:0:0:50:Clapsnare Instru.wav
256,192,175190,1,0,0:0:0:0:
329,192,175352,128,0,175514:0:0:0:0:
256,192,175514,128,0,175676:0:0:0:60:Bell.wav
475,192,175514,1,0,0:0:0:30:Click.wav
109,192,175676,128,0,175838:0:0:0:30:Click.wav
402,192,175676,1,0,0:0:0:0:
256,192,175838,128,0,176000:0:0:0:60:Bell.wav
36,192,175838,1,0,0:0:0:30:Click.wav
329,192,176000,128,0,176163:0:0:0:30:Click.wav
109,192,176000,1,0,0:0:0:0:
256,192,176163,128,0,177136:0:0:0:60:Additional Kick.wav
402,192,176163,128,0,176325:0:0:0:60:Bell.wav
36,192,176163,1,0,0:0:0:0:
475,192,176325,128,0,176487:0:0:0:0:
329,192,176487,128,0,176649:0:0:0:60:Bell.wav
109,192,176487,1,0,0:0:0:0:
182,192,176649,128,0,176811:0:0:0:0:
109,192,176811,128,0,176973:0:0:0:60:Bell.wav
475,192,176811,1,0,0:0:0:30:Click.wav
36,192,176973,128,0,177136:0:0:0:0:
109,192,177136,128,0,177460:0:0:0:50:Clapsnare Instru.wav
329,192,177136,128,0,177298:0:0:0:60:Bell.wav
475,192,177136,1,0,0:0:0:0:
402,192,177298,128,0,177460:0:0:0:0:
182,192,177460,128,0,177784:0:0:0:30:Click.wav
329,192,177460,128,0,177622:0:0:0:60:Bell.wav
36,192,177460,1,0,0:0:0:0:
475,192,177622,128,0,177784:0:0:0:30:Click.wav
109,192,177622,1,0,0:0:0:0:
256,192,177784,128,0,178109:0:0:0:30:Click.wav
36,192,177784,128,0,177946:0:0:0:60:Bell.wav
329,192,177784,1,0,0:0:0:30:Click.wav
109,192,177946,128,0,178109:0:0:0:30:Click.wav
402,192,177946,1,0,0:0:0:0:
329,192,178109,128,0,179082:0:0:0:60:Additional Kick.wav
182,192,178109,1,0,0:0:0:60:Bell.wav
475,192,178109,1,0,0:0:0:90:Bell.wav
36,192,178109,1,0,0:0:0:0:
36,192,178433,1,0,0:0:0:60:Bell.wav
402,192,178433,1,0,0:0:0:0:
182,192,178595,1,0,0:0:0:0:
109,192,178757,1,0,0:0:0:60:Bell.wav
475,192,178757,1,0,0:0:0:30:Click.wav
182,192,178919,1,0,0:0:0:0:
256,192,179082,128,0,180054:0:0:0:50:Clapsnare Instru.wav
402,192,179082,1,0,0:0:0:60:Bell.wav
36,192,179082,1,0,0:0:0:0:
182,192,179406,1,0,0:0:0:30:Click.wav
475,192,179406,1,0,0:0:0:60:Bell.wav
475,192,179568,1,0,0:0:0:30:Click.wav
329,192,179568,1,0,0:0:0:0:
109,192,179730,1,0,0:0:0:30:Click.wav
402,192,179730,1,0,0:0:0:60:Bell.wav
329,192,179892,1,0,0:0:0:30:Click.wav
109,192,179892,1,0,0:0:0:0:
182,192,180054,128,0,181027:0:0:0:60:Bell.wav
36,192,180054,1,0,0:0:0:60:Additional Kick.wav
475,192,180054,1,0,0:0:0:0:
329,192,180379,1,0,0:0:0:60:Bell.wav
109,192,180379,1,0,0:0:0:0:
402,192,180541,1,0,0:0:0:0:
475,192,180703,1,0,0:0:0:60:Bell.wav
36,192,180703,1,0,0:0:0:30:Click.wav
109,192,180865,1,0,0:0:0:0:
256,192,181027,128,0,182000:0:0:0:60:Bell.wav
402,192,181027,1,0,0:0:0:50:Clapsnare Instru.wav
329,192,181027,1,0,0:0:0:0:
109,192,181352,1,0,0:0:0:60:Bell.wav
475,192,181352,1,0,0:0:0:30:Click.wav
109,192,181514,1,0,0:0:0:30:Click.wav
402,192,181514,1,0,0:0:0:0:
329,192,181676,1,0,0:0:0:60:Bell.wav
36,192,181676,1,0,0:0:0:30:Click.wav
329,192,181838,1,0,0:0:0:30:Click.wav
109,192,181838,1,0,0:0:0:0:
182,192,182000,128,0,184919:0:0:0:60:Additional Kick.wav
475,192,182000,1,0,0:0:0:60:Bell.wav
402,192,182000,1,0,0:0:0:0:
329,192,182325,1,0,0:0:0:60:Bell.wav
36,192,182325,1,0,0:0:0:0:
402,192,182487,1,0,0:0:0:0:
475,192,182649,1,0,0:0:0:60:Bell.wav
256,192,182649,1,0,0:0:0:30:Click.wav
109,192,182811,1,0,0:0:0:0:
36,192,182973,1,0,0:0:0:50:Clapsnare Instru.wav
329,192,182973,1,0,0:0:0:60:Bell.wav
475,192,182973,1,0,0:0:0:0:
475,192,183298,1,0,0:0:0:30:Click.wav
256,192,183298,1,0,0:0:0:60:Bell.wav
256,192,183460,1,0,0:0:0:30:Click.wav
402,192,183460,1,0,0:0:0:0:
109,192,183622,1,0,0:0:0:30:Click.wav
329,192,183622,1,0,0:0:0:60:Bell.wav
256,192,183784,1,0,0:0:0:30:Click.wav
109,192,183784,1,0,0:0:0:0:
329,192,183946,128,0,184919:0:0:0:60:Bell.wav
36,192,183946,1,0,0:0:0:60:Additional Kick.wav
402,192,183946,1,0,0:0:0:50:Clapsnare Instru.wav
109,192,184271,1,0,0:0:0:60:Additional Kick.wav
475,192,184271,1,0,0:0:0:50:Clapsnare Instru.wav
36,192,184271,1,0,0:0:0:0:
402,192,184433,1,0,0:0:0:30:Clapsnare Instru.wav
36,192,184433,1,0,0:0:0:0:
475,192,184595,1,0,0:0:0:50:Clapsnare Instru.wav
256,192,184595,1,0,0:0:0:60:Additional Kick.wav
109,192,184595,1,0,0:0:0:0:
36,192,184757,1,0,0:0:0:30:Clapsnare Instru.wav
475,192,184757,1,0,0:0:0:0:
256,192,184919,128,0,185244:0:0:0:60:Additional Kick.wav
402,192,184919,1,0,0:0:0:50:Clapsnare Instru.wav
109,192,184919,1,0,0:0:0:0:
109,192,185082,1,0,0:0:0:30:Clapsnare Instru.wav
402,192,185082,1,0,0:0:0:0:
182,192,185244,128,0,185811:0:0:0:50:Clapsnare Instru.wav
36,192,185244,1,0,0:0:0:60:Additional Kick.wav
329,192,185244,1,0,0:0:0:0:
36,192,185406,1,0,0:0:0:30:Clapsnare Instru.wav
402,192,185406,1,0,0:0:0:0:
329,192,185568,128,0,185811:0:0:0:60:Additional Kick.wav
109,192,185568,1,0,0:0:0:50:Clapsnare Instru.wav
475,192,185568,1,0,0:0:0:0:
475,192,185730,1,0,0:0:0:30:Clapsnare Instru.wav
109,192,185730,1,0,0:0:0:0:
329,192,185892,1,0,0:0:0:90:Bell.wav
256,192,185892,1,0,0:0:0:60:Additional Kick.wav
182,192,185892,1,0,0:0:0:65:Click.wav
475,192,185892,1,0,0:0:0:0:
36,192,185892,1,0,0:0:0:30:Click.wav
256,192,188487,128,0,188811:0:0:0:0:
329,192,188811,1,0,0:0:0:60:Additional Kick.wav
36,192,188811,1,0,0:0:0:0:
475,192,188811,1,0,0:0:0:0:
109,192,188892,1,0,0:0:0:60:Additional Kick.wav
182,192,188933,1,0,0:0:0:60:Additional Kick.wav
256,192,188973,128,0,189784:0:0:0:60:Additional Kick.wav
36,192,189136,1,0,0:0:0:60:Additional Kick.wav
475,192,189136,1,0,0:0:0:0:
329,192,189190,1,0,0:0:0:0:
182,192,189190,1,0,0:0:0:0:
36,192,189298,1,0,0:0:0:60:Additional Kick.wav
475,192,189298,1,0,0:0:0:0:
182,192,189352,1,0,0:0:0:0:
329,192,189352,1,0,0:0:0:0:
109,192,189460,1,0,0:0:0:60:Additional Kick.wav
402,192,189460,1,0,0:0:0:0:
182,192,189514,1,0,0:0:0:0:
329,192,189514,1,0,0:0:0:0:
109,192,189622,1,0,0:0:0:60:Additional Kick.wav
402,192,189622,1,0,0:0:0:0:
182,192,189676,1,0,0:0:0:0:
329,192,189676,1,0,0:0:0:0:
36,192,189784,1,0,0:0:0:60:Additional Kick.wav
475,192,189784,1,0,0:0:0:50:Hihat.wav
402,192,189784,128,0,190271:0:0:0:90:Bell.wav
109,192,189784,128,0,190109:0:0:0:0:
329,192,190109,1,0,0:0:0:50:Hihat.wav
475,192,190109,1,0,0:0:0:0:
109,192,190271,128,0,190433:0:0:0:0:
182,192,190271,1,0,0:0:0:0:
402,192,190433,128,0,190595:0:0:0:50:Hihat.wav
329,192,190433,1,0,0:0:0:30:Click.wav
475,192,190433,1,0,0:0:0:60:Additional Kick.wav
109,192,190595,128,0,191082:0:0:0:0:
256,192,190595,1,0,0:0:0:0:
402,192,190757,128,0,191082:0:0:0:50:Hihat.wav
329,192,190757,1,0,0:0:0:60:Clapsnare Instru.wav
36,192,190757,1,0,0:0:0:0:
475,192,191082,1,0,0:0:0:50:Hihat.wav
182,192,191082,128,0,191136:0:0:0:30:Click.wav
36,192,191082,128,0,191136:0:0:0:0:
475,192,191244,1,0,0:0:0:30:Click.wav
329,192,191244,1,0,0:0:0:0:
402,192,191406,1,0,0:0:0:50:Hihat.wav
109,192,191406,1,0,0:0:0:30:Click.wav
256,192,191406,1,0,0:0:0:0:
109,192,191568,1,0,0:0:0:30:Click.wav
329,192,191568,1,0,0:0:0:0:
182,192,191730,1,0,0:0:0:50:Hihat.wav
256,192,191730,128,0,192217:0:0:0:60:Additional Kick.wav
36,192,191730,128,0,192054:0:0:0:0:
475,192,192054,1,0,0:0:0:50:Hihat.wav
329,192,192054,1,0,0:0:0:0:
36,192,192217,128,0,192379:0:0:0:0:
109,192,192217,1,0,0:0:0:0:
256,192,192379,128,0,192541:0:0:0:50:Hihat.wav
402,192,192379,1,0,0:0:0:30:Click.wav
182,192,192379,1,0,0:0:0:60:Additional Kick.wav
36,192,192541,128,0,193027:0:0:0:0:
329,192,192541,1,0,0:0:0:0:
256,192,192703,128,0,193027:0:0:0:50:Hihat.wav
475,192,192703,1,0,0:0:0:60:Clapsnare Instru.wav
109,192,192703,1,0,0:0:0:0:
109,192,193027,128,0,193190:0:0:0:50:Hihat.wav
475,192,193027,1,0,0:0:0:30:Click.wav
182,192,193027,1,0,0:0:0:0:
182,192,193190,128,0,193352:0:0:0:30:Click.wav
402,192,193190,1,0,0:0:0:0:
256,192,193190,1,0,0:0:0:0:
329,192,193352,128,0,193514:0:0:0:50:Hihat.wav
475,192,193352,1,0,0:0:0:30:Click.wav
109,192,193352,1,0,0:0:0:0:
475,192,193514,128,0,193676:0:0:0:30:Click.wav
36,192,193514,1,0,0:0:0:0:
182,192,193514,1,0,0:0:0:0:
109,192,193676,128,0,194649:0:0:0:50:Hihat.wav
402,192,193676,1,0,0:0:0:60:Additional Kick.wav
256,192,193676,1,0,0:0:0:0:
256,192,194000,1,0,0:0:0:50:Hihat.wav
36,192,194000,1,0,0:0:0:0:
475,192,194163,128,0,194325:0:0:0:0:
182,192,194163,1,0,0:0:0:0:
329,192,194325,128,0,194649:0:0:0:50:Hihat.wav
256,192,194325,1,0,0:0:0:30:Click.wav
36,192,194325,1,0,0:0:0:60:Additional Kick.wav
402,192,194487,1,0,0:0:0:0:
475,192,194649,128,0,195298:0:0:0:50:Hihat.wav
182,192,194649,1,0,0:0:0:60:Clapsnare Instru.wav
36,192,194649,1,0,0:0:0:0:
329,192,194973,1,0,0:0:0:50:Hihat.wav
109,192,194973,1,0,0:0:0:30:Click.wav
109,192,195136,1,0,0:0:0:30:Click.wav
256,192,195136,1,0,0:0:0:0:
182,192,195298,128,0,195622:0:0:0:50:Hihat.wav
402,192,195298,1,0,0:0:0:30:Click.wav
36,192,195298,1,0,0:0:0:0:
402,192,195460,1,0,0:0:0:30:Click.wav
256,192,195460,1,0,0:0:0:0:
329,192,195622,128,0,196595:0:0:0:50:Hihat.wav
109,192,195622,1,0,0:0:0:60:Additional Kick.wav
475,192,195622,1,0,0:0:0:0:
402,192,195946,1,0,0:0:0:50:Hihat.wav
109,192,195946,1,0,0:0:0:0:
256,192,196109,1,0,0:0:0:0:
182,192,196190,1,0,0:0:0:0:
109,192,196230,1,0,0:0:0:0:
36,192,196271,128,0,196433:0:0:0:60:Additional Kick.wav
475,192,196271,1,0,0:0:0:50:Hihat.wav
402,192,196433,1,0,0:0:0:0:
182,192,196433,128,0,197244:0:0:0:0:
36,192,196595,128,0,197244:0:0:0:50:Hihat.wav
256,192,196595,1,0,0:0:0:60:Clapsnare Instru.wav
475,192,196595,1,0,0:0:0:0:
402,192,196919,1,0,0:0:0:50:Hihat.wav
109,192,196919,1,0,0:0:0:30:Click.wav
402,192,197082,1,0,0:0:0:30:Click.wav
256,192,197082,1,0,0:0:0:0:
329,192,197244,128,0,197568:0:0:0:50:Hihat.wav
109,192,197244,1,0,0:0:0:30:Click.wav
475,192,197244,1,0,0:0:0:0:
109,192,197406,1,0,0:0:0:30:Click.wav
256,192,197406,1,0,0:0:0:0:
402,192,197568,128,0,198054:0:0:0:60:Additional Kick.wav
182,192,197568,128,0,197892:0:0:0:50:Hihat.wav
36,192,197568,1,0,0:0:0:90:Bell.wav
475,192,197568,1,0,0:0:0:0:
329,192,197892,1,0,0:0:0:50:Hihat.wav
36,192,197892,1,0,0:0:0:0:
182,192,198054,128,0,198217:0:0:0:0:
109,192,198054,1,0,0:0:0:0:
402,192,198217,128,0,198379:0:0:0:50:Hihat.wav
256,192,198217,1,0,0:0:0:30:Click.wav
329,192,198217,1,0,0:0:0:60:Additional Kick.wav
182,192,198379,128,0,198865:0:0:0:0:
36,192,198379,1,0,0:0:0:0:
402,192,198541,128,0,198865:0:0:0:50:Hihat.wav
329,192,198541,1,0,0:0:0:60:Clapsnare Instru.wav
475,192,198541,1,0,0:0:0:0:
36,192,198865,1,0,0:0:0:50:Hihat.wav
329,192,198865,128,0,198919:0:0:0:30:Click.wav
475,192,198865,128,0,198919:0:0:0:0:
256,192,199027,1,0,0:0:0:30:Click.wav
36,192,199027,1,0,0:0:0:0:
329,192,199190,1,0,0:0:0:50:Hihat.wav
109,192,199190,1,0,0:0:0:30:Click.wav
402,192,199190,1,0,0:0:0:0:
256,192,199352,1,0,0:0:0:30:Click.wav
109,192,199352,1,0,0:0:0:0:
475,192,199514,1,0,0:0:0:50:Hihat.wav
329,192,199514,128,0,199838:0:0:0:60:Additional Kick.wav
36,192,199514,128,0,200000:0:0:0:0:
402,192,199838,1,0,0:0:0:50:Hihat.wav
109,192,199838,1,0,0:0:0:0:
329,192,200000,128,0,200163:0:0:0:0:
256,192,200000,1,0,0:0:0:0:
36,192,200163,128,0,200325:0:0:0:50:Hihat.wav
109,192,200163,1,0,0:0:0:30:Click.wav
475,192,200163,1,0,0:0:0:60:Additional Kick.wav
329,192,200325,128,0,200811:0:0:0:0:
402,192,200325,1,0,0:0:0:0:
36,192,200487,128,0,200811:0:0:0:50:Hihat.wav
256,192,200487,1,0,0:0:0:60:Clapsnare Instru.wav
182,192,200487,1,0,0:0:0:0:
182,192,200811,128,0,200973:0:0:0:50:Hihat.wav
109,192,200811,1,0,0:0:0:30:Click.wav
402,192,200811,1,0,0:0:0:0:
402,192,200973,1,0,0:0:0:30:Click.wav
36,192,200973,1,0,0:0:0:0:
329,192,200973,128,0,201136:0:0:0:0:
475,192,201136,128,0,201298:0:0:0:50:Hihat.wav
256,192,201136,1,0,0:0:0:30:Click.wav
182,192,201136,1,0,0:0:0:0:
109,192,201298,128,0,201460:0:0:0:30:Click.wav
182,192,201298,1,0,0:0:0:0:
329,192,201298,1,0,0:0:0:0:
256,192,201460,128,0,202109:0:0:0:50:Hihat.wav
402,192,201460,1,0,0:0:0:60:Additional Kick.wav
36,192,201460,1,0,0:0:0:0:
329,192,201784,1,0,0:0:0:50:Hihat.wav
36,192,201784,1,0,0:0:0:0:
109,192,201946,1,0,0:0:0:0:
402,192,202109,128,0,202271:0:0:0:50:Hihat.wav
475,192,202109,1,0,0:0:0:30:Click.wav
182,192,202109,1,0,0:0:0:60:Additional Kick.wav
256,192,202271,128,0,202433:0:0:0:0:
329,192,202271,1,0,0:0:0:0:
109,192,202433,128,0,203082:0:0:0:50:Hihat.wav
182,192,202433,1,0,0:0:0:60:Clapsnare Instru.wav
36,192,202433,1,0,0:0:0:0:
182,192,202757,1,0,0:0:0:50:Hihat.wav
329,192,202757,1,0,0:0:0:30:Click.wav
182,192,202919,1,0,0:0:0:30:Click.wav
402,192,202919,1,0,0:0:0:0:
329,192,203082,128,0,203244:0:0:0:50:Hihat.wav
475,192,203082,1,0,0:0:0:30:Click.wav
256,192,203082,1,0,0:0:0:0:
182,192,203244,128,0,203406:0:0:0:30:Click.wav
475,192,203244,1,0,0:0:0:0:
109,192,203244,1,0,0:0:0:0:
36,192,203406,128,0,204054:0:0:0:50:Hihat.wav
402,192,203406,1,0,0:0:0:60:Additional Kick.wav
329,192,203406,1,0,0:0:0:0:
109,192,203730,1,0,0:0:0:50:Hihat.wav
475,192,203730,1,0,0:0:0:0:
402,192,203892,128,0,204054:0:0:0:0:
182,192,203892,1,0,0:0:0:0:
256,192,204054,128,0,204703:0:0:0:60:Additional Kick.wav
329,192,204054,1,0,0:0:0:50:Hihat.wav
109,192,204054,1,0,0:0:0:30:Click.wav
36,192,204379,128,0,205352:0:0:0:50:Hihat.wav
475,192,204379,1,0,0:0:0:60:Clapsnare Instru.wav
182,192,204379,1,0,0:0:0:0:
109,192,204541,1,0,0:0:0:0:
182,192,204703,128,0,204865:0:0:0:50:Hihat.wav
475,192,204703,1,0,0:0:0:0:
402,192,204703,1,0,0:0:0:0:
256,192,204865,128,0,205027:0:0:0:60:Clapsnare Instru.wav
475,192,204865,1,0,0:0:0:0:
402,192,204865,1,0,0:0:0:0:
329,192,205027,128,0,205190:0:0:0:60:Clapsnare Instru.wav
182,192,205027,1,0,0:0:0:50:Hihat.wav
109,192,205027,1,0,0:0:0:0:
402,192,205190,128,0,205352:0:0:0:60:Clapsnare Instru.wav
182,192,205190,1,0,0:0:0:0:
109,192,205190,1,0,0:0:0:0:
475,192,205352,128,0,205838:0:0:0:50:Hihat.wav
329,192,205352,1,0,0:0:0:60:Additional Kick.wav
256,192,205352,1,0,0:0:0:60:Bell.wav
109,192,205352,1,0,0:0:0:90:Bell.wav
182,192,205514,1,0,0:0:0:0:
109,192,205676,1,0,0:0:0:60:Bell.wav
256,192,205676,1,0,0:0:0:0:
329,192,205838,128,0,206000:0:0:0:0:
182,192,205838,1,0,0:0:0:0:
256,192,206000,128,0,206163:0:0:0:60:Bell.wav
402,192,206000,1,0,0:0:0:30:Click.wav
36,192,206000,1,0,0:0:0:60:Additional Kick.wav
182,192,206163,128,0,206325:0:0:0:0:
329,192,206163,1,0,0:0:0:0:
109,192,206325,128,0,206973:0:0:0:50:Clapsnare Instru.wav
256,192,206325,1,0,0:0:0:60:Bell.wav
475,192,206325,1,0,0:0:0:0:
182,192,206487,1,0,0:0:0:0:
475,192,206649,1,0,0:0:0:30:Click.wav
329,192,206649,1,0,0:0:0:60:Bell.wav
182,192,206811,1,0,0:0:0:30:Click.wav
329,192,206811,1,0,0:0:0:0:
36,192,206973,128,0,207298:0:0:0:30:Click.wav
402,192,206973,1,0,0:0:0:60:Bell.wav
256,192,206973,1,0,0:0:0:0:
475,192,207136,1,0,0:0:0:30:Click.wav
256,192,207136,1,0,0:0:0:0:
402,192,207298,128,0,207784:0:0:0:60:Additional Kick.wav
182,192,207298,1,0,0:0:0:60:Bell.wav
109,192,207298,1,0,0:0:0:0:
329,192,207460,1,0,0:0:0:0:
475,192,207622,1,0,0:0:0:60:Bell.wav
182,192,207622,1,0,0:0:0:0:
109,192,207784,128,0,207946:0:0:0:0:
329,192,207784,1,0,0:0:0:0:
182,192,207946,1,0,0:0:0:60:Bell.wav
402,192,207946,128,0,208109:0:0:0:30:Click.wav
475,192,207946,1,0,0:0:0:60:Additional Kick.wav
109,192,208109,128,0,208919:0:0:0:0:
329,192,208109,1,0,0:0:0:0:
475,192,208271,128,0,208919:0:0:0:50:Clapsnare Instru.wav
402,192,208271,1,0,0:0:0:60:Bell.wav
182,192,208271,1,0,0:0:0:0:
256,192,208433,1,0,0:0:0:0:
329,192,208595,1,0,0:0:0:30:Click.wav
36,192,208595,1,0,0:0:0:60:Bell.wav
402,192,208757,1,0,0:0:0:30:Click.wav
329,192,208757,1,0,0:0:0:0:
182,192,208919,1,0,0:0:0:30:Click.wav
256,192,208919,1,0,0:0:0:60:Bell.wav
36,192,208919,128,0,209244:0:0:0:0:
182,192,209082,1,0,0:0:0:30:Click.wav
402,192,209082,1,0,0:0:0:0:
329,192,209244,128,0,209730:0:0:0:60:Bell.wav
475,192,209244,1,0,0:0:0:60:Additional Kick.wav
109,192,209244,1,0,0:0:0:0:
256,192,209406,1,0,0:0:0:0:
182,192,209568,1,0,0:0:0:60:Bell.wav
402,192,209568,1,0,0:0:0:0:
109,192,209730,128,0,209892:0:0:0:0:
36,192,209730,1,0,0:0:0:0:
329,192,209892,128,0,210054:0:0:0:60:Bell.wav
256,192,209892,1,0,0:0:0:30:Click.wav
475,192,209892,1,0,0:0:0:60:Additional Kick.wav
109,192,210054,128,0,210865:0:0:0:0:
182,192,210054,1,0,0:0:0:0:
402,192,210217,128,0,210865:0:0:0:60:Bell.wav
329,192,210217,1,0,0:0:0:50:Clapsnare Instru.wav
475,192,210217,1,0,0:0:0:0:
182,192,210379,1,0,0:0:0:0:
256,192,210541,1,0,0:0:0:60:Bell.wav
36,192,210541,1,0,0:0:0:30:Click.wav
182,192,210703,1,0,0:0:0:30:Click.wav
36,192,210703,1,0,0:0:0:0:
475,192,210865,128,0,211190:0:0:0:60:Bell.wav
256,192,210865,1,0,0:0:0:30:Click.wav
329,192,210865,1,0,0:0:0:0:
256,192,211027,1,0,0:0:0:30:Click.wav
109,192,211027,1,0,0:0:0:0:
182,192,211190,128,0,211838:0:0:0:60:Additional Kick.wav
329,192,211190,1,0,0:0:0:60:Bell.wav
36,192,211190,1,0,0:0:0:0:
256,192,211352,1,0,0:0:0:0:
402,192,211514,1,0,0:0:0:60:Bell.wav
109,192,211514,1,0,0:0:0:0:
475,192,211676,128,0,211838:0:0:0:0:
36,192,211676,1,0,0:0:0:0:
329,192,211838,128,0,212000:0:0:0:60:Bell.wav
256,192,211838,1,0,0:0:0:60:Additional Kick.wav
402,192,211838,1,0,0:0:0:30:Click.wav
182,192,212000,128,0,212163:0:0:0:0:
109,192,212000,1,0,0:0:0:0:
36,192,212163,128,0,212649:0:0:0:50:Clapsnare Instru.wav
329,192,212163,1,0,0:0:0:60:Bell.wav
475,192,212163,1,0,0:0:0:0:
256,192,212325,1,0,0:0:0:0:
329,192,212487,1,0,0:0:0:30:Click.wav
475,192,212487,1,0,0:0:0:60:Bell.wav
182,192,212649,128,0,212811:0:0:0:30:Click.wav
256,192,212649,1,0,0:0:0:0:
475,192,212649,1,0,0:0:0:0:
329,192,212811,128,0,212973:0:0:0:30:Click.wav
109,192,212811,1,0,0:0:0:60:Bell.wav
402,192,212811,1,0,0:0:0:0:
182,192,212973,128,0,213136:0:0:0:30:Click.wav
109,192,212973,1,0,0:0:0:0:
475,192,212973,1,0,0:0:0:0:
402,192,213136,128,0,213622:0:0:0:60:Additional Kick.wav
329,192,213136,1,0,0:0:0:60:Bell.wav
36,192,213136,1,0,0:0:0:90:Bell.wav
256,192,213136,1,0,0:0:0:0:
109,192,213298,1,0,0:0:0:0:
256,192,213460,1,0,0:0:0:60:Bell.wav
475,192,213460,1,0,0:0:0:0:
329,192,213622,128,0,213784:0:0:0:0:
109,192,213622,1,0,0:0:0:0:
256,192,213784,128,0,213946:0:0:0:60:Bell.wav
36,192,213784,1,0,0:0:0:30:Click.wav
402,192,213784,1,0,0:0:0:60:Additional Kick.wav
182,192,213946,128,0,214109:0:0:0:0:
329,192,213946,1,0,0:0:0:0:
109,192,214109,128,0,214757:0:0:0:50:Clapsnare Instru.wav
475,192,214109,1,0,0:0:0:60:Bell.wav
256,192,214109,1,0,0:0:0:0:
329,192,214271,1,0,0:0:0:0:
402,192,214433,1,0,0:0:0:30:Click.wav
256,192,214433,1,0,0:0:0:60:Bell.wav
402,192,214595,1,0,0:0:0:30:Click.wav
182,192,214595,1,0,0:0:0:0:
256,192,214757,128,0,215082:0:0:0:30:Click.wav
36,192,214757,1,0,0:0:0:60:Bell.wav
329,192,214757,1,0,0:0:0:0:
36,192,214919,1,0,0:0:0:30:Click.wav
475,192,214919,1,0,0:0:0:0:
402,192,215082,128,0,215568:0:0:0:60:Additional Kick.wav
109,192,215082,1,0,0:0:0:60:Bell.wav
329,192,215082,1,0,0:0:0:0:
182,192,215244,1,0,0:0:0:0:
36,192,215406,1,0,0:0:0:60:Bell.wav
256,192,215406,1,0,0:0:0:0:
182,192,215568,128,0,215730:0:0:0:0:
109,192,215568,1,0,0:0:0:0:
402,192,215730,128,0,215892:0:0:0:60:Bell.wav
475,192,215730,1,0,0:0:0:30:Click.wav
256,192,215730,1,0,0:0:0:60:Additional Kick.wav
182,192,215892,128,0,216703:0:0:0:0:
36,192,215892,1,0,0:0:0:0:
475,192,216054,128,0,216703:0:0:0:50:Clapsnare Instru.wav
109,192,216054,1,0,0:0:0:60:Bell.wav
256,192,216054,1,0,0:0:0:0:
402,192,216054,1,0,0:0:0:0:
36,192,216217,1,0,0:0:0:0:
109,192,216379,1,0,0:0:0:30:Click.wav
256,192,216379,1,0,0:0:0:60:Bell.wav
109,192,216541,1,0,0:0:0:30:Click.wav
329,192,216541,1,0,0:0:0:0:
36,192,216703,128,0,217027:0:0:0:30:Click.wav
256,192,216703,1,0,0:0:0:60:Bell.wav
402,192,216703,1,0,0:0:0:0:
256,192,216865,1,0,0:0:0:30:Click.wav
475,192,216865,1,0,0:0:0:0:
329,192,217027,128,0,217514:0:0:0:60:Bell.wav
109,192,217027,1,0,0:0:0:60:Additional Kick.wav
182,192,217027,128,0,217352:0:0:0:0:
402,192,217190,1,0,0:0:0:0:
36,192,217352,1,0,0:0:0:60:Bell.wav
475,192,217352,1,0,0:0:0:0:
182,192,217514,128,0,217676:0:0:0:0:
256,192,217514,1,0,0:0:0:0:
329,192,217676,128,0,217838:0:0:0:60:Bell.wav
109,192,217676,1,0,0:0:0:30:Click.wav
402,192,217676,1,0,0:0:0:0:
182,192,217838,128,0,218325:0:0:0:0:
475,192,217838,1,0,0:0:0:0:
402,192,218000,128,0,218325:0:0:0:60:Bell.wav
36,192,218000,1,0,0:0:0:50:Clapsnare Instru.wav
329,192,218000,1,0,0:0:0:0:
109,192,218163,1,0,0:0:0:0:
256,192,218325,128,0,218973:0:0:0:50:Clapsnare Instru.wav
36,192,218325,1,0,0:0:0:60:Bell.wav
475,192,218325,1,0,0:0:0:0:
329,192,218487,1,0,0:0:0:30:Clapsnare Instru.wav
36,192,218487,1,0,0:0:0:0:
475,192,218649,128,0,218973:0:0:0:50:Clapsnare Instru.wav
182,192,218649,1,0,0:0:0:60:Bell.wav
402,192,218649,1,0,0:0:0:0:
109,192,218811,1,0,0:0:0:30:Clapsnare Instru.wav
402,192,218811,1,0,0:0:0:0:
36,192,218973,128,0,220595:0:0:0:60:Additional Kick.wav
329,192,218973,1,0,0:0:0:50:Clapsnare Instru.wav
182,192,218973,1,0,0:0:0:0:
402,192,219298,1,0,0:0:0:60:Additional Kick.wav
182,192,219298,1,0,0:0:0:50:Clapsnare Instru.wav
109,192,219298,1,0,0:0:0:0:
475,192,219622,1,0,0:0:0:50:Clapsnare Instru.wav
256,192,219622,1,0,0:0:0:60:Additional Kick.wav
182,192,219622,1,0,0:0:0:0:
329,192,219784,1,0,0:0:0:0:
402,192,219838,1,0,0:0:0:0:
329,192,219892,1,0,0:0:0:0:
109,192,219946,128,0,220433:0:0:0:60:Additional Kick.wav
182,192,219946,1,0,0:0:0:50:Clapsnare Instru.wav
256,192,219946,1,0,0:0:0:0:
402,192,220109,1,0,0:0:0:30:Clapsnare Instru.wav
182,192,220109,1,0,0:0:0:0:
329,192,220271,1,0,0:0:0:50:Clapsnare Instru.wav
475,192,220271,1,0,0:0:0:60:Additional Kick.wav
256,192,220271,1,0,0:0:0:0:
475,192,220433,128,0,220919:0:0:0:30:Clapsnare Instru.wav
182,192,220433,1,0,0:0:0:0:
402,192,220595,128,0,220919:0:0:0:60:Additional Kick.wav
329,192,220595,1,0,0:0:0:50:Clapsnare Instru.wav
256,192,220595,1,0,0:0:0:0:
109,192,220595,1,0,0:0:0:0:
182,192,220757,1,0,0:0:0:30:Clapsnare Instru.wav
109,192,220757,1,0,0:0:0:0:
36,192,220919,1,0,0:0:0:60:Additional Kick.wav
182,192,220919,1,0,0:0:0:90:Bell.wav
329,192,220919,1,0,0:0:0:0:
256,192,220919,1,0,0:0:0:0:
109,192,221082,1,0,0:0:0:0:
402,192,221244,1,0,0:0:0:0:
109,192,221406,1,0,0:0:0:0:
402,192,221568,1,0,0:0:0:0:
109,192,221730,1,0,0:0:0:0:
182,192,221892,1,0,0:0:0:60:Additional Kick.wav
36,192,221892,1,0,0:0:0:0:
475,192,221892,1,0,0:0:0:0:
402,192,222054,1,0,0:0:0:0:
182,192,222217,1,0,0:0:0:0:
402,192,222379,1,0,0:0:0:0:
182,192,222541,1,0,0:0:0:0:
402,192,222703,1,0,0:0:0:0:
256,192,222865,1,0,0:0:0:60:Additional Kick.wav
36,192,222865,1,0,0:0:0:0:
475,192,222865,1,0,0:0:0:0:
109,192,223027,1,0,0:0:0:0:
475,192,223190,1,0,0:0:0:0:
109,192,223352,1,0,0:0:0:0:
475,192,223514,1,0,0:0:0:0:
109,192,223676,1,0,0:0:0:0:
402,192,223838,1,0,0:0:0:60:Additional Kick.wav
329,192,223838,1,0,0:0:0:0:
36,192,223838,1,0,0:0:0:0:
182,192,224000,1,0,0:0:0:0:
329,192,224163,1,0,0:0:0:60:Additional Kick.wav
109,192,224163,1,0,0:0:0:0:
475,192,224163,1,0,0:0:0:0:
256,192,224325,1,0,0:0:0:0:
109,192,224487,1,0,0:0:0:60:Additional Kick.wav
402,192,224487,1,0,0:0:0:0:
36,192,224487,1,0,0:0:0:0:
329,192,224649,1,0,0:0:0:0:
256,192,224811,1,0,0:0:0:60:Additional Kick.wav
182,192,224811,1,0,0:0:0:90:Bell.wav
475,192,224811,1,0,0:0:0:0:
36,192,224811,1,0,0:0:0:0:
109,192,224973,1,0,0:0:0:0:
256,192,225136,1,0,0:0:0:0:
109,192,225298,1,0,0:0:0:0:
256,192,225460,1,0,0:0:0:0:
109,192,225622,1,0,0:0:0:0:
36,192,225784,1,0,0:0:0:60:Additional Kick.wav
256,192,225784,1,0,0:0:0:0:
402,192,225784,1,0,0:0:0:0:
182,192,225946,1,0,0:0:0:0:
329,192,226109,1,0,0:0:0:0:
182,192,226271,1,0,0:0:0:0:
329,192,226433,1,0,0:0:0:0:
182,192,226595,1,0,0:0:0:0:
475,192,226757,1,0,0:0:0:60:Additional Kick.wav
36,192,226757,1,0,0:0:0:0:
256,192,226757,1,0,0:0:0:0:
402,192,226919,1,0,0:0:0:0:
182,192,227082,1,0,0:0:0:0:
402,192,227244,1,0,0:0:0:0:
182,192,227406,1,0,0:0:0:0:
402,192,227568,1,0,0:0:0:0:
36,192,227730,1,0,0:0:0:60:Additional Kick.wav
256,192,227730,1,0,0:0:0:0:
329,192,227730,1,0,0:0:0:0:
182,192,227892,1,0,0:0:0:0:
475,192,228054,1,0,0:0:0:60:Additional Kick.wav
109,192,228054,1,0,0:0:0:0:
402,192,228054,1,0,0:0:0:0:
329,192,228217,1,0,0:0:0:0:
256,192,228379,1,0,0:0:0:60:Additional Kick.wav
109,192,228379,1,0,0:0:0:0:
402,192,228379,1,0,0:0:0:0:
182,192,228541,1,0,0:0:0:0:
36,192,228703,1,0,0:0:0:90:Bell.wav
109,192,228703,1,0,0:0:0:60:Additional Kick.wav
475,192,228703,1,0,0:0:0:0:
329,192,228703,128,0,229352:0:0:0:0:
256,192,228865,1,0,0:0:0:0:
182,192,229027,1,0,0:0:0:0:
402,192,229190,1,0,0:0:0:0:
109,192,229352,1,0,0:0:0:0:
256,192,229352,1,0,0:0:0:0:
182,192,229514,1,0,0:0:0:0:
109,192,229676,128,0,231622:0:0:0:60:Additional Kick.wav
402,192,229676,1,0,0:0:0:0:
475,192,229676,1,0,0:0:0:0:
256,192,229838,1,0,0:0:0:0:
182,192,230000,1,0,0:0:0:0:
475,192,230163,1,0,0:0:0:0:
329,192,230325,1,0,0:0:0:0:
182,192,230487,1,0,0:0:0:0:
36,192,230649,1,0,0:0:0:60:Additional Kick.wav
402,192,230649,1,0,0:0:0:0:
256,192,230649,1,0,0:0:0:0:
182,192,230811,1,0,0:0:0:0:
329,192,230973,1,0,0:0:0:0:
256,192,231136,1,0,0:0:0:0:
402,192,231298,1,0,0:0:0:0:
256,192,231460,1,0,0:0:0:0:
475,192,231622,1,0,0:0:0:60:Additional Kick.wav
36,192,231622,1,0,0:0:0:0:
329,192,231622,128,0,231946:0:0:0:0:
182,192,231784,1,0,0:0:0:0:
256,192,231946,1,0,0:0:0:60:Additional Kick.wav
36,192,231946,1,0,0:0:0:0:
109,192,231946,1,0,0:0:0:0:
475,192,232000,1,0,0:0:0:0:
402,192,232054,1,0,0:0:0:0:
329,192,232109,128,0,232271:0:0:0:0:
36,192,232271,128,0,232595:0:0:0:60:Additional Kick.wav
182,192,232271,1,0,0:0:0:0:
109,192,232271,1,0,0:0:0:0:
256,192,232433,1,0,0:0:0:0:
475,192,232595,1,0,0:0:0:60:Additional Kick.wav
109,192,232595,1,0,0:0:0:90:Bell.wav
402,192,232595,128,0,234865:0:0:0:0:
182,192,232595,1,0,0:0:0:0:
256,192,232757,1,0,0:0:0:0:
182,192,232919,1,0,0:0:0:0:
109,192,233082,1,0,0:0:0:0:
256,192,233244,1,0,0:0:0:0:
36,192,233406,1,0,0:0:0:0:
109,192,233568,1,0,0:0:0:60:Additional Kick.wav
329,192,233568,1,0,0:0:0:0:
475,192,233568,1,0,0:0:0:0:
182,192,233730,1,0,0:0:0:0:
256,192,233892,1,0,0:0:0:0:
36,192,234054,1,0,0:0:0:0:
182,192,234217,1,0,0:0:0:0:
329,192,234379,1,0,0:0:0:0:
475,192,234541,1,0,0:0:0:60:Additional Kick.wav
256,192,234541,1,0,0:0:0:0:
109,192,234541,1,0,0:0:0:0:
182,192,234703,1,0,0:0:0:0:
36,192,234865,1,0,0:0:0:0:
329,192,235027,1,0,0:0:0:0:
182,192,235190,1,0,0:0:0:0:
256,192,235352,1,0,0:0:0:0:
475,192,235514,1,0,0:0:0:60:Additional Kick.wav
402,192,235514,1,0,0:0:0:0:
109,192,235514,1,0,0:0:0:0:
182,192,235676,1,0,0:0:0:0:
329,192,235838,1,0,0:0:0:60:Additional Kick.wav
256,192,235838,1,0,0:0:0:0:
36,192,235838,1,0,0:0:0:0:
402,192,236000,1,0,0:0:0:0:
475,192,236163,1,0,0:0:0:60:Additional Kick.wav
109,192,236163,1,0,0:0:0:0:
182,192,236163,128,0,236487:0:0:0:0:
256,192,236325,1,0,0:0:0:0:
402,192,236487,1,0,0:0:0:60:Additional Kick.wav
109,192,236487,1,0,0:0:0:90:Bell.wav
36,192,236487,1,0,0:0:0:0:
329,192,236487,128,0,240054:0:0:0:0:
182,192,236649,1,0,0:0:0:0:
109,192,236811,1,0,0:0:0:0:
475,192,236973,1,0,0:0:0:0:
256,192,237136,1,0,0:0:0:0:
109,192,237298,1,0,0:0:0:0:
36,192,237460,1,0,0:0:0:60:Additional Kick.wav
402,192,237460,1,0,0:0:0:0:
475,192,237460,1,0,0:0:0:0:
182,192,237622,1,0,0:0:0:0:
402,192,237784,1,0,0:0:0:0:
109,192,237946,1,0,0:0:0:0:
256,192,238109,1,0,0:0:0:0:
402,192,238271,1,0,0:0:0:0:
475,192,238433,1,0,0:0:0:60:Additional Kick.wav
182,192,238433,1,0,0:0:0:0:
36,192,238433,1,0,0:0:0:0:
256,192,238595,1,0,0:0:0:0:
109,192,238757,1,0,0:0:0:0:
402,192,238919,1,0,0:0:0:0:
256,192,239082,1,0,0:0:0:0:
182,192,239244,1,0,0:0:0:0:
109,192,239406,1,0,0:0:0:60:Additional Kick.wav
36,192,239406,1,0,0:0:0:0:
475,192,239406,1,0,0:0:0:0:
256,192,239568,1,0,0:0:0:0:
109,192,239730,1,0,0:0:0:60:Additional Kick.wav
402,192,239730,1,0,0:0:0:0:
475,192,239730,1,0,0:0:0:0:
182,192,239892,1,0,0:0:0:0:
36,192,240054,128,0,243298:0:0:0:60:Additional Kick.wav
109,192,240054,1,0,0:0:0:0:
256,192,240054,1,0,0:0:0:0:
329,192,240217,1,0,0:0:0:0:
182,192,240379,128,0,243298:0:0:0:90:Bell.wav
402,192,240379,1,0,0:0:0:60:Additional Kick.wav
256,192,240379,1,0,0:0:0:0:
109,192,240379,1,0,0:0:0:0:
329,192,240541,1,0,0:0:0:0:
256,192,240703,1,0,0:0:0:0:
475,192,240865,1,0,0:0:0:0:
402,192,241027,1,0,0:0:0:0:
329,192,241190,1,0,0:0:0:0:
256,192,241352,1,0,0:0:0:60:Additional Kick.wav
109,192,241352,1,0,0:0:0:0:
475,192,241352,1,0,0:0:0:0:
329,192,241514,1,0,0:0:0:0:
402,192,241676,1,0,0:0:0:0:
109,192,241838,1,0,0:0:0:0:
256,192,242000,1,0,0:0:0:0:
329,192,242163,1,0,0:0:0:0:
402,192,242325,1,0,0:0:0:60:Additional Kick.wav
475,192,242325,1,0,0:0:0:0:
109,192,242325,1,0,0:0:0:0:
329,192,242487,1,0,0:0:0:0:
256,192,242649,1,0,0:0:0:0:
402,192,242811,1,0,0:0:0:0:
329,192,242973,1,0,0:0:0:0:
256,192,243136,1,0,0:0:0:0:
109,192,243298,1,0,0:0:0:60:Additional Kick.wav
402,192,243298,1,0,0:0:0:0:
475,192,243298,1,0,0:0:0:0:
256,192,243460,1,0,0:0:0:0:
182,192,243622,1,0,0:0:0:60:Additional Kick.wav
109,192,243622,1,0,0:0:0:0:
329,192,243622,1,0,0:0:0:0:
402,192,243784,1,0,0:0:0:0:
475,192,243946,1,0,0:0:0:60:Additional Kick.wav
256,192,243946,1,0,0:0:0:0:
36,192,243946,1,0,0:0:0:0:
182,192,244109,1,0,0:0:0:0:
36,192,244271,1,0,0:0:0:90:Bell.wav
402,192,244271,1,0,0:0:0:60:Additional Kick.wav
109,192,244271,128,0,244919:0:0:0:0:
329,192,244271,128,0,244379:0:0:0:0:
182,192,244433,1,0,0:0:0:0:
402,192,244595,128,0,244703:0:0:0:0:
329,192,244595,1,0,0:0:0:0:
256,192,244757,128,0,244865:0:0:0:0:
182,192,244757,1,0,0:0:0:0:
36,192,244919,1,0,0:0:0:0:
402,192,244919,128,0,245027:0:0:0:0:
182,192,245082,1,0,0:0:0:0:
36,192,245244,128,0,247190:0:0:0:60:Additional Kick.wav
109,192,245244,1,0,0:0:0:0:
329,192,245244,128,0,245352:0:0:0:0:
475,192,245406,1,0,0:0:0:0:
402,192,245568,128,0,245676:0:0:0:0:
329,192,245568,1,0,0:0:0:0:
182,192,245730,128,0,245838:0:0:0:0:
256,192,245730,1,0,0:0:0:0:
402,192,245892,128,0,246000:0:0:0:0:
329,192,245892,1,0,0:0:0:0:
182,192,246054,1,0,0:0:0:0:
256,192,246217,128,0,246325:0:0:0:60:Additional Kick.wav
475,192,246217,1,0,0:0:0:0:
109,192,246217,1,0,0:0:0:0:
329,192,246379,1,0,0:0:0:0:
402,192,246541,128,0,246649:0:0:0:0:
256,192,246541,1,0,0:0:0:0:
182,192,246703,1,0,0:0:0:0:
329,192,246865,1,0,0:0:0:0:
475,192,247027,128,0,247136:0:0:0:0:
109,192,247027,1,0,0:0:0:0:
182,192,247190,128,0,247298:0:0:0:60:Additional Kick.wav
402,192,247190,128,0,247514:0:0:0:0:
256,192,247190,1,0,0:0:0:0:
36,192,247352,1,0,0:0:0:0:
182,192,247514,1,0,0:0:0:60:Additional Kick.wav
475,192,247514,128,0,247622:0:0:0:0:
256,192,247568,1,0,0:0:0:0:
329,192,247622,128,0,248163:0:0:0:0:
36,192,247676,1,0,0:0:0:0:
182,192,247838,128,0,248163:0:0:0:60:Additional Kick.wav
402,192,247838,128,0,247946:0:0:0:0:
109,192,247838,1,0,0:0:0:0:
36,192,248000,1,0,0:0:0:0:
109,192,248163,1,0,0:0:0:60:Additional Kick.wav
475,192,248163,1,0,0:0:0:90:Bell.wav
402,192,248163,128,0,250595:0:0:0:0:
256,192,248163,128,0,248271:0:0:0:0:
36,192,248325,1,0,0:0:0:0:
109,192,248487,128,0,248595:0:0:0:0:
256,192,248487,1,0,0:0:0:0:
329,192,248649,128,0,248757:0:0:0:0:
182,192,248649,1,0,0:0:0:0:
109,192,248811,128,0,248919:0:0:0:0:
256,192,248811,1,0,0:0:0:0:
182,192,248973,1,0,0:0:0:0:
329,192,249136,128,0,249244:0:0:0:60:Additional Kick.wav
475,192,249136,1,0,0:0:0:0:
36,192,249136,1,0,0:0:0:0:
109,192,249298,1,0,0:0:0:0:
256,192,249460,128,0,249568:0:0:0:0:
182,192,249460,1,0,0:0:0:0:
109,192,249622,128,0,249730:0:0:0:0:
329,192,249622,1,0,0:0:0:0:
256,192,249784,128,0,249892:0:0:0:0:
182,192,249784,1,0,0:0:0:0:
475,192,249946,1,0,0:0:0:0:
182,192,250109,128,0,250217:0:0:0:60:Additional Kick.wav
329,192,250109,1,0,0:0:0:0:
36,192,250109,1,0,0:0:0:0:
109,192,250271,1,0,0:0:0:0:
329,192,250433,128,0,250541:0:0:0:0:
256,192,250433,1,0,0:0:0:0:
182,192,250595,1,0,0:0:0:0:
109,192,250757,1,0,0:0:0:0:
402,192,250919,128,0,251027:0:0:0:0:
182,192,250919,1,0,0:0:0:0:
256,192,251082,128,0,251190:0:0:0:60:Additional Kick.wav
109,192,251082,1,0,0:0:0:0:
36,192,251082,1,0,0:0:0:0:
329,192,251244,1,0,0:0:0:0:
182,192,251406,128,0,251514:0:0:0:60:Additional Kick.wav
256,192,251406,1,0,0:0:0:0:
475,192,251406,1,0,0:0:0:0:
329,192,251568,1,0,0:0:0:0:
402,192,251730,1,0,0:0:0:60:Additional Kick.wav
109,192,251730,128,0,251838:0:0:0:0:
36,192,251730,128,0,252054:0:0:0:0:
182,192,251892,1,0,0:0:0:0:
256,192,252054,128,0,254649:0:0:0:0:
109,192,252054,1,0,0:0:0:60:Additional Kick.wav
402,192,252054,128,0,252163:0:0:0:90:Bell.wav
329,192,252054,1,0,0:0:0:0:
182,192,252217,1,0,0:0:0:0:
475,192,252379,128,0,252487:0:0:0:0:
329,192,252379,1,0,0:0:0:0:
109,192,252541,128,0,252649:0:0:0:0:
182,192,252541,1,0,0:0:0:0:
475,192,252703,128,0,252811:0:0:0:0:
329,192,252703,1,0,0:0:0:0:
182,192,252865,1,0,0:0:0:0:
109,192,253027,1,0,0:0:0:60:Additional Kick.wav
402,192,253027,1,0,0:0:0:0:
36,192,253027,128,0,253136:0:0:0:0:
329,192,253190,1,0,0:0:0:0:
402,192,253352,128,0,253460:0:0:0:0:
36,192,253352,1,0,0:0:0:0:
182,192,253514,128,0,253622:0:0:0:0:
329,192,253514,1,0,0:0:0:0:
402,192,253676,128,0,253784:0:0:0:0:
36,192,253676,1,0,0:0:0:0:
475,192,253838,1,0,0:0:0:0:
36,192,254000,1,0,0:0:0:60:Additional Kick.wav
109,192,254000,1,0,0:0:0:0:
329,192,254000,128,0,254109:0:0:0:0:
182,192,254163,1,0,0:0:0:0:
402,192,254325,128,0,254433:0:0:0:0:
329,192,254325,1,0,0:0:0:0:
109,192,254487,1,0,0:0:0:0:
329,192,254649,1,0,0:0:0:0:
36,192,254811,128,0,254919:0:0:0:0:
109,192,254811,1,0,0:0:0:0:
475,192,254973,128,0,255082:0:0:0:60:Additional Kick.wav
402,192,254973,1,0,0:0:0:0:
256,192,254973,128,0,255622:0:0:0:0:
109,192,255136,1,0,0:0:0:0:
402,192,255298,128,0,255406:0:0:0:60:Additional Kick.wav
182,192,255298,1,0,0:0:0:0:
475,192,255298,1,0,0:0:0:0:
109,192,255460,1,0,0:0:0:0:
329,192,255622,128,0,255730:0:0:0:60:Additional Kick.wav
36,192,255622,1,0,0:0:0:0:
182,192,255622,128,0,258865:0:0:0:0:
256,192,255784,1,0,0:0:0:0:
329,192,255946,128,0,258865:0:0:0:90:Bell.wav
475,192,255946,128,0,256054:0:0:0:60:Additional Kick.wav
109,192,255946,1,0,0:0:0:0:
36,192,255946,1,0,0:0:0:0:
256,192,256109,1,0,0:0:0:0:
402,192,256271,1,0,0:0:0:0:
109,192,256433,1,0,0:0:0:0:
256,192,256595,1,0,0:0:0:0:
402,192,256757,1,0,0:0:0:0:
475,192,256919,1,0,0:0:0:60:Additional Kick.wav
36,192,256919,128,0,257027:0:0:0:0:
109,192,256919,1,0,0:0:0:0:
402,192,257082,1,0,0:0:0:0:
256,192,257244,1,0,0:0:0:0:
402,192,257406,128,0,257514:0:0:0:0:
36,192,257406,1,0,0:0:0:0:
256,192,257568,128,0,257676:0:0:0:0:
109,192,257568,1,0,0:0:0:0:
36,192,257730,1,0,0:0:0:0:
475,192,257892,1,0,0:0:0:60:Additional Kick.wav
109,192,257892,128,0,258000:0:0:0:0:
402,192,257892,1,0,0:0:0:0:
256,192,258054,1,0,0:0:0:0:
475,192,258217,1,0,0:0:0:0:
402,192,258379,1,0,0:0:0:0:
256,192,258541,1,0,0:0:0:0:
109,192,258703,1,0,0:0:0:0:
36,192,258865,1,0,0:0:0:60:Additional Kick.wav
256,192,258865,1,0,0:0:0:50:Clapsnare Instru.wav
402,192,258865,1,0,0:0:0:0:
109,192,259027,1,0,0:0:0:0:
329,192,259190,1,0,0:0:0:60:Additional Kick.wav
182,192,259190,1,0,0:0:0:0:
475,192,259352,1,0,0:0:0:50:Clapsnare Instru.wav
256,192,259352,1,0,0:0:0:0:
36,192,259352,1,0,0:0:0:0:
475,192,259514,1,0,0:0:0:60:Additional Kick.wav
182,192,259514,128,0,259568:0:0:0:0:
36,192,259838,128,0,260811:0:0:0:60:Additional Kick.wav
182,192,259838,128,0,260487:0:0:0:90:Bell.wav
475,192,259838,1,0,0:0:0:0:
329,192,259838,1,0,0:0:0:0:
402,192,260000,1,0,0:0:0:0:
329,192,260163,1,0,0:0:0:0:
256,192,260325,1,0,0:0:0:0:
109,192,260487,1,0,0:0:0:60:Additional Kick.wav
402,192,260487,128,0,260541:0:0:0:0:
329,192,260649,1,0,0:0:0:0:
109,192,260811,128,0,261784:0:0:0:50:Clapsnare Instru.wav
402,192,260811,128,0,261460:0:0:0:0:
256,192,260865,1,0,0:0:0:0:
329,192,260973,1,0,0:0:0:0:
256,192,261136,1,0,0:0:0:0:
182,192,261298,1,0,0:0:0:0:
475,192,261460,128,0,261784:0:0:0:60:Additional Kick.wav
36,192,261460,1,0,0:0:0:0:
256,192,261622,1,0,0:0:0:0:
182,192,261784,128,0,262757:0:0:0:60:Additional Kick.wav
329,192,261784,128,0,262217:0:0:0:0:
402,192,261784,1,0,0:0:0:0:
36,192,261946,1,0,0:0:0:0:
256,192,262109,1,0,0:0:0:0:
402,192,262217,1,0,0:0:0:0:
109,192,262271,1,0,0:0:0:0:
475,192,262271,128,0,262433:0:0:0:0:
36,192,262433,1,0,0:0:0:0:
329,192,262433,128,0,262757:0:0:0:60:Additional Kick.wav
109,192,262595,1,0,0:0:0:0:
256,192,262757,128,0,263730:0:0:0:50:Clapsnare Instru.wav
36,192,262757,128,0,263406:0:0:0:0:
475,192,262757,1,0,0:0:0:0:
329,192,262919,1,0,0:0:0:0:
402,192,263082,1,0,0:0:0:60:Additional Kick.wav
109,192,263082,1,0,0:0:0:0:
475,192,263244,1,0,0:0:0:0:
182,192,263406,128,0,263460:0:0:0:60:Additional Kick.wav
329,192,263406,1,0,0:0:0:0:
402,192,263568,1,0,0:0:0:0:
475,192,263730,128,0,264703:0:0:0:90:Bell.wav
329,192,263730,128,0,264379:0:0:0:60:Additional Kick.wav
36,192,263730,1,0,0:0:0:0:
182,192,263730,1,0,0:0:0:0:
182,192,263892,1,0,0:0:0:0:
109,192,264054,1,0,0:0:0:0:
256,192,264217,1,0,0:0:0:0:
182,192,264379,1,0,0:0:0:60:Additional Kick.wav
109,192,264379,128,0,264433:0:0:0:0:
256,192,264541,1,0,0:0:0:0:
109,192,264703,128,0,265352:0:0:0:50:Clapsnare Instru.wav
36,192,264703,1,0,0:0:0:0:
329,192,264703,1,0,0:0:0:0:
402,192,264757,128,0,265676:0:0:0:0:
182,192,264865,1,0,0:0:0:0:
329,192,265027,1,0,0:0:0:0:
475,192,265190,1,0,0:0:0:0:
182,192,265352,128,0,265676:0:0:0:60:Additional Kick.wav
329,192,265352,1,0,0:0:0:0:
36,192,265514,1,0,0:0:0:0:
109,192,265676,1,0,0:0:0:60:Additional Kick.wav
475,192,265676,1,0,0:0:0:0:
256,192,265676,1,0,0:0:0:0:
36,192,265730,128,0,266325:0:0:0:0:
329,192,265730,128,0,266649:0:0:0:0:
182,192,265838,1,0,0:0:0:0:
402,192,266000,1,0,0:0:0:0:
256,192,266163,1,0,0:0:0:0:
182,192,266325,128,0,266649:0:0:0:60:Additional Kick.wav
475,192,266325,1,0,0:0:0:0:
109,192,266487,1,0,0:0:0:0:
256,192,266649,128,0,266973:0:0:0:50:Clapsnare Instru.wav
402,192,266649,128,0,266973:0:0:0:0:
36,192,266649,1,0,0:0:0:0:
109,192,266811,1,0,0:0:0:0:
182,192,266973,1,0,0:0:0:60:Additional Kick.wav
329,192,266973,1,0,0:0:0:0:
475,192,267136,1,0,0:0:0:0:
402,192,267298,1,0,0:0:0:60:Additional Kick.wav
36,192,267298,1,0,0:0:0:0:
109,192,267460,1,0,0:0:0:0:
36,192,267622,128,0,268595:0:0:0:90:Bell.wav
182,192,267622,128,0,268271:0:0:0:60:Additional Kick.wav
475,192,267622,1,0,0:0:0:0:
329,192,267622,1,0,0:0:0:0:
402,192,267784,1,0,0:0:0:0:
329,192,267946,1,0,0:0:0:0:
256,192,268109,1,0,0:0:0:0:
109,192,268271,1,0,0:0:0:60:Additional Kick.wav
402,192,268271,128,0,268325:0:0:0:0:
329,192,268433,1,0,0:0:0:0:
109,192,268595,128,0,269568:0:0:0:50:Clapsnare Instru.wav
256,192,268595,1,0,0:0:0:0:
402,192,268595,1,0,0:0:0:0:
329,192,268649,128,0,269244:0:0:0:0:
475,192,268757,1,0,0:0:0:0:
256,192,268919,1,0,0:0:0:0:
182,192,269082,1,0,0:0:0:0:
475,192,269244,128,0,269568:0:0:0:60:Additional Kick.wav
36,192,269244,1,0,0:0:0:0:
256,192,269406,1,0,0:0:0:0:
182,192,269568,128,0,270541:0:0:0:60:Additional Kick.wav
402,192,269568,128,0,270054:0:0:0:0:
329,192,269568,1,0,0:0:0:0:
36,192,269730,1,0,0:0:0:0:
256,192,269892,1,0,0:0:0:0:
475,192,270054,128,0,270217:0:0:0:0:
329,192,270217,128,0,270541:0:0:0:60:Additional Kick.wav
36,192,270217,1,0,0:0:0:0:
475,192,270379,1,0,0:0:0:0:
256,192,270541,128,0,271514:0:0:0:50:Clapsnare Instru.wav
36,192,270541,128,0,271190:0:0:0:0:
109,192,270541,1,0,0:0:0:0:
329,192,270703,1,0,0:0:0:0:
402,192,270865,1,0,0:0:0:60:Additional Kick.wav
109,192,270865,1,0,0:0:0:0:
475,192,271027,1,0,0:0:0:0:
329,192,271190,1,0,0:0:0:60:Additional Kick.wav
182,192,271190,128,0,271244:0:0:0:0:
402,192,271352,1,0,0:0:0:0:
475,192,271514,128,0,272487:0:0:0:90:Bell.wav
329,192,271514,128,0,272163:0:0:0:60:Additional Kick.wav
36,192,271514,1,0,0:0:0:0:
182,192,271514,1,0,0:0:0:0:
109,192,271676,1,0,0:0:0:0:
182,192,271838,1,0,0:0:0:0:
256,192,272000,1,0,0:0:0:0:
109,192,272163,1,0,0:0:0:60:Additional Kick.wav
182,192,272163,1,0,0:0:0:0:
256,192,272325,1,0,0:0:0:0:
109,192,272487,128,0,273136:0:0:0:50:Clapsnare Instru.wav
329,192,272487,1,0,0:0:0:0:
36,192,272487,1,0,0:0:0:0:
402,192,272541,128,0,273460:0:0:0:0:
256,192,272649,1,0,0:0:0:0:
329,192,272811,1,0,0:0:0:0:
256,192,272973,1,0,0:0:0:0:
182,192,273136,128,0,273460:0:0:0:60:Additional Kick.wav
329,192,273136,1,0,0:0:0:0:
36,192,273298,1,0,0:0:0:0:
475,192,273460,1,0,0:0:0:90:Bell.wav
329,192,273460,128,0,274433:0:0:0:50:Clapsnare Instru.wav
109,192,273460,128,0,274433:0:0:0:0:
256,192,273460,1,0,0:0:0:0:
182,192,273622,1,0,0:0:0:0:
402,192,273784,1,0,0:0:0:0:
256,192,273946,1,0,0:0:0:0:
475,192,274109,1,0,0:0:0:60:Additional Kick.wav
182,192,274109,1,0,0:0:0:0:
36,192,274271,1,0,0:0:0:0:
182,192,274352,1,8,3:0:0:40:
256,192,274392,1,8,3:0:0:40:
36,192,274433,1,0,0:0:0:50:Clapsnare Instru.wav
402,192,274433,1,8,3:0:0:40:
475,192,274433,1,0,0:0:0:0:
329,192,274595,1,8,3:0:0:40:
109,192,274595,1,0,0:0:0:0:
402,192,274757,128,0,274919:0:0:0:60:Additional Kick.wav
36,192,274757,1,0,0:0:0:0:
182,192,274757,1,0,0:0:0:0:
256,192,274919,1,8,3:0:0:40:
109,192,274919,1,0,0:0:0:0:
475,192,275082,1,0,0:0:0:60:Additional Kick.wav
36,192,275082,1,0,0:0:0:0:
182,192,275082,1,0,0:0:0:0:
402,192,275082,128,0,275406:0:0:0:0:
109,192,275244,1,8,3:0:0:40:
256,192,275244,1,0,0:0:0:0:
475,192,275406,1,0,0:0:0:60:Additional Kick.wav
329,192,275406,128,0,276379:0:0:0:90:Bell.wav
182,192,275406,128,0,276703:0:0:0:50:Clapsnare Instru.wav
36,192,275406,128,0,277027:0:0:0:0:
402,192,276379,128,0,277352:0:0:0:0:
256,192,276703,128,0,277676:0:0:0:0:
109,192,277027,128,0,278000:0:0:0:0:
475,192,277352,128,0,279298:0:0:0:0:
329,192,277676,128,0,279298:0:0:0:0:
182,192,278000,128,0,279298:0:0:0:0:
36,192,278325,128,0,279298:0:0:0:0:
402,192,280271,1,0,0:0:0:90:Bell.wav
36,192,280271,1,0,0:0:0:60:Additional Kick.wav
182,192,280271,128,0,280325:0:0:0:0:
182,192,280757,128,0,280811:0:0:0:0:
36,192,281082,128,0,281136:0:0:0:0:
182,192,281244,128,0,281298:0:0:0:0:
256,192,281568,128,0,281622:0:0:0:0:
402,192,281892,128,0,281946:0:0:0:0:
329,192,282217,128,0,282271:0:0:0:0:
182,192,282217,1,0,0:0:0:0:
36,192,282217,1,0,0:0:0:0:
329,192,282703,128,0,282757:0:0:0:0:
402,192,283027,128,0,283082:0:0:0:0:
256,192,283190,128,0,283244:0:0:0:0:
182,192,283514,128,0,283568:0:0:0:0:
109,192,283838,128,0,283892:0:0:0:0:
475,192,284163,128,0,284217:0:0:0:0:
329,192,284163,1,0,0:0:0:0:
182,192,284163,1,0,0:0:0:0:
36,192,284649,128,0,284703:0:0:0:0:
36,192,284973,128,0,285027:0:0:0:0:
36,192,285136,128,0,285190:0:0:0:0:
256,192,285460,128,0,285514:0:0:0:0:
402,192,285784,128,0,285838:0:0:0:0:
256,192,286109,128,0,286163:0:0:0:0:
109,192,286109,1,0,0:0:0:0:
475,192,286109,1,0,0:0:0:0:
256,192,286595,128,0,286649:0:0:0:0:
256,192,286919,128,0,286973:0:0:0:0:
256,192,287082,128,0,287136:0:0:0:0:
475,192,287082,128,0,288054:0:0:0:0:
36,192,287082,128,0,288054:0:0:0:0:
329,192,287406,128,0,287460:0:0:0:0:
182,192,287730,128,0,287784:0:0:0:0:
109,192,288054,1,0,0:0:0:60:Additional Kick.wav
256,192,288054,1,0,0:0:0:0:
402,192,288054,1,0,0:0:0:0:
182,192,288217,1,0,0:0:0:0:
329,192,288379,1,0,0:0:0:0:
402,192,288541,1,0,0:0:0:0:
109,192,288541,1,0,0:0:0:0:
256,192,288541,1,0,0:0:0:0:
329,192,288703,1,0,0:0:0:0:
402,192,288865,1,0,0:0:0:0:
36,192,288865,1,0,0:0:0:0:
182,192,288865,1,0,0:0:0:0:
109,192,289027,1,0,0:0:0:0:
475,192,289027,1,0,0:0:0:0:
329,192,289027,1,0,0:0:0:0:
182,192,289190,1,0,0:0:0:0:
256,192,289352,1,0,0:0:0:0:
402,192,289352,1,0,0:0:0:0:
36,192,289352,1,0,0:0:0:0:
109,192,289514,1,0,0:0:0:0:
182,192,289676,1,0,0:0:0:0:
329,192,289676,1,0,0:0:0:0:
475,192,289676,1,0,0:0:0:0:
256,192,289838,1,0,0:0:0:0:
402,192,290000,1,0,0:0:0:0:
36,192,290000,1,0,0:0:0:0:
182,192,290000,1,0,0:0:0:0:
329,192,290163,1,0,0:0:0:0:
256,192,290325,1,0,0:0:0:0:
36,192,290487,1,0,0:0:0:0:
182,192,290487,1,0,0:0:0:0:
402,192,290487,1,0,0:0:0:0:
256,192,290649,1,0,0:0:0:0:
329,192,290811,1,0,0:0:0:0:
475,192,290811,1,0,0:0:0:0:
109,192,290811,1,0,0:0:0:0:
256,192,290973,1,0,0:0:0:0:
402,192,290973,1,0,0:0:0:0:
36,192,290973,1,0,0:0:0:0:
329,192,291136,1,0,0:0:0:0:
36,192,291298,1,0,0:0:0:0:
475,192,291298,1,0,0:0:0:0:
256,192,291298,1,0,0:0:0:0:
329,192,291460,1,0,0:0:0:0:
182,192,291622,1,0,0:0:0:0:
402,192,291622,1,0,0:0:0:0:
36,192,291622,1,0,0:0:0:0:
256,192,291784,1,0,0:0:0:0:
109,192,291946,1,0,0:0:0:0:
475,192,291946,1,0,0:0:0:0:
329,192,291946,1,0,0:0:0:0:
256,192,292109,1,0,0:0:0:0:
402,192,292271,1,0,0:0:0:0:
36,192,292433,1,0,0:0:0:0:
475,192,292433,1,0,0:0:0:0:
182,192,292433,1,0,0:0:0:0:
329,192,292595,1,0,0:0:0:0:
475,192,292757,1,0,0:0:0:0:
36,192,292757,1,0,0:0:0:0:
182,192,292757,1,0,0:0:0:0:
36,192,292919,1,0,0:0:0:0:
182,192,292919,1,0,0:0:0:0:
329,192,292919,1,0,0:0:0:0:
256,192,293082,1,0,0:0:0:0:
475,192,293244,1,0,0:0:0:0:
36,192,293244,1,0,0:0:0:0:
182,192,293244,1,0,0:0:0:0:
329,192,293406,1,0,0:0:0:0:
109,192,293568,1,0,0:0:0:0:
402,192,293568,1,0,0:0:0:0:
256,192,293568,1,0,0:0:0:0:
329,192,293730,1,0,0:0:0:0:
36,192,293892,1,0,0:0:0:0:
475,192,293892,1,0,0:0:0:0:
182,192,293892,1,0,0:0:0:0:
256,192,294054,1,0,0:0:0:0:
329,192,294217,1,0,0:0:0:0:
256,192,294379,1,0,0:0:0:0:
36,192,294379,1,0,0:0:0:0:
475,192,294379,1,0,0:0:0:0:
329,192,294541,1,0,0:0:0:0:
475,192,294703,1,0,0:0:0:0:
256,192,294703,1,0,0:0:0:0:
36,192,294703,1,0,0:0:0:0:
402,192,294865,1,0,0:0:0:0:
256,192,294865,1,0,0:0:0:0:
36,192,294865,1,0,0:0:0:0:
329,192,295027,1,0,0:0:0:0:
256,192,295190,1,0,0:0:0:0:
475,192,295190,1,0,0:0:0:0:
109,192,295190,1,0,0:0:0:0:
329,192,295352,1,0,0:0:0:0:
36,192,295514,1,0,0:0:0:0:
182,192,295514,1,0,0:0:0:0:
402,192,295514,1,0,0:0:0:0:
256,192,295676,1,0,0:0:0:0:
329,192,295838,1,0,0:0:0:60:Additional Kick.wav
475,192,295838,1,0,0:0:0:0:
109,192,295838,128,0,296163:0:0:0:0:
256,192,296000,1,0,0:0:0:0:
182,192,296163,128,0,296487:0:0:0:0:
36,192,296325,1,0,0:0:0:0:
475,192,296325,1,0,0:0:0:0:
329,192,296325,1,0,0:0:0:0:
256,192,296487,128,0,296811:0:0:0:0:
402,192,296649,1,0,0:0:0:0:
36,192,296649,1,0,0:0:0:0:
182,192,296649,1,0,0:0:0:0:
475,192,296811,1,0,0:0:0:0:
36,192,296811,1,0,0:0:0:0:
329,192,296811,1,0,0:0:0:0:
256,192,296973,1,0,0:0:0:0:
182,192,297136,1,0,0:0:0:0:
36,192,297136,1,0,0:0:0:0:
475,192,297136,1,0,0:0:0:0:
329,192,297298,1,0,0:0:0:0:
109,192,297460,1,0,0:0:0:0:
402,192,297460,1,0,0:0:0:0:
256,192,297460,1,0,0:0:0:0:
182,192,297622,1,0,0:0:0:0:
36,192,297784,1,0,0:0:0:0:
329,192,297784,1,0,0:0:0:0:
475,192,297784,128,0,298109:0:0:0:0:
182,192,297946,1,0,0:0:0:0:
402,192,298109,128,0,298433:0:0:0:0:
475,192,298271,1,0,0:0:0:0:
36,192,298271,1,0,0:0:0:0:
256,192,298271,1,0,0:0:0:0:
329,192,298433,128,0,298757:0:0:0:0:
36,192,298595,1,0,0:0:0:0:
182,192,298595,1,0,0:0:0:0:
475,192,298595,1,0,0:0:0:0:
36,192,298757,1,0,0:0:0:0:
182,192,298757,1,0,0:0:0:0:
402,192,298757,1,0,0:0:0:0:
256,192,298919,1,0,0:0:0:0:
329,192,299082,1,0,0:0:0:0:
109,192,299082,1,0,0:0:0:0:
475,192,299082,1,0,0:0:0:0:
402,192,299244,1,0,0:0:0:0:
36,192,299406,1,0,0:0:0:0:
182,192,299406,1,0,0:0:0:0:
475,192,299406,1,0,0:0:0:0:
329,192,299568,1,0,0:0:0:0:
36,192,299730,128,0,300054:0:0:0:0:
256,192,299730,1,0,0:0:0:0:
402,192,299730,1,0,0:0:0:0:
182,192,299892,1,0,0:0:0:0:
109,192,300054,128,0,300379:0:0:0:0:
475,192,300217,1,0,0:0:0:0:
256,192,300217,1,0,0:0:0:0:
402,192,300217,1,0,0:0:0:0:
182,192,300379,128,0,300703:0:0:0:0:
402,192,300541,1,0,0:0:0:0:
256,192,300541,1,0,0:0:0:0:
36,192,300541,1,0,0:0:0:0:
256,192,300703,1,0,0:0:0:0:
402,192,300703,1,0,0:0:0:0:
36,192,300703,1,0,0:0:0:0:
475,192,300865,1,0,0:0:0:0:
36,192,301027,1,0,0:0:0:0:
182,192,301027,1,0,0:0:0:0:
402,192,301027,1,0,0:0:0:0:
256,192,301190,1,0,0:0:0:0:
109,192,301352,1,0,0:0:0:0:
475,192,301352,1,0,0:0:0:0:
329,192,301352,1,0,0:0:0:0:
182,192,301514,1,0,0:0:0:0:
256,192,301676,1,0,0:0:0:0:
36,192,301676,1,0,0:0:0:0:
402,192,301676,128,0,302000:0:0:0:0:
109,192,301838,1,0,0:0:0:0:
329,192,302000,128,0,302325:0:0:0:0:
182,192,302163,1,0,0:0:0:0:
402,192,302163,1,0,0:0:0:0:
36,192,302163,1,0,0:0:0:0:
256,192,302325,128,0,302649:0:0:0:0:
402,192,302487,1,0,0:0:0:0:
36,192,302487,1,0,0:0:0:0:
182,192,302487,1,0,0:0:0:0:
36,192,302649,1,0,0:0:0:0:
402,192,302649,1,0,0:0:0:0:
182,192,302649,1,0,0:0:0:0:
329,192,302811,1,0,0:0:0:0:
402,192,302973,1,0,0:0:0:0:
109,192,302973,1,0,0:0:0:0:
256,192,302973,1,0,0:0:0:0:
475,192,303136,1,0,0:0:0:0:
36,192,303298,1,0,0:0:0:0:
182,192,303298,1,0,0:0:0:0:
329,192,303298,1,0,0:0:0:0:
256,192,303460,1,0,0:0:0:0:
402,192,303622,1,0,0:0:0:0:
475,192,303622,1,0,0:0:0:0:
109,192,303622,1,0,0:0:0:0:
109,192,304109,1,0,0:0:0:0:
402,192,304109,1,0,0:0:0:0:
475,192,304109,1,0,0:0:0:0:
182,192,304433,1,0,0:0:0:0:
36,192,304433,1,0,0:0:0:0:
329,192,304433,1,0,0:0:0:0:
182,192,304595,1,0,0:0:0:0:
402,192,304595,1,0,0:0:0:0:
329,192,304595,1,0,0:0:0:0:
109,192,304919,128,0,305244:0:0:0:0:
182,192,305244,128,0,305568:0:0:0:0:
256,192,305568,128,0,306541:0:0:0:60:Additional Kick.wav
475,192,305568,1,0,0:0:0:0:
402,192,305730,1,0,0:0:0:0:
329,192,305892,1,0,0:0:0:0:
182,192,306054,1,0,0:0:0:0:
109,192,306054,1,0,0:0:0:0:
402,192,306217,1,0,0:0:0:0:
36,192,306379,1,0,0:0:0:0:
402,192,306541,128,0,307514:0:0:0:0:
182,192,306541,1,0,0:0:0:0:
329,192,306703,1,0,0:0:0:0:
256,192,306865,1,0,0:0:0:0:
36,192,306865,1,0,0:0:0:0:
182,192,307027,1,0,0:0:0:0:
475,192,307027,1,0,0:0:0:0:
329,192,307190,1,0,0:0:0:0:
109,192,307190,1,0,0:0:0:0:
182,192,307352,1,0,0:0:0:0:
329,192,307514,128,0,308811:0:0:0:0:
36,192,307514,1,0,0:0:0:0:
109,192,307676,1,0,0:0:0:0:
182,192,307838,1,0,0:0:0:0:
402,192,308000,1,0,0:0:0:0:
36,192,308000,1,0,0:0:0:0:
182,192,308163,1,0,0:0:0:0:
256,192,308325,1,0,0:0:0:0:
109,192,308487,1,0,0:0:0:0:
475,192,308487,1,0,0:0:0:0:
182,192,308649,1,0,0:0:0:0:
402,192,308811,128,0,309136:0:0:0:0:
36,192,308811,1,0,0:0:0:0:
182,192,308973,1,0,0:0:0:0:
329,192,308973,1,0,0:0:0:0:
475,192,309136,128,0,309460:0:0:0:0:
36,192,309136,1,0,0:0:0:0:
109,192,309298,1,0,0:0:0:0:
182,192,309460,128,0,310433:0:0:0:0:
329,192,309460,1,0,0:0:0:0:
402,192,309622,1,0,0:0:0:0:
475,192,309784,1,0,0:0:0:0:
329,192,309946,1,0,0:0:0:0:
36,192,309946,1,0,0:0:0:0:
256,192,310109,1,0,0:0:0:0:
475,192,310109,1,0,0:0:0:0:
109,192,310271,1,0,0:0:0:0:
402,192,310271,1,0,0:0:0:0:
329,192,310433,128,0,311082:0:0:0:0:
36,192,310433,1,0,0:0:0:0:
182,192,310595,1,0,0:0:0:0:
256,192,310757,1,0,0:0:0:0:
36,192,310757,1,0,0:0:0:0:
182,192,310919,1,0,0:0:0:0:
402,192,310919,1,0,0:0:0:0:
109,192,311082,128,0,311406:0:0:0:0:
475,192,311082,1,0,0:0:0:0:
329,192,311244,1,0,0:0:0:0:
256,192,311406,128,0,313352:0:0:0:0:
402,192,311406,1,0,0:0:0:0:
182,192,311568,1,0,0:0:0:0:
329,192,311730,1,0,0:0:0:0:
402,192,311892,1,0,0:0:0:0:
36,192,311892,1,0,0:0:0:0:
182,192,312054,1,0,0:0:0:0:
329,192,312217,1,0,0:0:0:0:
475,192,312379,1,0,0:0:0:0:
109,192,312379,1,0,0:0:0:0:
402,192,312541,1,0,0:0:0:0:
329,192,312703,1,0,0:0:0:0:
36,192,312703,1,0,0:0:0:0:
109,192,312865,1,0,0:0:0:0:
182,192,313027,1,0,0:0:0:0:
329,192,313190,1,0,0:0:0:0:
36,192,313352,128,0,315298:0:0:0:0:
402,192,313352,1,0,0:0:0:0:
329,192,313514,1,0,0:0:0:0:
256,192,313676,1,0,0:0:0:0:
475,192,313838,1,0,0:0:0:0:
182,192,313838,1,0,0:0:0:0:
329,192,314000,1,0,0:0:0:0:
402,192,314163,1,0,0:0:0:0:
475,192,314325,1,0,0:0:0:0:
182,192,314325,128,0,315298:0:0:0:0:
329,192,314487,1,0,0:0:0:0:
402,192,314649,1,0,0:0:0:0:
109,192,314649,1,0,0:0:0:0:
475,192,314811,1,0,0:0:0:0:
256,192,314811,1,0,0:0:0:0:
402,192,314973,1,0,0:0:0:0:
109,192,314973,1,0,0:0:0:0:
329,192,315136,1,0,0:0:0:0:
402,192,315298,128,0,317244:0:0:0:0:
256,192,315298,1,0,0:0:0:0:
109,192,315460,1,0,0:0:0:0:
182,192,315622,1,0,0:0:0:0:
329,192,315784,1,0,0:0:0:0:
36,192,315784,1,0,0:0:0:0:
182,192,315946,1,0,0:0:0:0:
256,192,316109,1,0,0:0:0:0:
475,192,316271,1,0,0:0:0:0:
109,192,316271,1,0,0:0:0:0:
329,192,316433,1,0,0:0:0:0:
256,192,316595,128,0,317244:0:0:0:0:
36,192,316595,1,0,0:0:0:0:
182,192,316757,1,0,0:0:0:0:
329,192,316757,1,0,0:0:0:0:
109,192,316919,128,0,317244:0:0:0:0:
475,192,316919,1,0,0:0:0:0:
329,192,317082,1,0,0:0:0:0:
182,192,317244,128,0,319190:0:0:0:0:
36,192,317244,1,0,0:0:0:0:
329,192,317406,1,0,0:0:0:0:
475,192,317568,1,0,0:0:0:0:
256,192,317730,1,0,0:0:0:0:
36,192,317730,1,0,0:0:0:0:
329,192,317892,1,0,0:0:0:0:
109,192,317892,1,0,0:0:0:0:
402,192,318054,1,0,0:0:0:0:
329,192,318217,128,0,319190:0:0:0:0:
36,192,318217,1,0,0:0:0:0:
109,192,318379,1,0,0:0:0:0:
256,192,318541,1,0,0:0:0:0:
402,192,318703,1,0,0:0:0:0:
475,192,318703,1,0,0:0:0:0:
109,192,318865,1,0,0:0:0:0:
36,192,318865,1,0,0:0:0:0:
402,192,319027,1,0,0:0:0:0:
256,192,319190,128,0,320163:0:0:0:0:
475,192,319190,1,0,0:0:0:0:
182,192,319352,1,0,0:0:0:0:
36,192,319514,1,0,0:0:0:0:
329,192,319676,1,0,0:0:0:0:
109,192,319676,1,0,0:0:0:0:
182,192,319838,1,0,0:0:0:0:
402,192,320000,1,0,0:0:0:0:
36,192,320163,1,0,0:0:0:50:Clapsnare Instru.wav
109,192,320163,1,0,0:0:0:90:Bell.wav
182,192,320163,1,0,0:0:0:0:
402,192,320203,1,0,0:0:0:50:Clapsnare Instru.wav
329,192,320203,1,0,0:0:0:0:
475,192,320203,1,0,0:0:0:0:
329,192,320649,1,0,0:0:0:60:Additional Kick.wav
402,192,320649,1,0,0:0:0:0:
109,192,320730,1,0,0:0:0:60:Additional Kick.wav
182,192,320730,1,0,0:0:0:0:
329,192,320811,1,0,0:0:0:60:Additional Kick.wav
402,192,320811,1,0,0:0:0:0:
329,192,320973,1,0,0:0:0:60:Additional Kick.wav
402,192,320973,1,0,0:0:0:0:
475,192,321136,1,0,0:0:0:60:Additional Kick.wav
256,192,321136,128,0,321406:0:0:0:30:Hihat.wav
36,192,321136,128,0,321190:0:0:0:0:
402,192,321298,1,0,0:0:0:0:
402,192,321460,1,0,0:0:0:30:Hihat.wav
182,192,321622,128,0,321946:0:0:0:60:Additional Kick.wav
109,192,321622,1,0,0:0:0:0:
329,192,321622,128,0,321676:0:0:0:0:
402,192,321784,1,0,0:0:0:30:Hihat.wav
36,192,321946,128,0,322109:0:0:0:60:Additional Kick.wav
475,192,321946,1,0,0:0:0:0:
182,192,322109,128,0,322163:0:0:0:30:Hihat.wav
402,192,322109,1,0,0:0:0:90:Bell.wav
329,192,322109,1,0,0:0:0:0:
329,192,322271,1,0,0:0:0:0:
256,192,322433,128,0,322487:0:0:0:60:Additional Kick.wav
36,192,322433,1,0,0:0:0:30:Hihat.wav
402,192,322433,1,0,0:0:0:0:
36,192,322595,1,0,0:0:0:0:
475,192,322757,128,0,322811:0:0:0:60:Additional Kick.wav
109,192,322757,1,0,0:0:0:30:Hihat.wav
329,192,322757,1,0,0:0:0:0:
329,192,322919,1,0,0:0:0:0:
256,192,323082,128,0,323136:0:0:0:30:Hihat.wav
36,192,323082,1,0,0:0:0:60:Additional Kick.wav
475,192,323082,1,0,0:0:0:0:
36,192,323244,1,0,0:0:0:0:
329,192,323406,1,0,0:0:0:30:Hihat.wav
256,192,323568,128,0,323892:0:0:0:60:Additional Kick.wav
402,192,323568,1,0,0:0:0:0:
36,192,323568,128,0,323622:0:0:0:0:
109,192,323730,1,0,0:0:0:30:Hihat.wav
329,192,323892,128,0,324054:0:0:0:60:Additional Kick.wav
475,192,323892,1,0,0:0:0:0:
182,192,324054,128,0,324109:0:0:0:30:Hihat.wav
402,192,324054,1,0,0:0:0:30:Click.wav
36,192,324054,1,0,0:0:0:0:
402,192,324217,1,0,0:0:0:0:
256,192,324379,128,0,324433:0:0:0:30:Hihat.wav
475,192,324379,1,0,0:0:0:60:Additional Kick.wav
36,192,324379,1,0,0:0:0:0:
36,192,324541,1,0,0:0:0:0:
109,192,324703,128,0,324757:0:0:0:30:Hihat.wav
402,192,324703,1,0,0:0:0:60:Additional Kick.wav
256,192,324703,1,0,0:0:0:0:
256,192,324865,1,0,0:0:0:0:
182,192,325027,128,0,325298:0:0:0:30:Hihat.wav
475,192,325027,1,0,0:0:0:60:Additional Kick.wav
329,192,325027,128,0,325082:0:0:0:0:
402,192,325190,1,0,0:0:0:0:
402,192,325352,1,0,0:0:0:30:Hihat.wav
109,192,325514,128,0,325568:0:0:0:60:Additional Kick.wav
329,192,325514,1,0,0:0:0:0:
36,192,325514,1,0,0:0:0:0:
256,192,325676,1,0,0:0:0:30:Hihat.wav
109,192,325838,128,0,325892:0:0:0:60:Additional Kick.wav
402,192,325838,1,0,0:0:0:0:
109,192,326000,128,0,326054:0:0:0:30:Hihat.wav
329,192,326000,1,0,0:0:0:90:Bell.wav
475,192,326000,1,0,0:0:0:0:
329,192,326163,1,0,0:0:0:0:
256,192,326325,128,0,326379:0:0:0:30:Hihat.wav
402,192,326325,1,0,0:0:0:60:Additional Kick.wav
36,192,326325,1,0,0:0:0:0:
36,192,326487,1,0,0:0:0:0:
402,192,326649,128,0,326703:0:0:0:30:Hihat.wav
109,192,326649,1,0,0:0:0:60:Additional Kick.wav
256,192,326649,1,0,0:0:0:0:
256,192,326811,1,0,0:0:0:0:
329,192,326973,128,0,327027:0:0:0:30:Hihat.wav
36,192,326973,1,0,0:0:0:60:Additional Kick.wav
475,192,326973,1,0,0:0:0:0:
475,192,327136,1,0,0:0:0:0:
182,192,327298,1,0,0:0:0:30:Hihat.wav
329,192,327460,128,0,327622:0:0:0:60:Additional Kick.wav
475,192,327460,1,0,0:0:0:0:
109,192,327460,1,0,0:0:0:0:
182,192,327622,1,0,0:0:0:30:Hihat.wav
329,192,327784,128,0,327838:0:0:0:60:Additional Kick.wav
109,192,327784,1,0,0:0:0:0:
329,192,327946,128,0,328000:0:0:0:30:Hihat.wav
36,192,327946,1,0,0:0:0:30:Click.wav
475,192,327946,1,0,0:0:0:0:
36,192,328109,1,0,0:0:0:0:
329,192,328271,128,0,328325:0:0:0:30:Hihat.wav
109,192,328271,1,0,0:0:0:60:Additional Kick.wav
475,192,328271,1,0,0:0:0:0:
475,192,328433,1,0,0:0:0:0:
182,192,328595,128,0,328649:0:0:0:30:Hihat.wav
329,192,328595,1,0,0:0:0:60:Additional Kick.wav
36,192,328595,1,0,0:0:0:0:
329,192,328757,1,0,0:0:0:0:
36,192,328919,128,0,328973:0:0:0:30:Hihat.wav
182,192,328919,1,0,0:0:0:60:Additional Kick.wav
402,192,328919,128,0,329190:0:0:0:0:
256,192,329082,1,0,0:0:0:0:
256,192,329244,1,0,0:0:0:30:Hihat.wav
182,192,329406,1,0,0:0:0:60:Additional Kick.wav
36,192,329406,1,0,0:0:0:0:
475,192,329406,1,0,0:0:0:0:
329,192,329460,1,0,0:0:0:0:
182,192,329514,128,0,329730:0:0:0:0:
402,192,329568,1,0,0:0:0:30:Hihat.wav
36,192,329730,128,0,329892:0:0:0:60:Additional Kick.wav
329,192,329730,1,0,0:0:0:0:
182,192,329892,128,0,329946:0:0:0:30:Hihat.wav
256,192,329892,1,0,0:0:0:90:Bell.wav
475,192,329892,1,0,0:0:0:0:
475,192,330054,1,0,0:0:0:0:
256,192,330217,128,0,330271:0:0:0:30:Hihat.wav
402,192,330217,1,0,0:0:0:60:Additional Kick.wav
182,192,330217,1,0,0:0:0:0:
182,192,330379,1,0,0:0:0:0:
402,192,330541,128,0,330595:0:0:0:30:Hihat.wav
256,192,330541,1,0,0:0:0:60:Additional Kick.wav
109,192,330541,1,0,0:0:0:0:
256,192,330703,1,0,0:0:0:0:
36,192,330865,1,0,0:0:0:30:Hihat.wav
182,192,330865,1,0,0:0:0:60:Additional Kick.wav
329,192,330865,128,0,330919:0:0:0:0:
36,192,331027,1,0,0:0:0:0:
402,192,331190,1,0,0:0:0:30:Hihat.wav
256,192,331352,128,0,331676:0:0:0:60:Additional Kick.wav
109,192,331352,1,0,0:0:0:0:
475,192,331352,1,0,0:0:0:0:
182,192,331514,1,0,0:0:0:30:Hihat.wav
329,192,331676,128,0,331838:0:0:0:60:Additional Kick.wav
109,192,331676,1,0,0:0:0:0:
182,192,331838,128,0,331892:0:0:0:30:Hihat.wav
475,192,331838,1,0,0:0:0:30:Click.wav
402,192,331838,1,0,0:0:0:0:
36,192,331838,1,0,0:0:0:0:
36,192,332000,1,0,0:0:0:0:
256,192,332163,128,0,332217:0:0:0:30:Hihat.wav
475,192,332163,1,0,0:0:0:60:Additional Kick.wav
182,192,332163,1,0,0:0:0:0:
475,192,332325,1,0,0:0:0:0:
109,192,332487,128,0,332541:0:0:0:30:Hihat.wav
402,192,332487,1,0,0:0:0:60:Additional Kick.wav
36,192,332487,1,0,0:0:0:0:
402,192,332649,1,0,0:0:0:0:
182,192,332811,128,0,332865:0:0:0:30:Hihat.wav
36,192,332811,1,0,0:0:0:60:Additional Kick.wav
475,192,332811,128,0,333082:0:0:0:0:
329,192,332973,1,0,0:0:0:0:
329,192,333136,1,0,0:0:0:30:Hihat.wav
109,192,333298,128,0,333352:0:0:0:60:Additional Kick.wav
256,192,333298,1,0,0:0:0:0:
475,192,333298,1,0,0:0:0:0:
402,192,333460,1,0,0:0:0:30:Hihat.wav
109,192,333622,128,0,333676:0:0:0:60:Additional Kick.wav
329,192,333622,1,0,0:0:0:0:
109,192,333784,128,0,333838:0:0:0:30:Hihat.wav
475,192,333784,1,0,0:0:0:90:Bell.wav
256,192,333784,1,0,0:0:0:0:
475,192,333946,1,0,0:0:0:0:
182,192,334109,128,0,334163:0:0:0:30:Hihat.wav
109,192,334109,1,0,0:0:0:60:Additional Kick.wav
402,192,334109,1,0,0:0:0:0:
109,192,334271,1,0,0:0:0:0:
402,192,334433,128,0,334487:0:0:0:30:Hihat.wav
329,192,334433,1,0,0:0:0:60:Additional Kick.wav
36,192,334433,1,0,0:0:0:0:
329,192,334595,1,0,0:0:0:0:
475,192,334757,1,0,0:0:0:30:Hihat.wav
36,192,334757,1,0,0:0:0:60:Additional Kick.wav
182,192,334757,128,0,334811:0:0:0:0:
36,192,334919,1,0,0:0:0:0:
329,192,335082,1,0,0:0:0:30:Hihat.wav
182,192,335244,128,0,335298:0:0:0:60:Additional Kick.wav
36,192,335244,1,0,0:0:0:0:
475,192,335244,1,0,0:0:0:0:
329,192,335406,1,0,0:0:0:30:Hihat.wav
182,192,335568,128,0,335622:0:0:0:60:Additional Kick.wav
402,192,335568,1,0,0:0:0:0:
109,192,335568,1,0,0:0:0:0:
475,192,335730,128,0,337352:0:0:0:30:Hihat.wav
109,192,335730,1,0,0:0:0:60:Additional Kick.wav
329,192,335730,1,8,3:0:0:40:
36,192,336054,128,8,337352:3:0:0:40:
402,192,336054,1,0,0:0:0:30:Hihat.wav
256,192,336054,1,0,0:0:0:60:Additional Kick.wav
182,192,337027,128,0,337676:0:0:0:0:
329,192,337352,128,0,337676:0:0:0:0:
475,192,337676,1,0,0:0:0:60:Additional Kick.wav
256,192,337676,1,0,0:0:0:0:
36,192,337676,128,0,338649:0:0:0:0:
329,192,337838,1,0,0:0:0:0:
182,192,338000,1,0,0:0:0:0:
475,192,338163,1,0,0:0:0:0:
329,192,338163,1,0,0:0:0:0:
256,192,338325,1,0,0:0:0:0:
402,192,338487,1,0,0:0:0:0:
329,192,338649,128,0,339622:0:0:0:90:Bell.wav
109,192,338649,1,0,0:0:0:0:
182,192,338649,1,0,0:0:0:0:
475,192,338649,1,0,0:0:0:0:
256,192,338811,1,0,0:0:0:0:
182,192,338973,1,0,0:0:0:0:
475,192,338973,1,0,0:0:0:0:
36,192,339136,1,0,0:0:0:0:
109,192,339298,1,0,0:0:0:0:
402,192,339298,1,0,0:0:0:0:
182,192,339460,1,0,0:0:0:0:
256,192,339622,1,0,0:0:0:0:
36,192,339622,1,0,0:0:0:0:
109,192,339784,1,0,0:0:0:0:
329,192,339892,1,0,0:0:0:0:
402,192,339946,128,0,340109:0:0:0:0:
256,192,339946,1,0,0:0:0:0:
182,192,340109,128,0,340271:0:0:0:0:
36,192,340109,1,0,0:0:0:0:
36,192,340271,128,0,340433:0:0:0:0:
402,192,340271,1,0,0:0:0:0:
329,192,340433,128,0,340595:0:0:0:0:
256,192,340433,1,0,0:0:0:0:
182,192,340595,128,0,340757:0:0:0:30:Click.wav
475,192,340595,1,0,0:0:0:0:
36,192,340595,1,0,0:0:0:0:
402,192,340757,128,0,340919:0:0:0:0:
256,192,340919,128,0,341082:0:0:0:0:
182,192,340919,1,0,0:0:0:0:
109,192,341082,128,0,341244:0:0:0:0:
329,192,341082,1,0,0:0:0:0:
329,192,341244,128,0,341406:0:0:0:0:
182,192,341244,1,0,0:0:0:0:
36,192,341406,128,0,341730:0:0:0:0:
475,192,341568,1,0,0:0:0:0:
256,192,341568,1,0,0:0:0:0:
329,192,341730,1,0,0:0:0:0:
182,192,341730,128,0,342541:0:0:0:0:
402,192,341892,1,0,0:0:0:0:
256,192,342054,1,0,0:0:0:0:
36,192,342054,1,0,0:0:0:0:
475,192,342217,1,0,0:0:0:0:
329,192,342379,1,0,0:0:0:0:
475,192,342541,1,0,0:0:0:90:Bell.wav
109,192,342541,128,0,343190:0:0:0:0:
36,192,342541,1,0,0:0:0:0:
402,192,342541,1,0,0:0:0:0:
256,192,342703,1,0,0:0:0:0:
329,192,342865,1,0,0:0:0:0:
36,192,342865,1,0,0:0:0:0:
475,192,343027,1,0,0:0:0:0:
36,192,343190,128,0,343514:0:0:0:0:
402,192,343190,1,0,0:0:0:0:
182,192,343190,1,0,0:0:0:0:
329,192,343352,1,0,0:0:0:0:
256,192,343514,128,0,345460:0:0:0:0:
475,192,343514,1,0,0:0:0:0:
182,192,343514,1,0,0:0:0:0:
109,192,343676,1,0,0:0:0:0:
329,192,343838,1,0,0:0:0:0:
475,192,344000,1,0,0:0:0:0:
36,192,344000,1,0,0:0:0:0:
182,192,344163,1,0,0:0:0:0:
402,192,344325,1,0,0:0:0:0:
329,192,344487,1,0,0:0:0:65:Click.wav
36,192,344487,1,0,0:0:0:0:
475,192,344487,1,0,0:0:0:0:
182,192,344649,1,0,0:0:0:0:
475,192,344811,1,0,0:0:0:0:
402,192,344811,1,0,0:0:0:0:
109,192,344973,1,0,0:0:0:0:
329,192,345136,1,0,0:0:0:0:
36,192,345136,1,0,0:0:0:0:
109,192,345298,1,0,0:0:0:0:
182,192,345460,128,0,346433:0:0:0:0:
475,192,345460,1,0,0:0:0:0:
329,192,345622,1,0,0:0:0:0:
109,192,345784,1,0,0:0:0:0:
402,192,345946,1,0,0:0:0:0:
36,192,345946,1,0,0:0:0:0:
475,192,346109,1,0,0:0:0:0:
256,192,346271,1,0,0:0:0:0:
109,192,346433,128,0,347082:0:0:0:90:Bell.wav
402,192,346433,1,0,0:0:0:0:
36,192,346433,1,0,0:0:0:0:
475,192,346433,1,0,0:0:0:0:
256,192,346595,1,0,0:0:0:0:
329,192,346757,1,0,0:0:0:0:
182,192,346757,1,0,0:0:0:0:
256,192,346919,1,0,0:0:0:0:
475,192,346919,1,0,0:0:0:0:
402,192,347082,128,0,347406:0:0:0:0:
36,192,347082,1,0,0:0:0:0:
109,192,347244,1,0,0:0:0:0:
256,192,347406,128,0,349352:0:0:0:0:
182,192,347406,1,0,0:0:0:0:
402,192,347568,1,0,0:0:0:0:
182,192,347730,1,0,0:0:0:0:
329,192,347892,1,0,0:0:0:0:
475,192,347892,1,0,0:0:0:0:
109,192,348054,1,0,0:0:0:0:
182,192,348217,1,0,0:0:0:0:
329,192,348379,1,0,0:0:0:65:Click.wav
475,192,348379,1,0,0:0:0:0:
36,192,348379,1,0,0:0:0:0:
182,192,348541,1,0,0:0:0:0:
109,192,348703,1,0,0:0:0:0:
402,192,348703,1,0,0:0:0:0:
329,192,348865,1,0,0:0:0:0:
182,192,349027,1,0,0:0:0:0:
36,192,349027,1,0,0:0:0:0:
402,192,349190,1,0,0:0:0:0:
329,192,349352,128,0,350325:0:0:0:0:
109,192,349352,1,0,0:0:0:0:
475,192,349352,1,0,0:0:0:0:
256,192,349514,1,0,0:0:0:0:
182,192,349676,1,0,0:0:0:0:
109,192,349838,1,0,0:0:0:0:
475,192,349838,1,0,0:0:0:0:
182,192,350000,1,0,0:0:0:0:
256,192,350163,1,0,0:0:0:0:
36,192,350163,1,0,0:0:0:0:
182,192,350325,128,0,350973:0:0:0:90:Bell.wav
402,192,350325,1,0,0:0:0:0:
109,192,350325,1,0,0:0:0:0:
475,192,350325,1,0,0:0:0:0:
329,192,350487,1,0,0:0:0:0:
256,192,350649,1,0,0:0:0:0:
36,192,350649,1,0,0:0:0:0:
402,192,350811,1,0,0:0:0:0:
329,192,350973,128,0,351298:0:0:0:0:
109,192,350973,1,0,0:0:0:0:
475,192,350973,1,0,0:0:0:0:
182,192,351136,1,0,0:0:0:0:
256,192,351298,128,0,352271:0:0:0:0:
475,192,351298,1,0,0:0:0:0:
109,192,351298,1,0,0:0:0:0:
329,192,351460,1,0,0:0:0:0:
182,192,351622,1,0,0:0:0:0:
36,192,351784,1,0,0:0:0:0:
402,192,351784,1,0,0:0:0:0:
182,192,351946,1,0,0:0:0:0:
329,192,352109,1,0,0:0:0:0:
182,192,352271,1,0,0:0:0:50:Clapsnare Instru.wav
109,192,352271,1,0,0:0:0:90:Bell.wav
36,192,352271,1,0,0:0:0:0:
329,192,352311,1,0,0:0:0:50:Clapsnare Instru.wav
402,192,352311,1,0,0:0:0:0:
475,192,352311,1,0,0:0:0:0:
182,192,352757,1,0,0:0:0:60:Additional Kick.wav
109,192,352757,1,0,0:0:0:0:
329,192,352838,1,0,0:0:0:60:Additional Kick.wav
402,192,352838,1,0,0:0:0:0:
182,192,352919,1,0,0:0:0:60:Additional Kick.wav
109,192,352919,1,0,0:0:0:0:
109,192,353082,1,0,0:0:0:60:Additional Kick.wav
182,192,353082,1,0,0:0:0:0:
475,192,353244,1,0,0:0:0:60:Additional Kick.wav
36,192,353244,1,0,0:0:0:30:Hihat.wav
256,192,353244,128,0,353298:0:0:0:0:
402,192,353406,1,0,0:0:0:0:
182,192,353406,1,0,0:0:0:0:
402,192,353568,1,0,0:0:0:30:Hihat.wav
182,192,353730,128,0,354054:0:0:0:60:Additional Kick.wav
329,192,353730,1,0,0:0:0:0:
109,192,353730,1,0,0:0:0:0:
402,192,353892,1,0,0:0:0:30:Hihat.wav
36,192,354054,128,0,354217:0:0:0:60:Additional Kick.wav
475,192,354054,1,0,0:0:0:0:
182,192,354217,128,0,354271:0:0:0:30:Hihat.wav
329,192,354217,1,0,0:0:0:60:Additional Kick.wav
402,192,354217,1,0,0:0:0:90:Bell.wav
329,192,354379,1,0,0:0:0:0:
256,192,354541,128,0,354595:0:0:0:60:Additional Kick.wav
36,192,354541,1,0,0:0:0:30:Hihat.wav
402,192,354541,1,0,0:0:0:0:
36,192,354703,1,0,0:0:0:0:
475,192,354865,128,0,354919:0:0:0:60:Additional Kick.wav
109,192,354865,1,0,0:0:0:30:Hihat.wav
329,192,354865,1,0,0:0:0:0:
329,192,355027,1,0,0:0:0:0:
256,192,355190,128,0,355244:0:0:0:30:Hihat.wav
36,192,355190,1,0,0:0:0:60:Additional Kick.wav
475,192,355190,1,0,0:0:0:0:
36,192,355352,1,0,0:0:0:0:
329,192,355352,1,0,0:0:0:0:
182,192,355514,1,0,0:0:0:30:Hihat.wav
256,192,355676,1,0,0:0:0:60:Additional Kick.wav
402,192,355676,1,0,0:0:0:0:
36,192,355730,1,0,0:0:0:0:
256,192,355784,128,0,356000:0:0:0:0:
182,192,355838,1,0,0:0:0:30:Hihat.wav
329,192,356000,128,0,356163:0:0:0:60:Additional Kick.wav
475,192,356000,1,0,0:0:0:0:
182,192,356163,128,0,356217:0:0:0:30:Hihat.wav
36,192,356163,1,0,0:0:0:60:Additional Kick.wav
402,192,356163,1,0,0:0:0:30:Click.wav
402,192,356325,1,0,0:0:0:0:
256,192,356487,128,0,356541:0:0:0:30:Hihat.wav
475,192,356487,1,0,0:0:0:60:Additional Kick.wav
36,192,356487,1,0,0:0:0:0:
36,192,356649,1,0,0:0:0:0:
109,192,356811,128,0,356865:0:0:0:30:Hihat.wav
402,192,356811,1,0,0:0:0:60:Additional Kick.wav
256,192,356811,1,0,0:0:0:0:
256,192,356973,1,0,0:0:0:0:
329,192,357136,1,0,0:0:0:30:Hihat.wav
475,192,357136,1,0,0:0:0:60:Additional Kick.wav
182,192,357136,128,0,357190:0:0:0:0:
402,192,357298,1,0,0:0:0:0:
109,192,357298,1,0,0:0:0:0:
402,192,357460,1,0,0:0:0:30:Hihat.wav
109,192,357622,128,0,357676:0:0:0:60:Additional Kick.wav
329,192,357622,1,0,0:0:0:0:
36,192,357622,1,0,0:0:0:0:
256,192,357784,1,0,0:0:0:30:Hihat.wav
109,192,357946,128,0,358000:0:0:0:60:Additional Kick.wav
402,192,357946,1,0,0:0:0:0:
109,192,358109,128,0,358163:0:0:0:30:Hihat.wav
475,192,358109,1,0,0:0:0:60:Additional Kick.wav
329,192,358109,1,0,0:0:0:90:Bell.wav
329,192,358271,1,0,0:0:0:0:
256,192,358433,128,0,358487:0:0:0:30:Hihat.wav
402,192,358433,1,0,0:0:0:60:Additional Kick.wav
36,192,358433,1,0,0:0:0:0:
36,192,358595,1,0,0:0:0:0:
402,192,358757,128,0,358811:0:0:0:30:Hihat.wav
109,192,358757,1,0,0:0:0:60:Additional Kick.wav
256,192,358757,1,0,0:0:0:0:
256,192,358919,1,0,0:0:0:0:
329,192,359082,128,0,359136:0:0:0:30:Hihat.wav
36,192,359082,1,0,0:0:0:60:Additional Kick.wav
475,192,359082,1,0,0:0:0:0:
36,192,359244,1,0,0:0:0:0:
402,192,359244,1,0,0:0:0:0:
182,192,359406,1,0,0:0:0:30:Hihat.wav
475,192,359568,1,0,0:0:0:60:Additional Kick.wav
109,192,359568,1,0,0:0:0:0:
256,192,359568,128,0,359622:0:0:0:0:
402,192,359730,1,0,0:0:0:30:Hihat.wav
109,192,359892,1,0,0:0:0:0:
256,192,359892,1,0,0:0:0:60:Additional Kick.wav
329,192,359946,128,0,360054:0:0:0:0:
256,192,360054,128,0,360109:0:0:0:30:Hihat.wav
475,192,360054,1,0,0:0:0:60:Additional Kick.wav
36,192,360054,1,0,0:0:0:30:Click.wav
182,192,360054,1,0,0:0:0:0:
36,192,360217,1,0,0:0:0:0:
329,192,360379,128,0,360433:0:0:0:30:Hihat.wav
109,192,360379,1,0,0:0:0:60:Additional Kick.wav
475,192,360379,1,0,0:0:0:0:
475,192,360541,1,0,0:0:0:60:Additional Kick.wav
182,192,360703,128,0,360757:0:0:0:30:Hihat.wav
329,192,360703,1,0,0:0:0:60:Additional Kick.wav
36,192,360703,1,0,0:0:0:0:
329,192,360865,1,0,0:0:0:60:Additional Kick.wav
182,192,361027,128,0,361082:0:0:0:30:Hihat.wav
36,192,361027,1,0,0:0:0:60:Additional Kick.wav
402,192,361027,1,0,0:0:0:0:
256,192,361190,1,0,0:0:0:0:
109,192,361190,1,0,0:0:0:0:
256,192,361352,1,0,0:0:0:30:Hihat.wav
36,192,361514,1,0,0:0:0:60:Additional Kick.wav
475,192,361514,1,0,0:0:0:0:
182,192,361514,128,0,361838:0:0:0:0:
402,192,361676,1,0,0:0:0:30:Hihat.wav
36,192,361838,128,0,362000:0:0:0:60:Additional Kick.wav
329,192,361838,1,0,0:0:0:0:
256,192,362000,128,0,362054:0:0:0:30:Hihat.wav
475,192,362000,1,0,0:0:0:60:Additional Kick.wav
182,192,362000,1,0,0:0:0:90:Bell.wav
475,192,362163,1,0,0:0:0:0:
329,192,362325,128,0,362379:0:0:0:60:Additional Kick.wav
36,192,362325,1,0,0:0:0:30:Hihat.wav
182,192,362325,1,0,0:0:0:0:
182,192,362487,1,0,0:0:0:0:
402,192,362649,128,0,362703:0:0:0:30:Hihat.wav
256,192,362649,1,0,0:0:0:60:Additional Kick.wav
109,192,362649,1,0,0:0:0:0:
109,192,362811,1,0,0:0:0:0:
36,192,362973,1,0,0:0:0:30:Hihat.wav
475,192,362973,1,0,0:0:0:60:Additional Kick.wav
256,192,362973,128,0,363027:0:0:0:0:
329,192,363136,1,0,0:0:0:0:
475,192,363136,1,0,0:0:0:0:
109,192,363298,1,0,0:0:0:30:Hihat.wav
475,192,363460,1,0,0:0:0:60:Additional Kick.wav
256,192,363460,1,0,0:0:0:0:
109,192,363514,1,0,0:0:0:0:
256,192,363568,128,0,363784:0:0:0:0:
402,192,363622,1,0,0:0:0:30:Hihat.wav
329,192,363784,128,0,363946:0:0:0:60:Additional Kick.wav
109,192,363784,1,0,0:0:0:0:
182,192,363946,128,0,364000:0:0:0:30:Hihat.wav
36,192,363946,1,0,0:0:0:60:Additional Kick.wav
475,192,363946,1,0,0:0:0:30:Click.wav
402,192,363946,1,0,0:0:0:0:
36,192,364109,1,0,0:0:0:0:
256,192,364271,128,0,364325:0:0:0:30:Hihat.wav
475,192,364271,1,0,0:0:0:60:Additional Kick.wav
182,192,364271,1,0,0:0:0:0:
475,192,364433,1,0,0:0:0:0:
109,192,364595,128,0,364649:0:0:0:30:Hihat.wav
402,192,364595,1,0,0:0:0:60:Additional Kick.wav
36,192,364595,1,0,0:0:0:0:
402,192,364757,1,0,0:0:0:0:
182,192,364919,128,0,364973:0:0:0:30:Hihat.wav
36,192,364919,1,0,0:0:0:60:Additional Kick.wav
475,192,364919,1,0,0:0:0:0:
329,192,365082,1,0,0:0:0:0:
109,192,365082,1,0,0:0:0:0:
329,192,365244,1,0,0:0:0:30:Hihat.wav
109,192,365406,128,0,365460:0:0:0:60:Additional Kick.wav
256,192,365406,1,0,0:0:0:0:
475,192,365406,1,0,0:0:0:0:
402,192,365568,5,0,0:0:0:30:Hihat.wav
109,192,365730,128,0,365784:0:0:0:60:Additional Kick.wav
329,192,365730,1,0,0:0:0:0:
109,192,365892,128,0,365946:0:0:0:30:Hihat.wav
256,192,365892,1,0,0:0:0:60:Additional Kick.wav
475,192,365892,1,0,0:0:0:90:Bell.wav
475,192,366054,1,0,0:0:0:0:
256,192,366217,128,0,366271:0:0:0:30:Hihat.wav
109,192,366217,1,0,0:0:0:60:Additional Kick.wav
402,192,366217,1,0,0:0:0:0:
109,192,366379,1,0,0:0:0:0:
475,192,366541,128,0,366595:0:0:0:30:Hihat.wav
256,192,366541,1,0,0:0:0:60:Additional Kick.wav
36,192,366541,1,0,0:0:0:0:
402,192,366703,1,8,3:0:0:40:
329,192,366703,1,0,0:0:0:0:
182,192,366784,1,8,3:0:0:40:
109,192,366784,1,0,0:0:0:0:
329,192,366865,128,0,366973:0:0:0:30:Hihat.wav
402,192,366865,128,8,366973:3:0:0:40:
329,192,367352,1,0,0:0:0:50:Clapsnare Instru.wav
402,192,367352,1,0,0:0:0:60:Additional Kick.wav
182,192,367352,1,0,0:0:0:0:
109,192,367352,1,0,0:0:0:0:
329,192,367676,1,0,0:0:0:60:Additional Kick.wav
402,192,367676,1,0,0:0:0:0:
402,192,367838,1,0,0:0:0:60:Additional Kick.wav
256,192,367838,1,0,0:0:0:50:Clapsnare Instru.wav
182,192,367838,1,0,0:0:0:0:
36,192,367838,1,0,0:0:0:0:
329,192,368163,1,0,0:0:0:60:Additional Kick.wav
402,192,368163,1,0,0:0:0:50:Clapsnare Instru.wav
182,192,368163,1,0,0:0:0:0:
182,192,368325,1,0,0:0:0:60:Additional Kick.wav
329,192,368325,1,0,0:0:0:50:Clapsnare Instru.wav
109,192,368325,1,0,0:0:0:0:
109,192,368487,1,0,0:0:0:50:Clapsnare Instru.wav
182,192,368487,1,0,0:0:0:0:
475,192,368487,1,0,0:0:0:0:
329,192,368568,1,0,0:0:0:50:Clapsnare Instru.wav
402,192,368568,1,0,0:0:0:0:
182,192,368649,1,0,0:0:0:50:Clapsnare Instru.wav
109,192,368649,1,0,0:0:0:0:
36,192,368649,1,0,0:0:0:0:
329,192,368730,1,0,0:0:0:50:Clapsnare Instru.wav
402,192,368730,1,0,0:0:0:0:
36,192,368811,1,0,0:0:0:60:Additional Kick.wav
182,192,368811,128,0,369298:0:0:0:50:Hihat.wav
109,192,368811,1,0,0:0:0:0:
475,192,368811,1,0,0:0:0:0:
329,192,369136,128,0,369298:0:0:0:50:Hihat.wav
109,192,369136,1,0,0:0:0:0:
256,192,369298,128,0,369460:0:0:0:60:Additional Kick.wav
475,192,369298,1,0,0:0:0:0:
36,192,369298,128,0,370109:0:0:0:0:
329,192,369460,128,0,369622:0:0:0:50:Hihat.wav
109,192,369460,1,0,0:0:0:0:
402,192,369622,128,0,369784:0:0:0:60:Additional Kick.wav
256,192,369622,1,0,0:0:0:0:
475,192,369784,128,0,369946:0:0:0:60:Additional Kick.wav
109,192,369784,1,0,0:0:0:90:Bell.wav
256,192,369784,1,0,0:0:0:50:Hihat.wav
402,192,369946,128,0,370109:0:0:0:0:
329,192,370109,128,0,370271:0:0:0:60:Additional Kick.wav
109,192,370109,1,0,0:0:0:50:Hihat.wav
182,192,370109,1,0,0:0:0:0:
256,192,370271,128,0,370433:0:0:0:0:
36,192,370271,1,0,0:0:0:0:
182,192,370433,128,0,370595:0:0:0:60:Additional Kick.wav
402,192,370433,1,0,0:0:0:50:Hihat.wav
475,192,370433,1,0,0:0:0:0:
109,192,370595,128,0,370757:0:0:0:0:
256,192,370595,1,0,0:0:0:0:
329,192,370757,128,0,371730:0:0:0:60:Additional Kick.wav
36,192,370757,1,0,0:0:0:50:Hihat.wav
475,192,370757,1,0,0:0:0:0:
109,192,371082,128,0,371244:0:0:0:50:Hihat.wav
475,192,371082,1,0,0:0:0:0:
36,192,371082,1,0,0:0:0:0:
182,192,371244,128,0,371406:0:0:0:60:Additional Kick.wav
402,192,371244,1,0,0:0:0:0:
256,192,371406,128,0,371568:0:0:0:50:Hihat.wav
475,192,371406,1,0,0:0:0:0:
402,192,371568,128,0,371730:0:0:0:60:Additional Kick.wav
36,192,371568,1,0,0:0:0:0:
475,192,371730,128,0,371892:0:0:0:60:Additional Kick.wav
256,192,371730,128,0,372379:0:0:0:40:Click.wav
36,192,371730,1,0,0:0:0:50:Hihat.wav
402,192,371892,128,0,372054:0:0:0:0:
329,192,372054,128,0,372217:0:0:0:60:Additional Kick.wav
109,192,372054,1,0,0:0:0:50:Hihat.wav
475,192,372054,1,0,0:0:0:0:
402,192,372217,128,8,372379:3:0:0:40:
36,192,372217,1,0,0:0:0:0:
182,192,372298,1,8,3:0:0:40:
329,192,372379,128,0,372541:0:0:0:60:Additional Kick.wav
36,192,372379,1,8,3:0:0:40:
256,192,372541,128,8,372703:3:0:0:40:
475,192,372541,1,0,0:0:0:0:
109,192,372541,1,0,0:0:0:0:
36,192,372703,1,0,0:0:0:60:Additional Kick.wav
475,192,372703,1,0,0:0:0:50:Hihat.wav
182,192,372703,128,0,374000:0:0:0:0:
402,192,373027,128,0,373190:0:0:0:50:Hihat.wav
329,192,373027,1,0,0:0:0:0:
109,192,373190,128,0,374649:0:0:0:60:Additional Kick.wav
256,192,373190,128,0,373352:0:0:0:0:
475,192,373190,1,0,0:0:0:0:
329,192,373352,128,0,373514:0:0:0:50:Hihat.wav
36,192,373352,1,0,0:0:0:0:
402,192,373514,128,0,373676:0:0:0:60:Additional Kick.wav
256,192,373514,1,0,0:0:0:0:
475,192,373676,128,0,373838:0:0:0:60:Additional Kick.wav
36,192,373676,1,0,0:0:0:90:Bell.wav
329,192,373676,1,0,0:0:0:50:Hihat.wav
402,192,373838,128,0,374000:0:0:0:0:
256,192,374000,128,0,374649:0:0:0:60:Additional Kick.wav
329,192,374000,1,0,0:0:0:50:Hihat.wav
36,192,374000,1,0,0:0:0:0:
475,192,374163,1,0,0:0:0:0:
329,192,374325,128,0,374649:0:0:0:60:Additional Kick.wav
36,192,374325,1,0,0:0:0:50:Hihat.wav
402,192,374325,1,0,0:0:0:0:
182,192,374487,1,0,0:0:0:0:
36,192,374649,128,0,375622:0:0:0:60:Additional Kick.wav
402,192,374649,128,0,375136:0:0:0:50:Hihat.wav
475,192,374649,1,0,0:0:0:0:
256,192,374973,1,0,0:0:0:50:Hihat.wav
475,192,375136,128,0,375622:0:0:0:60:Additional Kick.wav
182,192,375136,1,0,0:0:0:0:
109,192,375136,1,0,0:0:0:0:
329,192,375298,1,0,0:0:0:50:Hihat.wav
402,192,375460,1,0,0:0:0:60:Additional Kick.wav
182,192,375460,1,0,0:0:0:0:
329,192,375622,128,0,375946:0:0:0:60:Additional Kick.wav
402,192,375622,1,0,0:0:0:40:Click.wav
256,192,375622,1,0,0:0:0:50:Hihat.wav
109,192,375622,128,0,375784:0:0:0:0:
182,192,375784,128,0,375946:0:0:0:0:
256,192,375946,128,0,376271:0:0:0:60:Additional Kick.wav
475,192,375946,1,0,0:0:0:50:Hihat.wav
402,192,375946,128,0,376109:0:0:0:0:
109,192,376109,128,0,376271:0:0:0:0:
182,192,376271,128,0,376595:0:0:0:60:Additional Kick.wav
402,192,376271,1,0,0:0:0:50:Hihat.wav
36,192,376271,128,0,376433:0:0:0:0:
475,192,376433,128,8,376595:3:0:0:40:
329,192,376433,1,0,0:0:0:0:
256,192,376514,1,8,3:0:0:40:
402,192,376595,1,0,0:0:0:50:Clapsnare Instru.wav
109,192,376595,1,0,0:0:0:60:Additional Kick.wav
329,192,376595,1,0,0:0:0:50:Hihat.wav
109,192,377082,128,0,377892:0:0:0:50:Hihat.wav
329,192,377082,1,0,0:0:0:60:Additional Kick.wav
475,192,377082,1,0,0:0:0:0:
36,192,377082,1,0,0:0:0:0:
256,192,377406,1,0,0:0:0:60:Additional Kick.wav
36,192,377406,1,0,0:0:0:0:
329,192,377487,1,0,0:0:0:0:
402,192,377568,128,0,377730:0:0:0:60:Additional Kick.wav
475,192,377568,1,0,0:0:0:90:Bell.wav
182,192,377568,1,0,0:0:0:50:Hihat.wav
329,192,377730,128,0,377892:0:0:0:0:
256,192,377892,128,0,378054:0:0:0:60:Additional Kick.wav
402,192,377892,128,0,378541:0:0:0:50:Hihat.wav
36,192,377892,1,0,0:0:0:0:
182,192,378054,128,0,378217:0:0:0:0:
36,192,378054,1,0,0:0:0:0:
475,192,378217,128,0,378541:0:0:0:60:Additional Kick.wav
109,192,378217,128,0,378379:0:0:0:50:Hihat.wav
329,192,378217,1,0,0:0:0:0:
36,192,378379,128,0,378541:0:0:0:0:
256,192,378379,1,0,0:0:0:0:
329,192,378541,128,0,380487:0:0:0:60:Additional Kick.wav
109,192,378541,1,0,0:0:0:50:Hihat.wav
256,192,378541,1,0,0:0:0:0:
109,192,378865,128,0,379027:0:0:0:50:Hihat.wav
402,192,378865,1,0,0:0:0:0:
182,192,379027,128,0,379190:0:0:0:60:Additional Kick.wav
475,192,379027,1,0,0:0:0:0:
256,192,379190,128,0,379352:0:0:0:50:Hihat.wav
36,192,379190,1,0,0:0:0:0:
402,192,379352,128,0,379514:0:0:0:60:Additional Kick.wav
109,192,379352,1,0,0:0:0:0:
182,192,379514,128,0,380487:0:0:0:60:Additional Kick.wav
475,192,379514,128,0,379676:0:0:0:40:Click.wav
109,192,379514,1,0,0:0:0:50:Hihat.wav
402,192,379676,128,0,379838:0:0:0:0:
256,192,379838,128,0,380000:0:0:0:60:Additional Kick.wav
402,192,380000,1,0,0:0:0:50:Clapsnare Instru.wav
475,192,380000,1,0,0:0:0:0:
109,192,380082,1,0,0:0:0:50:Clapsnare Instru.wav
36,192,380082,1,0,0:0:0:0:
475,192,380163,1,0,0:0:0:60:Additional Kick.wav
402,192,380163,1,0,0:0:0:50:Clapsnare Instru.wav
256,192,380325,1,0,0:0:0:50:Clapsnare Instru.wav
402,192,380325,1,0,0:0:0:0:
475,192,380487,1,0,0:0:0:60:Additional Kick.wav
36,192,380487,1,0,0:0:0:50:Clapsnare Instru.wav
256,192,380487,1,0,0:0:0:50:Hihat.wav
109,192,380487,1,0,0:0:0:0:
329,192,380649,1,0,0:0:0:0:
182,192,380649,1,0,0:0:0:0:
329,192,380811,1,0,0:0:0:50:Hihat.wav
182,192,380811,1,0,0:0:0:0:
109,192,380973,1,0,0:0:0:60:Additional Kick.wav
402,192,380973,1,0,0:0:0:50:Clapsnare Instru.wav
36,192,380973,1,0,0:0:0:0:
182,192,381136,1,0,0:0:0:50:Hihat.wav
329,192,381136,1,0,0:0:0:0:
329,192,381298,1,0,0:0:0:60:Additional Kick.wav
475,192,381298,1,0,0:0:0:0:
36,192,381298,1,0,0:0:0:0:
109,192,381460,1,0,0:0:0:60:Additional Kick.wav
402,192,381460,128,0,381784:0:0:0:90:Bell.wav
182,192,381460,128,0,381784:0:0:0:50:Hihat.wav
256,192,381784,1,0,0:0:0:60:Additional Kick.wav
109,192,381784,1,0,0:0:0:50:Hihat.wav
402,192,381865,1,0,0:0:0:60:Additional Kick.wav
109,192,381946,1,0,0:0:0:60:Additional Kick.wav
402,192,382027,1,0,0:0:0:60:Additional Kick.wav
182,192,382109,1,8,3:0:0:40:
36,192,382109,1,0,0:0:0:50:Hihat.wav
329,192,382190,1,8,3:0:0:40:
182,192,382271,1,8,3:0:0:40:
329,192,382352,1,8,3:0:0:40:
475,192,382433,1,0,0:0:0:60:Additional Kick.wav
256,192,382433,1,0,0:0:0:50:Hihat.wav
109,192,382433,1,0,0:0:0:0:
182,192,382595,1,0,0:0:0:0:
402,192,382757,1,0,0:0:0:50:Clapsnare Instru.wav
182,192,382757,1,0,0:0:0:50:Hihat.wav
36,192,382757,1,0,0:0:0:0:
475,192,382919,1,0,0:0:0:60:Additional Kick.wav
109,192,382919,1,0,0:0:0:0:
402,192,382919,1,0,0:0:0:0:
329,192,383082,1,0,0:0:0:50:Hihat.wav
329,192,383244,1,0,0:0:0:50:Clapsnare Instru.wav
182,192,383244,1,0,0:0:0:0:
36,192,383244,1,0,0:0:0:0:
256,192,383406,1,0,0:0:0:60:Additional Kick.wav
182,192,383406,1,0,0:0:0:90:Bell.wav
475,192,383406,1,0,0:0:0:50:Hihat.wav
109,192,383406,1,0,0:0:0:0:
256,192,383730,1,0,0:0:0:50:Clapsnare Instru.wav
182,192,383730,1,0,0:0:0:50:Hihat.wav
402,192,383811,1,0,0:0:0:50:Clapsnare Instru.wav
475,192,383811,1,0,0:0:0:0:
109,192,383892,1,0,0:0:0:50:Clapsnare Instru.wav
182,192,383892,1,0,0:0:0:0:
402,192,383973,1,0,0:0:0:50:Clapsnare Instru.wav
329,192,383973,1,0,0:0:0:0:
36,192,384054,1,0,0:0:0:50:Clapsnare Instru.wav
109,192,384054,1,0,0:0:0:50:Hihat.wav
329,192,384136,1,0,0:0:0:50:Clapsnare Instru.wav
256,192,384136,1,0,0:0:0:0:
109,192,384217,1,0,0:0:0:50:Clapsnare Instru.wav
36,192,384217,1,0,0:0:0:0:
182,192,384298,1,0,0:0:0:50:Clapsnare Instru.wav
256,192,384298,1,0,0:0:0:0:
475,192,384379,1,0,0:0:0:90:Bell.wav
402,192,384379,1,0,0:0:0:60:Additional Kick.wav
329,192,384379,128,0,385352:0:0:0:50:Hihat.wav
109,192,384541,1,0,0:0:0:0:
402,192,384703,1,0,0:0:0:50:Hihat.wav
256,192,384703,1,0,0:0:0:0:
402,192,384865,1,0,0:0:0:60:Additional Kick.wav
109,192,384865,1,0,0:0:0:0:
36,192,384865,1,0,0:0:0:0:
182,192,385027,1,0,0:0:0:50:Hihat.wav
475,192,385027,1,0,0:0:0:0:
256,192,385190,1,0,0:0:0:60:Additional Kick.wav
256,192,385352,1,0,0:0:0:90:Bell.wav
109,192,385352,1,0,0:0:0:60:Additional Kick.wav
475,192,385352,1,0,0:0:0:50:Hihat.wav
402,192,385676,128,0,386000:0:0:0:60:Additional Kick.wav
182,192,385676,1,0,0:0:0:50:Hihat.wav
109,192,385676,1,0,0:0:0:0:
329,192,385838,128,0,386163:0:0:0:0:
256,192,385838,1,0,0:0:0:0:
36,192,386000,128,0,386325:0:0:0:60:Additional Kick.wav
475,192,386000,1,0,0:0:0:50:Hihat.wav
182,192,386000,1,0,0:0:0:0:
256,192,386163,1,0,0:0:0:0:
109,192,386163,128,0,386325:0:0:0:0:
182,192,386325,128,0,387298:0:0:0:60:Additional Kick.wav
329,192,386325,1,0,0:0:0:50:Hihat.wav
402,192,386325,1,0,0:0:0:0:
36,192,386487,1,0,0:0:0:0:
256,192,386649,1,0,0:0:0:50:Hihat.wav
329,192,386811,1,0,0:0:0:60:Additional Kick.wav
475,192,386811,1,0,0:0:0:0:
109,192,386973,1,0,0:0:0:50:Hihat.wav
36,192,386973,1,0,0:0:0:0:
329,192,387136,1,0,0:0:0:60:Additional Kick.wav
475,192,387136,1,0,0:0:0:0:
475,192,387298,1,0,0:0:0:40:Click.wav
402,192,387298,1,0,0:0:0:60:Additional Kick.wav
36,192,387298,1,0,0:0:0:50:Hihat.wav
256,192,387298,1,0,0:0:0:0:
182,192,387622,128,0,387784:0:0:0:60:Additional Kick.wav
329,192,387622,1,0,0:0:0:50:Hihat.wav
475,192,387622,1,0,0:0:0:0:
256,192,387784,128,8,387946:3:0:0:40:
36,192,387784,1,0,0:0:0:0:
109,192,387865,1,8,3:0:0:40:
329,192,387946,128,8,388109:3:0:0:40:
36,192,387946,1,0,0:0:0:60:Additional Kick.wav
475,192,387946,1,0,0:0:0:50:Hihat.wav
402,192,388109,128,8,388271:3:0:0:40:
182,192,388109,1,0,0:0:0:0:
36,192,388109,1,0,0:0:0:0:
475,192,388271,128,0,388757:0:0:0:60:Additional Kick.wav
256,192,388271,128,0,388487:0:0:0:50:Hihat.wav
36,192,388271,128,0,388487:0:0:0:0:
329,192,388595,1,0,0:0:0:50:Hihat.wav
109,192,388595,1,0,0:0:0:0:
182,192,388757,128,0,388973:0:0:0:60:Additional Kick.wav
36,192,388757,128,0,388973:0:0:0:50:Hihat.wav
402,192,388757,128,0,389244:0:0:0:0:
256,192,389082,1,0,0:0:0:60:Additional Kick.wav
109,192,389082,1,0,0:0:0:50:Hihat.wav
329,192,389244,128,0,389568:0:0:0:60:Additional Kick.wav
475,192,389244,1,0,0:0:0:90:Bell.wav
36,192,389244,128,0,389568:0:0:0:50:Hihat.wav
182,192,389244,128,0,389568:0:0:0:50:Clapsnare Instru.wav
256,192,389568,128,0,389892:0:0:0:60:Additional Kick.wav
109,192,389568,1,0,0:0:0:50:Hihat.wav
475,192,389568,1,0,0:0:0:0:
329,192,389730,1,0,0:0:0:0:
109,192,389892,128,0,390217:0:0:0:60:Additional Kick.wav
402,192,389892,1,0,0:0:0:50:Hihat.wav
256,192,390054,1,0,0:0:0:0:
36,192,390217,128,0,391190:0:0:0:50:Hihat.wav
329,192,390217,1,0,0:0:0:60:Additional Kick.wav
402,192,390217,1,0,0:0:0:0:
182,192,390541,1,0,0:0:0:50:Hihat.wav
256,192,390703,1,0,0:0:0:60:Additional Kick.wav
402,192,390703,1,0,0:0:0:0:
182,192,390865,1,0,0:0:0:50:Hihat.wav
109,192,391027,1,0,0:0:0:60:Additional Kick.wav
329,192,391027,1,0,0:0:0:0:
329,192,391190,1,0,0:0:0:50:Hihat.wav
109,192,391190,1,0,0:0:0:60:Additional Kick.wav
475,192,391190,1,0,0:0:0:40:Click.wav
256,192,391190,1,0,0:0:0:0:
36,192,391514,1,0,0:0:0:50:Hihat.wav
182,192,391514,1,0,0:0:0:60:Additional Kick.wav
402,192,391514,1,0,0:0:0:0:
182,192,391838,1,0,0:0:0:50:Hihat.wav
109,192,391838,1,0,0:0:0:60:Additional Kick.wav
329,192,391838,128,0,392000:0:0:0:50:Clapsnare Instru.wav
182,192,392000,1,0,0:0:0:50:Clapsnare Instru.wav
109,192,392000,1,0,0:0:0:0:
402,192,392000,128,0,392163:0:0:0:0:
475,192,392163,1,0,0:0:0:50:Hihat.wav
256,192,392163,128,0,392217:0:0:0:60:Additional Kick.wav
36,192,392163,128,0,392217:0:0:0:90:Bell.wav
402,192,392325,1,0,0:0:0:0:
182,192,392487,1,0,0:0:0:50:Hihat.wav
329,192,392487,1,0,0:0:0:0:
256,192,392649,128,0,392703:0:0:0:60:Additional Kick.wav
36,192,392649,128,0,392703:0:0:0:0:
475,192,392649,1,0,0:0:0:0:
329,192,392811,1,0,0:0:0:50:Hihat.wav
109,192,392811,1,0,0:0:0:0:
182,192,392973,1,0,0:0:0:60:Additional Kick.wav
36,192,392973,128,0,393027:0:0:0:0:
402,192,392973,128,0,393027:0:0:0:0:
182,192,393136,128,0,393190:0:0:0:50:Hihat.wav
475,192,393136,128,0,393190:0:0:0:60:Additional Kick.wav
329,192,393136,1,0,0:0:0:90:Bell.wav
36,192,393136,1,0,0:0:0:0:
329,192,393460,128,0,393784:0:0:0:50:Hihat.wav
182,192,393460,128,0,393514:0:0:0:60:Additional Kick.wav
36,192,393460,128,0,393514:0:0:0:0:
36,192,393622,1,0,0:0:0:0:
475,192,393784,128,0,394109:0:0:0:50:Hihat.wav
256,192,393784,128,0,393838:0:0:0:60:Additional Kick.wav
109,192,393784,128,0,393838:0:0:0:0:
256,192,393946,1,0,0:0:0:0:
402,192,394109,1,0,0:0:0:50:Hihat.wav
182,192,394109,128,0,394163:0:0:0:60:Additional Kick.wav
36,192,394109,128,0,394163:0:0:0:0:
256,192,394271,1,0,0:0:0:0:
402,192,394433,1,0,0:0:0:50:Hihat.wav
109,192,394433,1,0,0:0:0:0:
329,192,394595,128,0,394649:0:0:0:60:Additional Kick.wav
475,192,394595,128,0,394649:0:0:0:0:
182,192,394595,1,0,0:0:0:0:
256,192,394757,1,0,0:0:0:50:Hihat.wav
109,192,394757,1,0,0:0:0:0:
182,192,394919,128,0,394973:0:0:0:60:Additional Kick.wav
36,192,394919,128,0,394973:0:0:0:0:
329,192,394919,1,0,0:0:0:0:
329,192,395082,128,0,395136:0:0:0:50:Hihat.wav
475,192,395082,128,0,395136:0:0:0:60:Additional Kick.wav
182,192,395082,1,0,0:0:0:40:Click.wav
109,192,395082,1,0,0:0:0:0:
182,192,395406,128,0,395460:0:0:0:50:Hihat.wav
36,192,395406,128,0,395460:0:0:0:60:Additional Kick.wav
329,192,395406,1,0,0:0:0:0:
329,192,395568,1,8,3:0:0:40:
182,192,395649,1,8,3:0:0:40:
109,192,395730,128,0,395784:0:0:0:50:Hihat.wav
402,192,395730,1,0,0:0:0:60:Additional Kick.wav
36,192,395730,128,8,395784:3:0:0:40:
402,192,395892,1,8,3:0:0:40:
182,192,395892,1,0,0:0:0:0:
36,192,396054,1,0,0:0:0:50:Hihat.wav
109,192,396054,1,0,0:0:0:60:Additional Kick.wav
329,192,396054,128,0,396109:0:0:0:90:Bell.wav
475,192,396054,128,0,396109:0:0:0:0:
256,192,396217,1,0,0:0:0:0:
182,192,396379,1,0,0:0:0:50:Hihat.wav
402,192,396379,1,0,0:0:0:0:
329,192,396541,128,0,396595:0:0:0:60:Additional Kick.wav
36,192,396541,1,0,0:0:0:0:
109,192,396541,128,0,396595:0:0:0:0:
475,192,396541,1,0,0:0:0:0:
182,192,396703,1,0,0:0:0:50:Hihat.wav
402,192,396703,1,0,0:0:0:0:
109,192,396865,128,0,396919:0:0:0:60:Additional Kick.wav
329,192,396865,128,0,396919:0:0:0:0:
36,192,396865,1,0,0:0:0:0:
182,192,397027,128,0,397082:0:0:0:50:Hihat.wav
475,192,397027,128,0,397082:0:0:0:60:Additional Kick.wav
329,192,397027,1,0,0:0:0:90:Bell.wav
329,192,397352,128,0,397406:0:0:0:50:Hihat.wav
182,192,397352,128,0,397406:0:0:0:60:Additional Kick.wav
36,192,397352,1,0,0:0:0:0:
182,192,397514,1,0,0:0:0:0:
329,192,397676,128,0,397730:0:0:0:50:Hihat.wav
475,192,397676,128,0,397730:0:0:0:60:Additional Kick.wav
36,192,397676,1,0,0:0:0:0:
475,192,397838,1,0,0:0:0:0:
402,192,398000,128,0,398054:0:0:0:50:Hihat.wav
256,192,398000,128,0,398054:0:0:0:60:Additional Kick.wav
109,192,398000,1,0,0:0:0:0:
36,192,398163,1,0,0:0:0:0:
329,192,398325,1,0,0:0:0:50:Hihat.wav
182,192,398325,1,0,0:0:0:0:
256,192,398487,128,0,398541:0:0:0:60:Additional Kick.wav
109,192,398487,1,0,0:0:0:0:
402,192,398487,128,0,398541:0:0:0:0:
182,192,398649,1,0,0:0:0:50:Hihat.wav
36,192,398649,1,0,0:0:0:0:
402,192,398811,128,0,398865:0:0:0:60:Additional Kick.wav
109,192,398811,128,0,398865:0:0:0:0:
475,192,398811,1,0,0:0:0:0:
109,192,398973,1,0,0:0:0:50:Hihat.wav
402,192,398973,128,0,399027:0:0:0:60:Additional Kick.wav
256,192,398973,128,0,399027:0:0:0:40:Click.wav
36,192,398973,1,0,0:0:0:0:
402,192,399298,128,0,399352:0:0:0:50:Hihat.wav
256,192,399298,128,0,399352:0:0:0:60:Additional Kick.wav
36,192,399298,1,0,0:0:0:0:
109,192,399460,1,0,0:0:0:0:
402,192,399622,128,0,399676:0:0:0:50:Hihat.wav
329,192,399622,128,0,399676:0:0:0:60:Additional Kick.wav
182,192,399622,1,0,0:0:0:0:
109,192,399784,1,8,3:0:0:40:
36,192,399784,1,0,0:0:0:0:
182,192,399865,1,8,3:0:0:40:
256,192,399865,1,0,0:0:0:0:
475,192,399946,128,0,400000:0:0:0:50:Hihat.wav
329,192,399946,128,0,400000:0:0:0:60:Additional Kick.wav
109,192,399946,1,0,0:0:0:90:Bell.wav
36,192,399946,1,8,3:0:0:40:
109,192,400271,1,0,0:0:0:50:Hihat.wav
256,192,400271,1,0,0:0:0:0:
109,192,400433,1,0,0:0:0:60:Additional Kick.wav
475,192,400433,1,0,0:0:0:50:Clapsnare Instru.wav
182,192,400433,128,0,400487:0:0:0:0:
329,192,400433,128,0,400487:0:0:0:0:
256,192,400595,1,0,0:0:0:50:Hihat.wav
36,192,400595,1,0,0:0:0:0:
182,192,400757,128,0,400811:0:0:0:60:Additional Kick.wav
402,192,400757,128,0,400811:0:0:0:0:
109,192,400757,1,0,0:0:0:0:
402,192,400919,128,0,400973:0:0:0:50:Hihat.wav
256,192,400919,128,0,400973:0:0:0:60:Additional Kick.wav
475,192,400919,1,0,0:0:0:50:Clapsnare Instru.wav
36,192,400919,1,0,0:0:0:0:
475,192,401244,128,0,401298:0:0:0:50:Hihat.wav
256,192,401244,128,0,401298:0:0:0:60:Additional Kick.wav
109,192,401244,1,0,0:0:0:0:
182,192,401406,1,0,0:0:0:50:Clapsnare Instru.wav
109,192,401406,1,0,0:0:0:0:
329,192,401406,1,0,0:0:0:0:
36,192,401406,1,0,0:0:0:0:
402,192,401568,128,0,401622:0:0:0:50:Hihat.wav
256,192,401568,128,0,401622:0:0:0:60:Additional Kick.wav
475,192,401568,1,0,0:0:0:0:
475,192,401730,1,0,0:0:0:50:Clapsnare Instru.wav
182,192,401730,1,0,0:0:0:0:
109,192,401730,1,0,0:0:0:0:
36,192,401730,1,0,0:0:0:0:
402,192,401892,1,0,0:0:0:50:Hihat.wav
36,192,401892,1,0,0:0:0:60:Additional Kick.wav
109,192,401892,1,0,0:0:0:50:Clapsnare Instru.wav
329,192,401892,128,0,401946:0:0:0:0:
402,192,402054,1,0,0:0:0:50:Clapsnare Instru.wav
256,192,402054,1,0,0:0:0:0:
182,192,402054,1,0,0:0:0:0:
329,192,402217,1,0,0:0:0:50:Hihat.wav
36,192,402217,1,0,0:0:0:50:Clapsnare Instru.wav
475,192,402217,1,0,0:0:0:60:Additional Kick.wav
109,192,402217,128,0,402271:0:0:0:0:
402,192,402379,1,0,0:0:0:50:Clapsnare Instru.wav
182,192,402379,1,0,0:0:0:0:
36,192,402379,1,0,0:0:0:0:
475,192,402541,1,0,0:0:0:50:Hihat.wav
256,192,402541,1,0,0:0:0:50:Clapsnare Instru.wav
109,192,402541,1,0,0:0:0:60:Additional Kick.wav
329,192,402541,128,0,402595:0:0:0:0:
256,192,402703,1,0,0:0:0:50:Clapsnare Instru.wav
402,192,402703,1,0,0:0:0:0:
36,192,402703,1,0,0:0:0:0:
329,192,402865,1,0,0:0:0:50:Hihat.wav
109,192,402865,1,0,0:0:0:50:Clapsnare Instru.wav
182,192,402865,1,0,0:0:0:60:Additional Kick.wav
475,192,402865,128,0,402919:0:0:0:0:
256,192,403027,1,0,0:0:0:50:Clapsnare Instru.wav
109,192,403027,1,0,0:0:0:0:
402,192,403027,1,0,0:0:0:0:
475,192,403190,1,0,0:0:0:50:Hihat.wav
182,192,403190,1,0,0:0:0:50:Clapsnare Instru.wav
329,192,403190,128,0,403244:0:0:0:60:Additional Kick.wav
36,192,403190,128,0,403244:0:0:0:0:
402,192,403352,1,0,0:0:0:50:Clapsnare Instru.wav
256,192,403352,1,0,0:0:0:0:
36,192,403352,1,0,0:0:0:0:
109,192,403514,1,0,0:0:0:50:Hihat.wav
475,192,403514,1,0,0:0:0:50:Clapsnare Instru.wav
402,192,403514,1,0,0:0:0:60:Additional Kick.wav
182,192,403514,1,8,3:0:0:40:
256,192,403595,1,8,3:0:0:40:
329,192,403595,1,0,0:0:0:0:
109,192,403676,1,0,0:0:0:60:Additional Kick.wav
36,192,403676,1,0,0:0:0:0:
329,192,403757,1,0,0:0:0:60:Additional Kick.wav
402,192,403757,1,0,0:0:0:0:
475,192,403838,1,0,0:0:0:60:Additional Kick.wav
256,192,403838,1,0,0:0:0:65:Click.wav
182,192,403838,1,0,0:0:0:50:Clapsnare Instru.wav
109,192,403838,1,0,0:0:0:0:
36,192,403838,1,0,0:0:0:0:
329,192,404757,1,0,0:0:0:30:Clapsnare Instru.wav
402,192,404757,1,0,0:0:0:0:
182,192,404811,1,0,0:0:0:50:Clapsnare Instru.wav
109,192,404811,1,0,0:0:0:0:
36,192,404811,1,0,0:0:0:0:
182,192,405136,1,0,0:0:0:50:Clapsnare Instru.wav
109,192,405136,1,0,0:0:0:0:
329,192,405136,128,0,405298:0:0:0:0:
182,192,405298,1,0,0:0:0:50:Clapsnare Instru.wav
109,192,405298,1,0,0:0:0:0:
475,192,405298,128,0,405460:0:0:0:0:
329,192,405460,1,0,0:0:0:50:Clapsnare Instru.wav
402,192,405460,1,0,0:0:0:0:
36,192,405460,128,0,405622:0:0:0:0:
329,192,405622,1,0,0:0:0:50:Clapsnare Instru.wav
402,192,405622,1,0,0:0:0:0:
182,192,405622,128,0,405784:0:0:0:0:
475,192,405784,1,0,0:0:0:60:Additional Kick.wav
256,192,405784,128,0,406433:0:0:0:50:Hihat.wav
36,192,405784,1,0,0:0:0:90:Bell.wav
329,192,405784,128,0,406433:0:0:0:0:
402,192,406109,1,0,0:0:0:50:Hihat.wav
109,192,406109,1,0,0:0:0:0:
109,192,406271,1,0,0:0:0:0:
402,192,406433,1,0,0:0:0:50:Hihat.wav
36,192,406433,1,0,0:0:0:60:Additional Kick.wav
475,192,406433,1,0,0:0:0:0:
36,192,406595,1,0,0:0:0:0:
402,192,406757,128,0,407730:0:0:0:50:Hihat.wav
475,192,406757,128,0,407406:0:0:0:60:Clapsnare Instru.wav
182,192,406757,1,0,0:0:0:0:
329,192,406757,1,0,0:0:0:0:
256,192,407082,1,0,0:0:0:50:Hihat.wav
109,192,407082,1,0,0:0:0:0:
256,192,407244,1,0,0:0:0:0:
329,192,407406,128,0,408217:0:0:0:50:Hihat.wav
182,192,407406,1,0,0:0:0:0:
36,192,407406,1,0,0:0:0:0:
182,192,407568,1,0,0:0:0:0:
256,192,407730,128,0,408217:0:0:0:50:Hihat.wav
36,192,407730,1,0,0:0:0:60:Additional Kick.wav
475,192,407730,1,0,0:0:0:0:
475,192,408054,1,0,0:0:0:50:Hihat.wav
182,192,408054,1,0,0:0:0:0:
402,192,408217,128,0,408379:0:0:0:0:
36,192,408217,128,0,408379:0:0:0:0:
182,192,408217,1,0,0:0:0:0:
109,192,408379,128,0,408703:0:0:0:50:Hihat.wav
256,192,408379,128,0,408703:0:0:0:60:Additional Kick.wav
475,192,408379,1,0,0:0:0:0:
329,192,408379,1,0,0:0:0:0:
475,192,408541,1,0,0:0:0:0:
182,192,408703,128,0,409352:0:0:0:50:Hihat.wav
402,192,408703,128,0,409676:0:0:0:60:Clapsnare Instru.wav
36,192,408703,1,0,0:0:0:0:
329,192,408703,1,0,0:0:0:0:
36,192,409027,1,0,0:0:0:50:Hihat.wav
475,192,409027,1,0,0:0:0:0:
475,192,409190,1,0,0:0:0:0:
109,192,409352,128,0,409514:0:0:0:50:Hihat.wav
329,192,409352,1,0,0:0:0:0:
182,192,409514,128,0,409676:0:0:0:0:
329,192,409514,1,0,0:0:0:0:
475,192,409676,128,0,410325:0:0:0:50:Hihat.wav
256,192,409676,128,0,410325:0:0:0:60:Additional Kick.wav
109,192,409676,1,0,0:0:0:0:
36,192,409676,1,0,0:0:0:0:
402,192,410000,1,0,0:0:0:50:Hihat.wav
182,192,410000,1,0,0:0:0:0:
182,192,410163,1,0,0:0:0:0:
402,192,410325,128,0,410649:0:0:0:50:Hihat.wav
109,192,410325,128,0,410487:0:0:0:60:Additional Kick.wav
329,192,410325,1,0,0:0:0:0:
36,192,410325,1,0,0:0:0:0:
182,192,410487,128,0,410649:0:0:0:0:
329,192,410487,1,0,0:0:0:0:
475,192,410649,128,0,411298:0:0:0:50:Hihat.wav
256,192,410649,1,0,0:0:0:60:Clapsnare Instru.wav
36,192,410649,128,0,411622:0:0:0:0:
182,192,410973,128,0,411622:0:0:0:50:Hihat.wav
402,192,410973,1,0,0:0:0:0:
402,192,411136,1,0,0:0:0:0:
109,192,411298,1,0,0:0:0:50:Hihat.wav
256,192,411298,1,0,0:0:0:0:
329,192,411298,128,0,412757:0:0:0:0:
256,192,411460,1,0,0:0:0:0:
109,192,411622,1,0,0:0:0:50:Hihat.wav
475,192,411622,128,0,412757:0:0:0:60:Additional Kick.wav
402,192,411622,1,0,0:0:0:0:
109,192,411946,1,0,0:0:0:50:Hihat.wav
402,192,411946,1,0,0:0:0:0:
109,192,412109,1,0,0:0:0:0:
402,192,412271,1,0,0:0:0:50:Hihat.wav
182,192,412271,1,0,0:0:0:60:Additional Kick.wav
256,192,412433,1,0,0:0:0:0:
182,192,412554,1,0,0:0:0:0:
109,192,412595,1,0,0:0:0:50:Hihat.wav
402,192,412595,1,0,0:0:0:60:Clapsnare Instru.wav
36,192,412595,1,0,0:0:0:0:
402,192,412757,128,0,413244:0:0:0:0:
182,192,412757,1,0,0:0:0:0:
256,192,412919,128,0,413244:0:0:0:50:Hihat.wav
109,192,412919,1,0,0:0:0:0:
109,192,413082,128,0,413244:0:0:0:0:
475,192,413082,1,0,0:0:0:0:
329,192,413244,128,0,413568:0:0:0:50:Hihat.wav
182,192,413244,1,0,0:0:0:0:
182,192,413406,128,0,413568:0:0:0:0:
402,192,413406,1,0,0:0:0:0:
475,192,413568,1,0,0:0:0:50:Hihat.wav
402,192,413568,1,0,0:0:0:60:Additional Kick.wav
36,192,413568,128,0,414217:0:0:0:0:
329,192,413892,1,0,0:0:0:50:Hihat.wav
109,192,413892,1,0,0:0:0:0:
256,192,414054,1,0,0:0:0:0:
182,192,414217,128,0,414379:0:0:0:50:Hihat.wav
475,192,414217,1,0,0:0:0:60:Additional Kick.wav
329,192,414379,128,0,414541:0:0:0:0:
109,192,414379,1,0,0:0:0:0:
475,192,414541,128,0,415190:0:0:0:50:Hihat.wav
36,192,414541,1,0,0:0:0:60:Clapsnare Instru.wav
182,192,414541,1,0,0:0:0:0:
329,192,414865,1,0,0:0:0:50:Hihat.wav
109,192,414865,128,0,415190:0:0:0:0:
256,192,415027,1,0,0:0:0:0:
329,192,415190,128,0,415514:0:0:0:50:Hihat.wav
182,192,415190,128,0,415352:0:0:0:0:
402,192,415190,1,0,0:0:0:0:
109,192,415352,128,0,415514:0:0:0:0:
182,192,415514,128,0,416000:0:0:0:50:Hihat.wav
475,192,415514,1,0,0:0:0:60:Additional Kick.wav
402,192,415514,1,0,0:0:0:0:
402,192,415838,1,0,0:0:0:50:Hihat.wav
36,192,415838,1,0,0:0:0:0:
329,192,416000,128,0,416487:0:0:0:0:
256,192,416000,1,0,0:0:0:0:
475,192,416163,128,0,416487:0:0:0:50:Hihat.wav
402,192,416163,1,0,0:0:0:60:Additional Kick.wav
109,192,416163,1,0,0:0:0:0:
182,192,416325,1,0,0:0:0:0:
36,192,416487,128,0,417298:0:0:0:50:Hihat.wav
256,192,416487,1,0,0:0:0:60:Clapsnare Instru.wav
109,192,416487,1,0,0:0:0:0:
402,192,416811,128,0,416973:0:0:0:50:Hihat.wav
182,192,416811,1,0,0:0:0:0:
329,192,416973,128,0,417136:0:0:0:0:
256,192,417136,128,0,417298:0:0:0:50:Hihat.wav
109,192,417136,1,0,0:0:0:0:
182,192,417298,128,0,417460:0:0:0:0:
475,192,417298,128,0,417460:0:0:0:0:
36,192,417460,128,0,417784:0:0:0:50:Hihat.wav
109,192,417460,1,0,0:0:0:60:Additional Kick.wav
329,192,417460,128,0,417622:0:0:0:0:
182,192,417784,128,0,418109:0:0:0:50:Hihat.wav
329,192,417784,128,0,417946:0:0:0:0:
402,192,417946,128,0,418109:0:0:0:0:
475,192,418109,128,0,418433:0:0:0:50:Hihat.wav
109,192,418109,128,0,418271:0:0:0:60:Additional Kick.wav
182,192,418271,128,0,418433:0:0:0:0:
109,192,418433,128,0,418757:0:0:0:50:Hihat.wav
36,192,418433,1,0,0:0:0:60:Clapsnare Instru.wav
329,192,418433,128,0,418595:0:0:0:0:
256,192,418757,128,0,419082:0:0:0:50:Hihat.wav
475,192,418757,1,0,0:0:0:0:
329,192,418919,1,0,0:0:0:0:
402,192,419082,128,0,419406:0:0:0:50:Hihat.wav
182,192,419082,128,0,419244:0:0:0:0:
109,192,419244,128,0,419406:0:0:0:0:
475,192,419406,128,0,419730:0:0:0:50:Hihat.wav
36,192,419406,128,0,419568:0:0:0:60:Additional Kick.wav
256,192,419406,1,0,0:0:0:0:
36,192,419730,128,0,420054:0:0:0:50:Hihat.wav
182,192,419730,1,0,0:0:0:0:
402,192,419730,1,0,0:0:0:0:
329,192,419892,1,0,0:0:0:0:
182,192,420054,128,0,420379:0:0:0:50:Hihat.wav
475,192,420054,128,0,420217:0:0:0:60:Additional Kick.wav
256,192,420054,1,0,0:0:0:0:
402,192,420217,128,0,420379:0:0:0:0:
329,192,420379,128,0,421352:0:0:0:50:Hihat.wav
109,192,420379,128,0,420541:0:0:0:60:Clapsnare Instru.wav
36,192,420379,1,0,0:0:0:0:
36,192,420703,128,0,421352:0:0:0:50:Hihat.wav
109,192,420703,1,0,0:0:0:0:
402,192,420703,1,0,0:0:0:0:
475,192,420865,1,0,0:0:0:60:Clapsnare Instru.wav
256,192,420865,1,0,0:0:0:0:
109,192,420865,1,0,0:0:0:0:
256,192,421027,128,0,421352:0:0:0:50:Hihat.wav
402,192,421027,1,0,0:0:0:60:Clapsnare Instru.wav
475,192,421027,1,0,0:0:0:0:
182,192,421027,1,0,0:0:0:0:
402,192,421190,1,0,0:0:0:60:Clapsnare Instru.wav
109,192,421190,1,0,0:0:0:0:
475,192,421190,1,0,0:0:0:0:
475,192,421352,128,0,422325:0:0:0:60:Additional Kick.wav
182,192,421352,128,0,423298:0:0:0:60:Bell.wav
109,192,421352,1,0,0:0:0:50:Hihat.wav
402,192,421352,1,0,0:0:0:90:Bell.wav
109,192,421676,1,0,0:0:0:60:Bell.wav
329,192,421676,1,0,0:0:0:0:
36,192,421838,1,0,0:0:0:0:
402,192,422000,128,0,422163:0:0:0:60:Bell.wav
256,192,422000,1,0,0:0:0:30:Click.wav
109,192,422163,1,0,0:0:0:0:
402,192,422325,128,0,423784:0:0:0:50:Clapsnare Instru.wav
36,192,422325,1,0,0:0:0:60:Bell.wav
329,192,422325,1,0,0:0:0:0:
329,192,422649,1,0,0:0:0:30:Click.wav
109,192,422649,1,0,0:0:0:60:Bell.wav
329,192,422811,128,0,423298:0:0:0:30:Click.wav
109,192,422973,1,0,0:0:0:30:Click.wav
475,192,422973,1,0,0:0:0:60:Bell.wav
109,192,423136,128,0,423298:0:0:0:30:Click.wav
475,192,423298,1,0,0:0:0:60:Additional Kick.wav
256,192,423298,1,0,0:0:0:60:Bell.wav
36,192,423298,128,0,424271:0:0:0:0:
256,192,423622,1,0,0:0:0:60:Bell.wav
109,192,423622,1,0,0:0:0:0:
329,192,423784,128,0,424271:0:0:0:0:
182,192,423946,128,0,425244:0:0:0:60:Bell.wav
475,192,423946,128,0,424109:0:0:0:30:Click.wav
256,192,424109,1,0,0:0:0:0:
475,192,424271,128,0,425244:0:0:0:50:Clapsnare Instru.wav
402,192,424271,1,0,0:0:0:60:Bell.wav
109,192,424271,1,0,0:0:0:0:
329,192,424595,1,0,0:0:0:30:Click.wav
36,192,424595,1,0,0:0:0:60:Bell.wav
256,192,424757,1,0,0:0:0:30:Click.wav
329,192,424757,128,0,424919:0:0:0:0:
36,192,424919,128,0,425082:0:0:0:30:Click.wav
402,192,424919,1,0,0:0:0:60:Bell.wav
402,192,425082,128,0,425244:0:0:0:30:Click.wav
329,192,425082,1,0,0:0:0:0:
256,192,425244,1,0,0:0:0:60:Bell.wav
109,192,425244,1,0,0:0:0:60:Additional Kick.wav
36,192,425244,128,0,426217:0:0:0:0:
329,192,425406,128,0,425730:0:0:0:0:
182,192,425568,128,0,425730:0:0:0:60:Bell.wav
475,192,425568,1,0,0:0:0:0:
256,192,425730,128,0,426217:0:0:0:0:
402,192,425730,1,0,0:0:0:0:
329,192,425892,128,0,426217:0:0:0:30:Click.wav
109,192,425892,128,0,426054:0:0:0:60:Bell.wav
402,192,426054,128,0,426217:0:0:0:0:
109,192,426217,128,0,427190:0:0:0:60:Bell.wav
182,192,426217,1,0,0:0:0:50:Clapsnare Instru.wav
475,192,426217,1,0,0:0:0:0:
402,192,426379,128,0,426865:0:0:0:0:
329,192,426541,128,0,426865:0:0:0:60:Bell.wav
182,192,426541,1,0,0:0:0:30:Click.wav
182,192,426703,128,0,426865:0:0:0:30:Click.wav
36,192,426865,128,0,427190:0:0:0:60:Bell.wav
256,192,426865,1,0,0:0:0:30:Click.wav
256,192,427027,128,0,427190:0:0:0:30:Click.wav
182,192,427190,128,0,428163:0:0:0:60:Additional Kick.wav
329,192,427190,1,0,0:0:0:60:Bell.wav
475,192,427190,1,0,0:0:0:0:
402,192,427352,128,0,427676:0:0:0:0:
256,192,427514,128,0,427838:0:0:0:60:Bell.wav
109,192,427514,1,0,0:0:0:0:
36,192,427676,128,0,427838:0:0:0:0:
109,192,427838,128,0,428163:0:0:0:60:Bell.wav
475,192,427838,128,0,428000:0:0:0:30:Click.wav
329,192,428000,128,0,428163:0:0:0:0:
36,192,428163,128,0,429136:0:0:0:50:Clapsnare Instru.wav
256,192,428163,128,0,428325:0:0:0:60:Bell.wav
475,192,428163,1,0,0:0:0:90:Bell.wav
402,192,428325,128,0,428487:0:0:0:0:
256,192,428487,128,0,429136:0:0:0:30:Click.wav
329,192,428487,128,0,428649:0:0:0:60:Bell.wav
182,192,428487,1,0,0:0:0:0:
182,192,428649,128,0,428811:0:0:0:30:Click.wav
475,192,428811,128,0,429136:0:0:0:30:Click.wav
329,192,428811,1,0,0:0:0:60:Bell.wav
109,192,428811,128,0,428973:0:0:0:0:
329,192,428973,128,0,429136:0:0:0:30:Click.wav
402,192,429136,128,0,430109:0:0:0:60:Bell.wav
109,192,429136,128,0,431082:0:0:0:60:Additional Kick.wav
182,192,429136,1,0,0:0:0:90:Bell.wav
182,192,429460,1,0,0:0:0:60:Bell.wav
329,192,429460,128,0,429622:0:0:0:0:
256,192,429622,128,0,429784:0:0:0:0:
475,192,429784,128,0,429946:0:0:0:30:Click.wav
36,192,429784,128,0,429946:0:0:0:60:Bell.wav
182,192,429946,128,0,430109:0:0:0:0:
475,192,430109,128,0,432054:0:0:0:60:Bell.wav
36,192,430109,1,0,0:0:0:50:Clapsnare Instru.wav
256,192,430109,1,0,0:0:0:0:
402,192,430433,1,0,0:0:0:60:Bell.wav
182,192,430433,128,0,430595:0:0:0:30:Click.wav
402,192,430595,128,0,430919:0:0:0:30:Click.wav
256,192,430757,1,0,0:0:0:60:Bell.wav
36,192,430757,128,0,430919:0:0:0:30:Click.wav
256,192,430919,128,0,431082:0:0:0:30:Click.wav
36,192,431082,128,0,433027:0:0:0:60:Additional Kick.wav
329,192,431082,1,0,0:0:0:60:Bell.wav
402,192,431082,1,0,0:0:0:0:
256,192,431406,128,0,431568:0:0:0:60:Bell.wav
402,192,431406,1,0,0:0:0:0:
109,192,431568,128,0,431730:0:0:0:0:
256,192,431730,128,0,431892:0:0:0:60:Bell.wav
402,192,431730,128,0,431892:0:0:0:30:Click.wav
182,192,431892,128,0,432054:0:0:0:0:
329,192,432054,128,0,434973:0:0:0:50:Clapsnare Instru.wav
109,192,432054,1,0,0:0:0:60:Bell.wav
402,192,432054,1,0,0:0:0:0:
475,192,432379,1,0,0:0:0:30:Click.wav
256,192,432379,128,0,432541:0:0:0:60:Bell.wav
475,192,432541,128,0,432703:0:0:0:30:Click.wav
182,192,432541,1,0,0:0:0:0:
256,192,432703,128,0,432865:0:0:0:30:Click.wav
109,192,432703,1,0,0:0:0:60:Bell.wav
109,192,432865,128,0,433027:0:0:0:30:Click.wav
402,192,432865,1,0,0:0:0:0:
182,192,433027,128,0,435946:0:0:0:60:Bell.wav
475,192,433027,1,0,0:0:0:60:Additional Kick.wav
256,192,433027,1,0,0:0:0:0:
256,192,433352,128,0,433676:0:0:0:60:Bell.wav
36,192,433352,1,0,0:0:0:0:
475,192,433514,128,0,433676:0:0:0:0:
109,192,433676,128,0,434000:0:0:0:30:Click.wav
36,192,433676,128,0,433838:0:0:0:60:Bell.wav
402,192,433838,128,0,434000:0:0:0:0:
475,192,434000,1,0,0:0:0:60:Bell.wav
256,192,434000,1,0,0:0:0:50:Clapsnare Instru.wav
36,192,434000,1,0,0:0:0:0:
475,192,434325,128,0,434649:0:0:0:60:Bell.wav
36,192,434325,1,0,0:0:0:30:Click.wav
36,192,434487,128,0,434649:0:0:0:30:Click.wav
109,192,434649,128,0,434973:0:0:0:60:Bell.wav
402,192,434649,1,0,0:0:0:30:Click.wav
402,192,434811,128,0,434973:0:0:0:30:Click.wav
36,192,434973,128,0,436919:0:0:0:60:Bell.wav
475,192,434973,1,0,0:0:0:60:Additional Kick.wav
256,192,434973,1,0,0:0:0:0:
402,192,435298,1,0,0:0:0:60:Bell.wav
329,192,435298,1,0,0:0:0:50:Clapsnare Instru.wav
109,192,435298,1,0,0:0:0:0:
329,192,435460,1,0,0:0:0:30:Clapsnare Instru.wav
475,192,435460,1,0,0:0:0:0:
256,192,435460,1,0,0:0:0:0:
402,192,435622,1,0,0:0:0:60:Bell.wav
475,192,435622,1,0,0:0:0:50:Clapsnare Instru.wav
109,192,435622,1,0,0:0:0:0:
109,192,435784,1,0,0:0:0:30:Clapsnare Instru.wav
256,192,435784,1,0,0:0:0:0:
329,192,435784,1,0,0:0:0:0:
475,192,435946,128,0,436919:0:0:0:60:Bell.wav
402,192,435946,1,0,0:0:0:50:Clapsnare Instru.wav
329,192,435946,1,0,0:0:0:60:Additional Kick.wav
109,192,435946,1,0,0:0:0:0:
402,192,436109,1,0,0:0:0:30:Clapsnare Instru.wav
256,192,436109,1,0,0:0:0:0:
182,192,436109,1,0,0:0:0:0:
329,192,436271,1,0,0:0:0:60:Bell.wav
256,192,436271,1,0,0:0:0:50:Clapsnare Instru.wav
182,192,436271,1,0,0:0:0:60:Additional Kick.wav
109,192,436271,1,0,0:0:0:0:
109,192,436433,1,0,0:0:0:30:Clapsnare Instru.wav
256,192,436433,1,0,0:0:0:0:
402,192,436433,1,0,0:0:0:0:
182,192,436595,1,0,0:0:0:60:Bell.wav
329,192,436595,1,0,0:0:0:50:Clapsnare Instru.wav
109,192,436595,1,0,0:0:0:60:Additional Kick.wav
402,192,436595,1,0,0:0:0:0:
329,192,436757,1,0,0:0:0:30:Clapsnare Instru.wav
256,192,436757,1,0,0:0:0:0:
182,192,436757,1,0,0:0:0:0:
402,192,436919,1,0,0:0:0:65:Click.wav
329,192,436919,1,0,0:0:0:90:Bell.wav
256,192,436919,1,0,0:0:0:0:
182,192,436919,1,0,0:0:0:0:
109,192,436919,1,0,0:0:0:0:
329,192,437406,1,0,0:0:0:50:Clapsnare Instru.wav
402,192,437406,1,0,0:0:0:0:
182,192,437568,128,0,437892:0:0:0:60:Additional Kick.wav
109,192,437568,128,0,437892:0:0:0:0:
402,192,437892,1,0,0:0:0:60:Additional Kick.wav
475,192,437892,1,0,0:0:0:50:Hihat.wav
36,192,437892,128,0,438541:0:0:0:90:Bell.wav
329,192,437892,128,0,438379:0:0:0:0:
256,192,438217,1,0,0:0:0:50:Hihat.wav
182,192,438379,128,0,438541:0:0:0:0:
475,192,438379,1,0,0:0:0:0:
329,192,438541,128,0,438703:0:0:0:50:Hihat.wav
109,192,438541,1,0,0:0:0:30:Click.wav
256,192,438541,1,0,0:0:0:0:
182,192,438703,128,0,439190:0:0:0:0:
475,192,438703,1,0,0:0:0:0:
329,192,438865,128,0,439190:0:0:0:50:Hihat.wav
36,192,438865,1,0,0:0:0:60:Clapsnare Instru.wav
402,192,438865,1,0,0:0:0:0:
256,192,439190,1,0,0:0:0:30:Click.wav
475,192,439190,128,0,439271:0:0:0:0:
36,192,439190,128,0,439271:0:0:0:0:
182,192,439352,1,0,0:0:0:0:
256,192,439352,1,0,0:0:0:0:
36,192,439514,1,0,0:0:0:50:Hihat.wav
329,192,439514,128,0,439676:0:0:0:30:Click.wav
256,192,439676,1,0,0:0:0:0:
36,192,439676,1,0,0:0:0:30:Click.wav
329,192,439838,128,0,440487:0:0:0:50:Hihat.wav
182,192,439838,128,0,440325:0:0:0:60:Additional Kick.wav
475,192,439838,1,0,0:0:0:0:
36,192,440163,1,0,0:0:0:50:Hihat.wav
109,192,440325,128,0,440487:0:0:0:0:
475,192,440325,1,0,0:0:0:0:
256,192,440487,128,0,440649:0:0:0:50:Hihat.wav
36,192,440487,1,0,0:0:0:30:Click.wav
182,192,440487,1,0,0:0:0:0:
109,192,440649,128,0,441136:0:0:0:0:
402,192,440649,1,0,0:0:0:0:
256,192,440811,128,0,441136:0:0:0:50:Hihat.wav
329,192,440811,1,0,0:0:0:60:Clapsnare Instru.wav
36,192,440811,1,0,0:0:0:0:
182,192,441136,128,0,441298:0:0:0:50:Hihat.wav
475,192,441136,1,0,0:0:0:30:Click.wav
329,192,441136,1,0,0:0:0:0:
329,192,441298,128,0,441622:0:0:0:30:Click.wav
109,192,441298,1,0,0:0:0:0:
182,192,441460,128,0,441784:0:0:0:50:Hihat.wav
475,192,441460,1,0,0:0:0:30:Click.wav
36,192,441460,1,0,0:0:0:0:
475,192,441622,128,0,442109:0:0:0:30:Click.wav
256,192,441622,1,0,0:0:0:0:
329,192,441784,128,0,442433:0:0:0:50:Hihat.wav
36,192,441784,1,0,0:0:0:60:Additional Kick.wav
109,192,441784,1,0,0:0:0:0:
36,192,442109,1,0,0:0:0:50:Hihat.wav
182,192,442271,128,0,442757:0:0:0:0:
109,192,442271,1,0,0:0:0:0:
36,192,442433,128,0,443082:0:0:0:50:Hihat.wav
475,192,442433,1,0,0:0:0:30:Click.wav
256,192,442433,1,0,0:0:0:0:
329,192,442595,1,0,0:0:0:0:
475,192,442757,128,0,443730:0:0:0:50:Hihat.wav
109,192,442757,1,0,0:0:0:60:Clapsnare Instru.wav
402,192,442757,1,0,0:0:0:0:
329,192,443082,1,0,0:0:0:50:Hihat.wav
182,192,443082,1,0,0:0:0:30:Click.wav
329,192,443244,128,0,443568:0:0:0:30:Click.wav
109,192,443244,1,0,0:0:0:0:
36,192,443406,128,0,444379:0:0:0:50:Hihat.wav
256,192,443406,1,0,0:0:0:30:Click.wav
256,192,443568,128,0,443730:0:0:0:30:Click.wav
109,192,443568,1,0,0:0:0:0:
329,192,443730,1,0,0:0:0:50:Hihat.wav
402,192,443730,1,0,0:0:0:60:Additional Kick.wav
182,192,443730,128,0,444703:0:0:0:0:
256,192,444054,1,0,0:0:0:50:Hihat.wav
402,192,444217,1,0,0:0:0:0:
329,192,444271,1,0,0:0:0:0:
256,192,444325,1,0,0:0:0:0:
475,192,444379,1,0,0:0:0:30:Click.wav
402,192,444379,128,0,444703:0:0:0:50:Hihat.wav
109,192,444379,1,0,0:0:0:0:
329,192,444541,128,0,444703:0:0:0:0:
256,192,444703,128,0,445190:0:0:0:50:Hihat.wav
109,192,444703,128,0,445676:0:0:0:60:Clapsnare Instru.wav
36,192,444703,1,0,0:0:0:0:
475,192,445027,1,0,0:0:0:50:Hihat.wav
329,192,445027,1,0,0:0:0:30:Click.wav
475,192,445190,128,0,445514:0:0:0:30:Click.wav
36,192,445190,1,0,0:0:0:0:
182,192,445352,1,0,0:0:0:50:Hihat.wav
329,192,445352,128,0,445514:0:0:0:30:Click.wav
182,192,445514,128,0,445676:0:0:0:30:Click.wav
402,192,445514,1,0,0:0:0:0:
256,192,445676,128,0,446325:0:0:0:50:Hihat.wav
475,192,445676,128,0,446163:0:0:0:60:Additional Kick.wav
36,192,445676,1,0,0:0:0:90:Bell.wav
329,192,445676,1,0,0:0:0:0:
182,192,446000,1,0,0:0:0:50:Hihat.wav
36,192,446163,128,0,446325:0:0:0:0:
402,192,446163,1,0,0:0:0:0:
329,192,446325,128,0,446487:0:0:0:50:Hihat.wav
182,192,446325,1,0,0:0:0:30:Click.wav
475,192,446325,1,0,0:0:0:0:
256,192,446487,1,0,0:0:0:0:
36,192,446541,128,0,446973:0:0:0:0:
329,192,446649,128,0,446973:0:0:0:50:Hihat.wav
475,192,446649,1,0,0:0:0:60:Clapsnare Instru.wav
109,192,446649,1,0,0:0:0:0:
475,192,446973,128,0,447054:0:0:0:50:Hihat.wav
109,192,446973,1,0,0:0:0:0:
182,192,446973,128,0,447054:0:0:0:0:
402,192,447136,1,0,0:0:0:0:
109,192,447136,1,0,0:0:0:30:Click.wav
329,192,447298,1,0,0:0:0:50:Hihat.wav
36,192,447298,128,0,447460:0:0:0:30:Click.wav
475,192,447460,1,0,0:0:0:0:
329,192,447460,1,0,0:0:0:30:Click.wav
36,192,447622,128,0,448271:0:0:0:50:Hihat.wav
109,192,447622,128,0,448109:0:0:0:60:Additional Kick.wav
256,192,447622,1,0,0:0:0:0:
329,192,447946,1,0,0:0:0:50:Hihat.wav
402,192,448109,128,0,448271:0:0:0:0:
182,192,448109,1,0,0:0:0:0:
256,192,448271,128,0,448433:0:0:0:50:Hihat.wav
329,192,448271,1,0,0:0:0:30:Click.wav
109,192,448271,1,0,0:0:0:0:
402,192,448433,128,0,448919:0:0:0:0:
182,192,448433,1,0,0:0:0:0:
256,192,448595,128,0,448919:0:0:0:50:Hihat.wav
475,192,448595,1,0,0:0:0:60:Clapsnare Instru.wav
36,192,448595,1,0,0:0:0:0:
109,192,448919,128,0,449082:0:0:0:50:Hihat.wav
475,192,448919,1,0,0:0:0:30:Click.wav
256,192,449082,128,0,449406:0:0:0:30:Click.wav
475,192,449082,128,0,449244:0:0:0:0:
109,192,449244,128,0,449568:0:0:0:50:Hihat.wav
329,192,449244,1,0,0:0:0:30:Click.wav
475,192,449406,128,0,450054:0:0:0:30:Click.wav
329,192,449406,1,0,0:0:0:0:
402,192,449568,128,0,450217:0:0:0:50:Hihat.wav
256,192,449568,1,0,0:0:0:60:Additional Kick.wav
36,192,449568,1,0,0:0:0:0:
109,192,449892,1,0,0:0:0:50:Hihat.wav
256,192,450054,1,0,0:0:0:0:
475,192,450217,128,0,450541:0:0:0:50:Hihat.wav
182,192,450217,1,0,0:0:0:30:Click.wav
36,192,450217,1,0,0:0:0:0:
402,192,450379,128,0,451027:0:0:0:0:
329,192,450541,128,0,451190:0:0:0:50:Hihat.wav
256,192,450541,1,0,0:0:0:60:Clapsnare Instru.wav
109,192,450541,1,0,0:0:0:0:
182,192,450865,1,0,0:0:0:50:Hihat.wav
36,192,450865,1,0,0:0:0:30:Click.wav
36,192,451027,1,0,0:0:0:30:Click.wav
256,192,451027,1,0,0:0:0:0:
402,192,451190,128,0,451514:0:0:0:50:Hihat.wav
182,192,451190,1,0,0:0:0:30:Click.wav
329,192,451352,128,0,451676:0:0:0:30:Click.wav
182,192,451352,1,0,0:0:0:0:
256,192,451514,128,0,452000:0:0:0:50:Hihat.wav
475,192,451514,1,0,0:0:0:60:Additional Kick.wav
36,192,451514,1,0,0:0:0:0:
402,192,451838,128,0,451946:0:0:0:50:Hihat.wav
182,192,452000,128,0,452811:0:0:0:0:
256,192,452163,128,0,452973:0:0:0:50:Hihat.wav
402,192,452163,1,0,0:0:0:30:Click.wav
36,192,452163,1,0,0:0:0:0:
329,192,452487,128,0,453136:0:0:0:50:Hihat.wav
475,192,452487,1,0,0:0:0:60:Clapsnare Instru.wav
36,192,452487,1,0,0:0:0:0:
109,192,452811,128,0,453298:0:0:0:50:Hihat.wav
402,192,452811,1,0,0:0:0:0:
182,192,452973,128,0,453298:0:0:0:60:Clapsnare Instru.wav
475,192,452973,1,0,0:0:0:0:
256,192,453136,128,0,453460:0:0:0:50:Hihat.wav
475,192,453136,1,0,0:0:0:60:Clapsnare Instru.wav
329,192,453298,128,0,453460:0:0:0:60:Clapsnare Instru.wav
475,192,453298,1,0,0:0:0:0:
36,192,453298,1,0,0:0:0:0:
182,192,453460,1,0,0:0:0:50:Hihat.wav
109,192,453460,1,0,0:0:0:60:Additional Kick.wav
36,192,453460,1,0,0:0:0:60:Bell.wav
402,192,453460,128,0,453946:0:0:0:90:Bell.wav
182,192,453784,1,0,0:0:0:60:Bell.wav
329,192,453784,1,0,0:0:0:0:
475,192,453946,128,0,454271:0:0:0:0:
36,192,453946,1,0,0:0:0:0:
402,192,454109,128,0,454433:0:0:0:60:Bell.wav
182,192,454109,1,0,0:0:0:30:Click.wav
256,192,454109,1,0,0:0:0:60:Additional Kick.wav
329,192,454271,128,0,455406:0:0:0:0:
109,192,454271,1,0,0:0:0:0:
256,192,454433,128,0,455082:0:0:0:50:Clapsnare Instru.wav
182,192,454433,1,0,0:0:0:60:Bell.wav
36,192,454433,1,0,0:0:0:0:
182,192,454757,1,0,0:0:0:30:Click.wav
36,192,454757,1,0,0:0:0:60:Bell.wav
182,192,454919,1,0,0:0:0:30:Click.wav
475,192,454919,1,0,0:0:0:0:
36,192,455082,128,0,455730:0:0:0:30:Click.wav
402,192,455082,1,0,0:0:0:60:Bell.wav
402,192,455244,1,0,0:0:0:30:Click.wav
256,192,455244,1,0,0:0:0:0:
182,192,455406,128,0,455892:0:0:0:60:Additional Kick.wav
475,192,455406,1,0,0:0:0:60:Bell.wav
109,192,455406,1,0,0:0:0:0:
402,192,455730,1,0,0:0:0:60:Bell.wav
475,192,455730,1,0,0:0:0:0:
36,192,455892,128,0,456054:0:0:0:0:
329,192,455892,1,0,0:0:0:0:
182,192,456054,128,0,456217:0:0:0:60:Bell.wav
475,192,456054,1,0,0:0:0:60:Additional Kick.wav
256,192,456054,1,0,0:0:0:30:Click.wav
402,192,456217,1,0,0:0:0:0:
36,192,456217,128,0,456865:0:0:0:0:
329,192,456379,128,0,457352:0:0:0:50:Clapsnare Instru.wav
475,192,456379,1,0,0:0:0:60:Bell.wav
182,192,456379,1,0,0:0:0:0:
402,192,456703,1,0,0:0:0:30:Click.wav
182,192,456703,1,0,0:0:0:60:Bell.wav
402,192,456865,1,0,0:0:0:30:Click.wav
256,192,456865,1,0,0:0:0:0:
36,192,457027,128,0,457676:0:0:0:30:Click.wav
475,192,457027,1,0,0:0:0:60:Bell.wav
109,192,457027,1,0,0:0:0:0:
475,192,457190,1,0,0:0:0:30:Click.wav
256,192,457190,1,0,0:0:0:0:
182,192,457352,128,0,457838:0:0:0:60:Additional Kick.wav
402,192,457352,1,0,0:0:0:60:Bell.wav
109,192,457352,1,0,0:0:0:0:
329,192,457676,1,0,0:0:0:60:Bell.wav
475,192,457676,1,0,0:0:0:0:
36,192,457838,128,0,458000:0:0:0:0:
402,192,457838,1,0,0:0:0:0:
182,192,458000,128,0,458163:0:0:0:60:Bell.wav
256,192,458000,1,0,0:0:0:60:Additional Kick.wav
402,192,458000,1,0,0:0:0:30:Click.wav
36,192,458163,128,0,459298:0:0:0:0:
475,192,458163,1,0,0:0:0:0:
329,192,458325,128,0,458973:0:0:0:50:Clapsnare Instru.wav
402,192,458325,1,0,0:0:0:60:Bell.wav
182,192,458325,1,0,0:0:0:0:
475,192,458649,1,0,0:0:0:30:Click.wav
256,192,458649,1,0,0:0:0:60:Bell.wav
256,192,458811,1,0,0:0:0:30:Click.wav
402,192,458811,1,0,0:0:0:0:
475,192,458973,128,0,459622:0:0:0:30:Click.wav
109,192,458973,1,0,0:0:0:60:Bell.wav
182,192,458973,1,0,0:0:0:0:
256,192,459136,1,0,0:0:0:30:Click.wav
109,192,459136,1,0,0:0:0:0:
329,192,459298,128,0,459946:0:0:0:60:Additional Kick.wav
182,192,459298,1,0,0:0:0:60:Bell.wav
402,192,459298,1,0,0:0:0:0:
256,192,459622,1,0,0:0:0:60:Bell.wav
36,192,459622,1,0,0:0:0:0:
475,192,459784,128,0,460109:0:0:0:0:
182,192,459784,1,0,0:0:0:0:
402,192,459946,128,0,460271:0:0:0:60:Bell.wav
256,192,459946,1,0,0:0:0:60:Additional Kick.wav
109,192,459946,1,0,0:0:0:30:Click.wav
329,192,460109,128,0,460757:0:0:0:0:
36,192,460109,1,0,0:0:0:0:
109,192,460271,128,0,460757:0:0:0:50:Clapsnare Instru.wav
182,192,460271,1,0,0:0:0:60:Bell.wav
256,192,460271,1,0,0:0:0:0:
36,192,460595,1,0,0:0:0:30:Click.wav
475,192,460595,1,0,0:0:0:60:Bell.wav
182,192,460757,128,0,461082:0:0:0:30:Click.wav
256,192,460757,1,0,0:0:0:0:
475,192,460757,1,0,0:0:0:0:
36,192,460919,1,0,0:0:0:30:Click.wav
402,192,460919,1,0,0:0:0:60:Bell.wav
256,192,460919,128,0,461244:0:0:0:0:
329,192,461082,128,0,461892:0:0:0:30:Click.wav
36,192,461082,1,0,0:0:0:0:
475,192,461082,1,0,0:0:0:0:
109,192,461244,1,0,0:0:0:90:Bell.wav
182,192,461244,1,0,0:0:0:60:Additional Kick.wav
475,192,461244,1,0,0:0:0:60:Bell.wav
402,192,461244,128,0,461730:0:0:0:0:
182,192,461568,1,0,0:0:0:60:Bell.wav
256,192,461568,1,0,0:0:0:0:
475,192,461730,128,0,462054:0:0:0:0:
36,192,461730,1,0,0:0:0:0:
402,192,461892,128,0,462217:0:0:0:60:Bell.wav
109,192,461892,1,0,0:0:0:60:Additional Kick.wav
256,192,461892,1,0,0:0:0:30:Click.wav
329,192,462054,128,0,463190:0:0:0:0:
182,192,462054,1,0,0:0:0:0:
256,192,462217,128,0,462865:0:0:0:50:Clapsnare Instru.wav
109,192,462217,1,0,0:0:0:60:Bell.wav
36,192,462217,1,0,0:0:0:0:
182,192,462541,1,0,0:0:0:30:Click.wav
36,192,462541,1,0,0:0:0:60:Bell.wav
182,192,462703,1,0,0:0:0:30:Click.wav
475,192,462703,1,0,0:0:0:0:
36,192,462865,128,0,463514:0:0:0:30:Click.wav
402,192,462865,1,0,0:0:0:60:Bell.wav
402,192,463027,1,0,0:0:0:30:Click.wav
256,192,463027,1,0,0:0:0:0:
182,192,463190,128,0,463676:0:0:0:60:Additional Kick.wav
475,192,463190,1,0,0:0:0:60:Bell.wav
109,192,463190,1,0,0:0:0:0:
329,192,463514,1,0,0:0:0:60:Bell.wav
475,192,463514,1,0,0:0:0:0:
36,192,463676,128,0,463838:0:0:0:0:
402,192,463676,1,0,0:0:0:0:
182,192,463838,128,0,464000:0:0:0:60:Bell.wav
475,192,463838,1,0,0:0:0:60:Additional Kick.wav
256,192,463838,1,0,0:0:0:30:Click.wav
36,192,464000,128,0,464649:0:0:0:0:
329,192,464000,1,0,0:0:0:0:
256,192,464163,128,0,465136:0:0:0:50:Clapsnare Instru.wav
475,192,464163,1,0,0:0:0:60:Bell.wav
182,192,464163,1,0,0:0:0:0:
402,192,464487,1,0,0:0:0:30:Click.wav
182,192,464487,1,0,0:0:0:60:Bell.wav
402,192,464649,1,0,0:0:0:30:Click.wav
329,192,464649,1,0,0:0:0:0:
36,192,464811,128,0,465460:0:0:0:30:Click.wav
475,192,464811,1,0,0:0:0:60:Bell.wav
109,192,464811,1,0,0:0:0:0:
475,192,464973,1,0,0:0:0:30:Click.wav
329,192,464973,1,0,0:0:0:0:
182,192,465136,128,0,465622:0:0:0:60:Additional Kick.wav
402,192,465136,1,0,0:0:0:60:Bell.wav
109,192,465136,1,0,0:0:0:0:
329,192,465460,1,0,0:0:0:60:Bell.wav
475,192,465460,1,0,0:0:0:0:
36,192,465622,128,0,465784:0:0:0:0:
256,192,465622,1,0,0:0:0:0:
182,192,465784,128,0,465946:0:0:0:60:Bell.wav
329,192,465784,1,0,0:0:0:30:Click.wav
475,192,465784,1,0,0:0:0:0:
36,192,465946,128,0,466433:0:0:0:0:
402,192,465946,1,0,0:0:0:0:
182,192,466109,128,0,466757:0:0:0:50:Clapsnare Instru.wav
475,192,466109,1,0,0:0:0:60:Bell.wav
109,192,466109,1,0,0:0:0:0:
329,192,466433,128,0,466919:0:0:0:60:Bell.wav
475,192,466433,1,0,0:0:0:50:Clapsnare Instru.wav
256,192,466433,1,0,0:0:0:30:Click.wav
256,192,466595,1,0,0:0:0:30:Clapsnare Instru.wav
36,192,466595,1,0,0:0:0:30:Click.wav
475,192,466757,128,0,468054:0:0:0:60:Bell.wav
109,192,466757,1,0,0:0:0:50:Clapsnare Instru.wav
402,192,466757,1,0,0:0:0:30:Click.wav
109,192,466919,1,0,0:0:0:30:Clapsnare Instru.wav
182,192,466919,1,0,0:0:0:30:Click.wav
329,192,467082,128,0,468054:0:0:0:50:Clapsnare Instru.wav
256,192,467082,1,0,0:0:0:60:Additional Kick.wav
36,192,467082,1,0,0:0:0:30:Click.wav
182,192,467082,1,0,0:0:0:0:
402,192,467406,1,0,0:0:0:60:Additional Kick.wav
256,192,467406,1,0,0:0:0:50:Clapsnare Instru.wav
109,192,467406,1,0,0:0:0:0:
256,192,467568,1,0,0:0:0:0:
36,192,467730,1,0,0:0:0:50:Clapsnare Instru.wav
402,192,467730,1,0,0:0:0:60:Additional Kick.wav
109,192,467730,1,0,0:0:0:0:
182,192,467892,1,0,0:0:0:0:
256,192,467892,1,0,0:0:0:0:
36,192,467946,1,0,0:0:0:0:
109,192,468000,1,0,0:0:0:0:
256,192,468054,1,0,0:0:0:60:Additional Kick.wav
402,192,468054,1,0,0:0:0:50:Clapsnare Instru.wav
182,192,468054,128,0,469027:0:0:0:0:
402,192,468217,1,0,0:0:0:30:Clapsnare Instru.wav
475,192,468217,1,0,0:0:0:0:
36,192,468217,1,0,0:0:0:0:
109,192,468379,1,0,0:0:0:0:
329,192,468379,1,0,0:0:0:50:Clapsnare Instru.wav
475,192,468379,1,0,0:0:0:60:Additional Kick.wav
36,192,468379,1,0,0:0:0:0:
402,192,468541,128,0,468703:0:0:0:30:Clapsnare Instru.wav
329,192,468541,1,0,0:0:0:0:
109,192,468541,1,0,0:0:0:0:
256,192,468541,1,0,0:0:0:0:
475,192,468703,128,0,469027:0:0:0:60:Additional Kick.wav
36,192,468703,1,0,0:0:0:50:Clapsnare Instru.wav
256,192,468703,1,0,0:0:0:0:
109,192,468703,1,0,0:0:0:0:
36,192,468865,1,0,0:0:0:30:Clapsnare Instru.wav
402,192,468865,1,0,0:0:0:0:
329,192,468865,1,0,0:0:0:0:
36,192,469027,128,0,471607:0:0:0:90:Bell.wav
256,192,469027,128,0,471607:0:0:0:60:Additional Kick.wav
402,192,469027,1,0,0:0:0:75:Click.wav
109,192,469027,1,0,0:0:0:0:
329,192,469027,1,0,0:0:0:0:
182,192,471607,1,0,0:0:0:0:
402,192,471607,1,0,0:0:0:0:
256,192,474142,1,0,0:0:0:0:
402,192,474142,1,0,0:0:0:0:
109,192,476686,1,0,0:0:0:0:
256,192,476686,1,0,0:0:0:0:
109,192,478791,128,0,479636:0:0:0:0:
329,192,479636,128,0,482171:0:0:0:0:
475,192,479636,128,0,482171:0:0:0:0:
256,192,479636,128,0,480903:0:0:0:0:
182,192,480481,128,0,480692:0:0:0:0:
182,192,480903,128,0,481748:0:0:0:0:
36,192,481748,128,0,482171:0:0:0:0:
256,192,482171,128,0,484283:0:0:0:0:
109,192,482171,128,0,484283:0:0:0:0:
402,192,482171,128,0,484283:0:0:0:0:
36,192,482593,128,0,484283:0:0:0:0:
109,192,484706,128,0,486819:0:0:0:0:
256,192,484706,128,0,486396:0:0:0:0:
475,192,484706,128,0,487241:0:0:0:0:
329,192,486396,128,0,487241:0:0:0:0:
182,192,486819,128,0,487241:0:0:0:0:
256,192,487241,128,0,488509:0:0:0:0:
36,192,487241,128,0,488509:0:0:0:0:
402,192,487241,128,0,488509:0:0:0:0:
329,192,488931,128,0,489776:0:0:0:0:
36,192,488931,128,0,489776:0:0:0:0:
109,192,489776,128,0,492312:0:0:0:0:
256,192,489776,128,0,492312:0:0:0:0:
402,192,489776,128,0,490621:0:0:0:0:
475,192,490621,128,0,490859:0:0:0:0:
475,192,491044,128,0,491466:0:0:0:0:
402,192,491466,128,0,491889:0:0:0:0:
329,192,491889,128,0,492312:0:0:0:0:
182,192,492312,128,0,494002:0:0:0:0:
36,192,492312,128,0,494002:0:0:0:0:
402,192,492312,128,0,494002:0:0:0:0:
256,192,494424,128,0,494847:0:0:0:0:
109,192,494424,128,0,494847:0:0:0:0:
182,192,494847,128,0,495269:0:0:0:0:
329,192,494847,128,0,496114:0:0:0:0:
475,192,494847,128,0,496114:0:0:0:0:
36,192,495269,128,0,495692:0:0:0:0:
109,192,495692,128,0,496114:0:0:0:0:
182,192,496114,128,0,496537:0:0:0:0:
256,192,496114,128,0,497382:0:0:0:0:
402,192,496114,128,0,496537:0:0:0:0:
475,192,496537,128,0,496959:0:0:0:0:
36,192,496537,128,0,496959:0:0:0:0:
402,192,496959,128,0,497382:0:0:0:0:
109,192,496959,128,0,497382:0:0:0:0:
36,192,497382,128,0,498650:0:0:0:0:
182,192,497382,128,0,497805:0:0:0:0:
329,192,497382,128,0,499917:0:0:0:0:
109,192,497805,128,0,498227:0:0:0:0:
182,192,498227,128,0,498650:0:0:0:0:
109,192,498650,1,0,0:0:0:0:
256,192,498685,1,0,0:0:0:70:Bell.wav
475,192,498782,128,0,500340:0:0:0:0:
402,192,500762,128,0,502029:0:0:0:0:
182,192,500762,128,0,501184:0:0:0:0:
36,192,500762,128,0,501607:0:0:0:0:
109,192,501184,128,0,501607:0:0:0:0:
182,192,501607,128,0,502029:0:0:0:0:
329,192,502029,128,0,502452:0:0:0:0:
256,192,502029,128,0,502874:0:0:0:0:
109,192,502029,128,0,502452:0:0:0:0:
475,192,502452,128,0,502874:0:0:0:0:
36,192,502452,128,0,502874:0:0:0:0:
402,192,502874,128,0,503297:0:0:0:0:
109,192,502874,128,0,503297:0:0:0:0:
182,192,503297,128,0,503719:0:0:0:0:
329,192,503297,128,0,504987:0:0:0:0:
475,192,503297,128,0,504987:0:0:0:0:
109,192,503719,128,0,504142:0:0:0:0:
182,192,504142,128,0,504564:0:0:0:0:
36,192,504564,1,0,0:0:0:70:Bell.wav
256,192,504564,128,0,504987:0:0:0:0:
182,192,504987,128,0,505409:0:0:0:0:
329,192,505409,128,0,505832:0:0:0:0:
109,192,505409,128,0,505832:0:0:0:0:
402,192,505832,128,0,507100:0:0:0:0:
182,192,505832,128,0,506254:0:0:0:0:
36,192,505832,128,0,506677:0:0:0:0:
109,192,506254,128,0,506677:0:0:0:0:
182,192,506677,128,0,507100:0:0:0:0:
256,192,507100,128,0,507945:0:0:0:0:
109,192,507100,128,0,507522:0:0:0:0:
329,192,507100,128,0,507522:0:0:0:0:
475,192,507522,128,0,507945:0:0:0:0:
36,192,507522,128,0,507945:0:0:0:0:
109,192,507945,128,0,508367:0:0:0:0:
402,192,507945,128,0,508367:0:0:0:0:
182,192,508367,128,0,508790:0:0:0:0:
329,192,508367,128,0,510057:0:0:0:0:
475,192,508367,128,0,510057:0:0:0:0:
109,192,508790,128,0,509212:0:0:0:0:
182,192,509212,128,0,509635:0:0:0:0:
256,192,509635,128,0,510057:0:0:0:0:
36,192,509635,1,0,0:0:0:70:Bell.wav
182,192,510057,128,0,510480:0:0:0:0:
109,192,510480,128,0,510902:0:0:0:0:
329,192,510480,128,0,510902:0:0:0:0:
182,192,510902,128,0,511325:0:0:0:0:
36,192,510902,128,0,511747:0:0:0:0:
402,192,510902,128,0,512170:0:0:0:0:
109,192,511325,128,0,511747:0:0:0:0:
182,192,511747,128,0,512170:0:0:0:0:
256,192,512170,128,0,512592:0:0:0:0:
475,192,512170,128,0,513015:0:0:0:0:
109,192,512170,128,0,512592:0:0:0:0:
36,192,512592,128,0,513015:0:0:0:0:
329,192,512592,128,0,513015:0:0:0:0:
402,192,513015,128,0,513438:0:0:0:0:
109,192,513015,128,0,513438:0:0:0:0:
182,192,513438,128,0,513860:0:0:0:0:
329,192,513438,128,0,514705:0:0:0:0:
475,192,513438,128,0,514705:0:0:0:0:
109,192,513860,128,0,514283:0:0:0:0:
182,192,514283,128,0,514705:0:0:0:0:
36,192,514705,1,0,0:0:0:60:Bell.wav
402,192,514705,128,0,515550:0:0:0:0:
256,192,514705,128,0,515128:0:0:0:0:
182,192,515128,128,0,515550:0:0:0:0:
109,192,515550,128,0,515973:0:0:0:0:
329,192,515550,128,0,515973:0:0:0:0:
36,192,515973,128,0,516818:0:0:0:0:
182,192,515973,128,0,516395:0:0:0:0:
402,192,515973,128,0,517240:0:0:0:0:
109,192,516395,128,0,516818:0:0:0:0:
182,192,516818,128,0,517240:0:0:0:0:
256,192,517240,128,0,518085:0:0:0:0:
329,192,517240,128,0,517663:0:0:0:0:
109,192,517240,128,0,517663:0:0:0:0:
36,192,517663,128,0,518085:0:0:0:0:
475,192,517663,128,0,518085:0:0:0:0:
402,192,518085,128,0,518508:0:0:0:0:
109,192,518085,128,0,518508:0:0:0:0:
182,192,518508,128,0,518931:0:0:0:0:
329,192,518508,128,0,520198:0:0:0:0:
475,192,518508,128,0,520198:0:0:0:0:
109,192,518931,128,0,519353:0:0:0:0:
182,192,519353,128,0,519776:0:0:0:0:
36,192,519740,1,0,0:0:0:70:Bell.wav
256,192,519776,128,0,520198:0:0:0:0:
182,192,520198,128,0,520621:0:0:0:0:
109,192,520621,128,0,521043:0:0:0:0:
329,192,520621,128,0,521043:0:0:0:0:
182,192,521043,128,0,521466:0:0:0:0:
36,192,521043,128,0,521888:0:0:0:0:
402,192,521043,128,0,522311:0:0:0:0:
109,192,521466,128,0,521888:0:0:0:0:
182,192,521888,128,0,522311:0:0:0:0:
109,192,522311,128,0,522733:0:0:0:0:
256,192,522311,128,0,523156:0:0:0:0:
329,192,522311,128,0,522733:0:0:0:0:
475,192,522733,128,0,523156:0:0:0:0:
36,192,522733,128,0,523156:0:0:0:0:
109,192,523156,128,0,523578:0:0:0:0:
402,192,523156,128,0,523578:0:0:0:0:
182,192,523578,128,0,524001:0:0:0:0:
329,192,523578,128,0,525269:0:0:0:0:
475,192,523578,128,0,525269:0:0:0:0:
109,192,524001,128,0,524423:0:0:0:0:
182,192,524423,128,0,524846:0:0:0:0:
36,192,524846,1,0,0:0:0:60:Bell.wav
256,192,524846,128,0,525269:0:0:0:0:
182,192,525269,128,0,525691:0:0:0:0:
109,192,525691,128,0,526114:0:0:0:0:
329,192,525691,128,0,526114:0:0:0:0:
182,192,526114,1,0,0:0:0:0:
36,192,526114,1,0,0:0:0:0:
402,192,526114,128,0,527804:0:0:0:0:
475,192,527804,128,0,529494:0:0:0:0:
182,192,529441,1,0,0:0:0:70:Bell.wav
329,192,529494,128,0,531184:0:0:0:0:
36,192,529494,1,0,0:0:0:0:
182,192,531184,128,0,533296:0:0:0:0:
182,192,533719,128,0,537944:0:0:0:0:
36,192,533719,128,0,537944:0:0:0:0:
329,192,533789,128,0,537944:0:0:0:0:
475,192,533789,128,0,537944:0:0:0:0:
