osu file format v14

[General]
AudioFilename: audio.mp3
AudioLeadIn: 0
PreviewTime: -1
Countdown: 1
SampleSet: None
StackLeniency: 0.7
Mode: 0
LetterboxInBreaks: 0
WidescreenStoryboard: 0

[Editor]
DistanceSpacing: 0.8
BeatDivisor: 1
GridSize: 32
TimelineZoom: 0.8000001

[Metadata]
Title:The Great Trump Wall
TitleUnicode:The Great Trump Wall
Artist:steampianist
ArtistUnicode:steampianist
Creator:GDJay
Version:Easy to Moderate
Source:WilSong
Tags:Trump
BeatmapID:1598545
BeatmapSetID:759993

[Difficulty]
HPDrainRate:5
CircleSize:5
OverallDifficulty:5
ApproachRate:5
SliderMultiplier:1.5
SliderTickRate:1

[Events]
//Background and Video events
//Break Periods
//Storyboard Layer 0 (Background)
//Storyboard Layer 1 (Fail)
//Storyboard Layer 2 (Pass)
//Storyboard Layer 3 (Foreground)
//Storyboard Sound Samples

[TimingPoints]
0,500,4,1,0,100,1,0

[HitObjects]
128,160,1500,6,0,P|320:160|288:160,1,150
352,224,2500,1,0,0:0:0:0:
224,288,3000,1,0,0:0:0:0:
160,192,3500,2,0,P|256:32|288:32,1,150
288,96,4500,1,0,0:0:0:0:
320,192,5000,1,0,0:0:0:0:
160,288,5500,1,0,0:0:0:0:
160,160,6000,1,0,0:0:0:0:
256,128,6500,2,0,B|416:288|96:160|96:192,1,150
160,160,7500,1,8,0:0:0:0:
320,96,8000,5,0,0:0:0:0:
352,192,8500,2,0,P|224:288|192:288,1,150
160,288,9500,1,0,0:0:0:0:
96,224,10000,1,0,0:0:0:0:
128,64,10500,2,0,L|256:160,1,150
320,64,11500,1,0,0:0:0:0:
288,160,12000,1,0,0:0:0:0:
448,224,12500,2,0,P|320:320|320:288,1,300
288,256,14000,1,0,0:0:0:0:
352,160,14500,1,0,0:0:0:0:
224,192,15000,2,0,B|32:64|64:96,1,150
128,224,17500,5,0,0:0:0:0:
128,224,19000,2,0,P|384:64|448:96,1,300
128,192,21000,1,0,0:0:0:0:
32,128,21500,2,0,P|320:64|352:96,1,300
448,224,23500,2,0,P|128:288|96:256,1,300
256,96,25500,1,0,0:0:0:0:
64,320,27000,5,0,0:0:0:0:
160,224,27500,1,0,0:0:0:0:
320,192,28000,2,0,P|256:32|192:64,1,300
256,192,29500,1,0,0:0:0:0:
128,288,31000,2,0,L|384:96,1,300
448,256,32500,1,0,0:0:0:0:
64,192,35500,5,0,0:0:0:0:
160,96,36000,2,0,L|320:192,1,150
256,288,37000,1,0,0:0:0:0:
128,224,37500,1,0,0:0:0:0:
224,128,38000,1,0,0:0:0:0:
288,160,38500,2,0,P|416:256|384:288,1,150
352,288,39500,1,0,0:0:0:0:
256,224,40000,1,0,0:0:0:0:
160,320,40500,2,0,P|96:160|128:128,1,150
192,128,41500,1,0,0:0:0:0:
320,160,42000,6,0,P|480:256|512:256,1,150
288,288,43000,1,0,0:0:0:0:
224,192,43500,1,0,0:0:0:0:
320,128,44000,1,0,0:0:0:0:
416,192,44500,2,0,P|288:320|256:288,1,150
288,288,45500,1,0,0:0:0:0:
160,192,46000,2,0,P|288:0|320:0,1,150
288,96,47000,1,0,0:0:0:0:
352,192,47500,1,0,0:0:0:0:
256,256,48000,1,0,0:0:0:0:
160,192,48500,2,0,P|288:64|320:64,1,150
352,192,49500,1,0,0:0:0:0:
128,160,51500,6,0,P|320:160|352:192,1,150
352,224,52500,1,0,0:0:0:0:
256,256,53000,2,0,L|96:224,1,150
192,128,54000,1,0,0:0:0:0:
96,192,55500,1,0,0:0:0:0:
256,160,56000,2,0,P|384:288|384:320,1,150
288,320,57000,1,0,0:0:0:0:
160,320,57500,2,0,P|64:32|96:0,1,300
288,96,59500,2,0,P|96:192|64:224,1,150
192,256,60500,1,0,0:0:0:0:
320,224,61000,1,0,0:0:0:0:
416,96,61500,2,0,P|224:96|192:128,1,150
192,160,62500,1,0,0:0:0:0:
192,288,63000,1,0,0:0:0:0:
320,320,63500,2,0,P|480:64|480:32,1,300
352,64,65000,1,0,0:0:0:0:
96,64,66000,6,0,P|352:288|416:288,1,300
384,224,67500,2,0,P|128:32|96:32,1,300
160,192,69000,1,0,0:0:0:0:
192,64,71500,5,0,0:0:0:0:
64,128,72000,1,0,0:0:0:0:
128,256,72500,2,0,B|416:256|288:192,1,150
352,160,73500,1,0,0:0:0:0:
256,64,74000,2,0,P|160:192|192:224,1,150
224,256,75000,1,0,0:0:0:0:
352,224,75500,1,0,0:0:0:0:
320,128,76000,1,0,0:0:0:0:
192,96,76500,2,0,P|96:224|128:256,1,150
160,224,77500,1,0,0:0:0:0:
288,288,78000,6,0,P|448:224|448:192,1,150
416,160,79000,1,0,0:0:0:0:
320,64,79500,1,0,0:0:0:0:
192,64,80000,1,0,0:0:0:0:
96,160,80500,2,0,P|192:288|224:256,1,150
224,320,81500,1,0,0:0:0:0:
192,192,82000,2,0,P|288:64|320:96,1,150
320,96,83000,1,0,0:0:0:0:
416,224,83500,1,0,0:0:0:0:
288,288,84000,1,0,0:0:0:0:
224,192,84500,2,0,P|352:96|384:128,1,150
384,160,85500,1,0,0:0:0:0:
256,224,86000,6,0,P|160:96|192:64,1,150
288,96,87000,1,0,0:0:0:0:
352,224,87500,1,0,0:0:0:0:
256,288,88000,1,0,0:0:0:0:
128,224,88500,2,0,P|256:128|288:160,1,150
320,160,89500,1,0,0:0:0:0:
192,160,90000,2,0,P|96:288|128:320,1,150
224,256,91000,1,0,0:0:0:0:
160,160,91500,1,0,0:0:0:0:
288,160,92000,1,0,0:0:0:0:
384,288,92500,2,0,P|192:288|160:256,1,150
256,192,93500,1,0,0:0:0:0:
384,128,94000,6,0,P|384:288|288:288,1,150
288,256,95000,1,0,0:0:0:0:
416,224,95500,1,0,0:0:0:0:
288,160,96000,1,0,0:0:0:0:
416,96,96500,1,0,0:0:0:0:
288,96,97000,2,0,P|192:256|224:288,1,150
256,288,98000,1,0,0:0:0:0:
320,192,98500,2,0,P|224:64|192:96,1,150
192,96,99500,1,0,0:0:0:0:
256,224,100000,1,0,0:0:0:0:
352,128,100500,2,0,P|192:64|160:96,1,150
256,192,101500,1,0,0:0:0:0:
256,192,103500,12,0,107000,0:0:0:0:
