osu file format v14

[General]
AudioFilename: the ricochet.mp3
AudioLeadIn: 0
PreviewTime: 101328
Countdown: 0
SampleSet: Normal
StackLeniency: 0.2
Mode: 0
LetterboxInBreaks: 1
EpilepsyWarning: 1
WidescreenStoryboard: 1

[Editor]
Bookmarks: 7329,18662,29329,34662,39996,50662,61328,71995,74662,83995,85328,94662,101328,111995,117328,119995,122328,128662
DistanceSpacing: 1
BeatDivisor: 4
GridSize: 16
TimelineZoom: 2.4

[Metadata]
Title:The Ricochet
TitleUnicode:The Ricochet
Artist:sta
ArtistUnicode:sta
Creator:Echoy
Version:Alive
Source:Cytus
Tags:electronic drumstep dubstep Rayark game AI
BeatmapID:792149
BeatmapSetID:360395

[Difficulty]
HPDrainRate:5
CircleSize:4.4
OverallDifficulty:8
ApproachRate:9.6
SliderMultiplier:1.8
SliderTickRate:1

[Events]
//Background and Video events
0,0,"death.jpg",0,0
//Break Periods
//Storyboard Layer 0 (Background)
//Storyboard Layer 1 (Fail)
//Storyboard Layer 2 (Pass)
//Storyboard Layer 3 (Foreground)
//Storyboard Sound Samples

[TimingPoints]
1329,333.333333333333,4,1,0,70,1,0
7328,-200,4,1,1,70,0,0
8328,-133.333333333333,4,1,1,70,0,0
8662,-133.333333333333,4,1,1,5,0,0
8884,-133.333333333333,4,1,1,70,0,0
8995,-100,4,1,1,70,0,0
9273,-400,4,1,1,70,0,0
10662,-100,4,2,0,70,0,0
12329,-200,4,2,0,70,0,0
12662,-222.222222222222,4,2,0,70,0,0
13079,-100,4,2,0,70,0,0
13996,-400,4,2,0,70,0,0
14662,-285.714285714286,4,2,0,70,0,0
15329,-222.222222222222,4,2,0,70,0,0
15996,-181.818181818182,4,2,0,70,0,0
16662,-200,4,2,0,70,0,0
16912,-117.647058823529,4,2,0,70,0,0
17329,-400,4,2,0,70,0,0
17662,-200,4,1,1,70,0,0
18662,-133.333333333333,4,1,1,70,0,0
19329,-100,4,1,1,70,0,0
20662,-200,4,1,1,70,0,0
20995,-66.6666666666667,4,1,1,70,0,0
21328,-100,4,1,1,70,0,0
21995,-200,4,1,1,70,0,0
22662,-100,4,1,1,70,0,0
23995,-133.333333333333,4,1,1,70,0,0
24662,-100,4,1,1,70,0,0
25995,-200,4,1,1,70,0,0
26329,-66.6666666666667,4,1,1,70,0,0
26662,-100,4,1,1,70,0,0
27329,-200,4,1,1,70,0,0
27995,-100,4,1,1,70,0,0
29328,-100,4,1,1,70,0,1
31828,-200,4,1,1,70,0,1
31995,-50,4,1,1,70,0,1
38328,-100,4,1,1,70,0,1
38662,-133.333333333333,4,1,1,70,0,1
39828,-50,4,1,1,70,0,1
39995,-200,4,1,1,70,0,0
40828,-133.333333333333,4,1,1,70,0,0
41328,-100,4,1,1,70,0,0
41995,-66.6666666666667,4,1,1,70,0,0
43328,-58.8235294117647,4,1,1,70,0,0
43662,-66.6666666666667,4,1,1,70,0,0
44995,-66.6666666666667,4,1,2,98,0,0
45328,-50,4,1,1,70,0,0
45662,-100,4,1,2,70,0,0
45995,-50,4,1,1,70,0,0
46328,-100,4,1,1,70,0,0
47328,-200,4,1,1,70,0,0
47745,-83.3333333333333,4,1,1,70,0,0
48662,-66.6666666666667,4,1,1,70,0,0
48995,-58.8235294117647,4,1,1,70,0,0
50662,-200,4,1,1,70,0,0
52662,-66.6666666666667,4,1,1,70,0,0
55662,-66.6666666666667,4,1,2,100,0,0
56662,-100,4,1,2,70,0,0
57328,-83.3333333333333,4,1,1,70,0,0
57995,-66.6666666666667,4,1,1,70,0,0
58662,-83.3333333333333,4,1,1,70,0,0
60662,-50,4,1,2,97,0,0
61328,-100,4,2,0,70,0,0
70328,-133.333333333333,4,2,0,70,0,0
70995,-133.333333333333,4,1,1,70,0,0
71328,-133.333333333333,4,2,0,70,0,0
71995,-200,4,2,0,70,0,0
72662,-200,4,2,0,50,0,0
73328,-200,4,2,0,40,0,0
73995,-200,4,2,0,70,0,0
74328,-200,4,1,2,70,0,0
74662,-100,4,2,1,70,0,0
83995,-100,4,1,1,70,0,0
85328,-100,4,2,1,70,0,0
89995,-100,4,2,1,70,0,0
90662,-83.3333333333333,4,2,1,70,0,0
90912,-100,4,2,1,70,0,0
93995,-50,4,2,1,70,0,0
94162,-66.6666666666667,4,2,1,70,0,0
94328,-66.6666666666667,4,2,1,70,0,0
94495,-50,4,2,1,70,0,0
94662,-100,4,1,1,70,0,0
99995,-344.827586206897,4,1,1,70,0,0
101328,-133.333333333333,4,1,1,70,0,0
101995,-100,4,1,1,70,0,0
103328,-200,4,1,1,70,0,0
103662,-66.6666666666667,4,1,1,70,0,0
103995,-100,4,1,1,70,0,0
104662,-200,4,1,1,70,0,0
105328,-100,4,1,1,70,0,0
106662,-133.333333333333,4,1,1,70,0,0
107328,-100,4,1,1,70,0,0
107995,-76.9230769230769,4,1,1,70,0,0
108328,-100,4,1,1,70,0,0
108662,-200,4,1,1,70,0,0
108995,-66.6666666666667,4,1,1,70,0,0
109328,-76.9230769230769,4,1,1,70,0,0
111328,-58.8235294117647,4,1,1,70,0,0
111995,-58.8235294117647,4,1,1,70,0,1
122328,-178.571428571429,4,1,1,70,0,0
122995,-133.333333333333,4,1,1,70,0,0
123162,-66.6666666666667,4,2,1,50,0,0
124745,-72.463768115942,4,2,1,37,0,0
126078,-80,4,2,1,20,0,0
127412,-133.333333333333,4,2,1,30,0,0

[Colours]
Combo1 : 255,0,255
Combo2 : 255,255,0
SliderBorder : 0,255,255
SliderTrackOverride : 0,0,0

[HitObjects]
120,300,7328,6,0,L|260:308,1,135,4|0,0:0|2:0,0:0:0:0:
448,276,7995,2,0,L|377:272,1,67.5,0|0,0:0|2:0,0:0:0:0:
289,227,8328,2,0,P|230:182|114:180,1,168.750006437302,0|0,0:0|2:0,0:0:0:0:
17,131,8884,5,0,0:0:0:0:
116,53,8995,2,0,L|68:44,3,30,0|0|0|0,0:0|2:0|0:0|0:0,0:0:0:0:
221,80,9273,6,0,P|254:89|297:86,1,75,4|0,0:0|2:0,0:0:0:0:
416,217,9995,5,0,0:0:0:0:
262,185,10162,1,0,0:0:0:0:
229,48,10328,1,0,0:0:0:0:
398,72,10495,1,0,0:0:0:0:
323,6,10662,5,0,0:0:0:0:
311,45,10829,1,0,0:0:0:0:
310,89,10995,1,0,0:0:0:0:
326,131,11162,1,0,0:0:0:0:
340,174,11329,5,0,0:0:0:0:
339,219,11495,1,0,0:0:0:0:
326,258,11662,1,0,0:0:0:0:
416,217,11829,1,0,0:0:0:0:
456,308,11996,1,0,0:0:0:0:
366,348,12162,1,0,0:0:0:0:
390,285,12329,5,0,1:0:0:0:
390,285,12662,6,0,P|336:289|308:265,1,80.9999975280763
244,165,13079,2,0,L|230:22,1,135,4|0,0:2|0:0,0:0:0:0:
125,64,13496,1,0,0:0:0:0:
232,69,13662,1,0,0:0:0:0:
340,75,13829,1,0,0:0:0:0:
436,213,13996,6,0,P|456:260|455:292,1,78.75
443,319,14662,6,0,P|446:264|422:215,1,110.249996635437
410,220,15329,6,0,P|435:300|406:363,1,141.749995674133
379,374,15996,6,0,P|423:305|391:217,1,173.250005287171
280,198,16662,6,0,L|230:191,1,45
104,101,16912,2,0,P|148:44|224:77,1,153.000002918243
280,198,17329,6,0,L|230:191,1,45,0|0,1:0|0:0,0:0:0:0:
239,312,17829,5,0,0:0:0:0:
234,334,17912,1,0,0:0:0:0:
230,356,17995,1,0,0:0:0:0:
362,218,18162,5,0,0:0:0:0:
353,173,18245,1,0,0:0:0:0:
345,129,18329,1,8,0:2:0:0:
345,129,18662,6,0,L|334:207,1,67.5000025749208,2|0,0:0|0:0,0:0:0:0:
198,236,18996,2,0,L|186:311,1,67.5000025749208
111,132,19329,2,0,P|151:113|198:118,1,90,8|0,0:0|0:0,0:0:0:0:
344,296,19662,2,0,P|395:298|433:275,1,90
198,236,19996,5,0,0:0:0:0:
86,351,20162,1,0,0:0:0:0:
174,317,20329,1,0,0:0:0:0:
0,261,20496,1,0,0:0:0:0:
84,160,20662,6,0,P|85:116|74:80,1,67.5,8|0,0:0|2:0,0:0:0:0:
70,74,20995,2,0,B|187:53|154:93|276:68,1,202.500007724762,4|0,0:2|0:0,0:0:0:0:
419,109,21328,6,0,L|531:96,1,90,2|0,0:0|0:0,0:0:0:0:
244,173,21662,2,0,L|354:159,1,90
512,262,21995,6,0,P|476:286|435:288,1,67.5,8|0,0:0|2:0,0:0:0:0:
319,261,22328,1,0,0:0:0:0:
352,257,22412,1,0,0:0:0:0:
385,261,22495,1,0,0:0:0:0:
352,348,22662,5,2,0:0:0:0:
137,268,22829,2,0,P|86:263|32:288,1,90
174,350,23162,5,0,0:0:0:0:
201,335,23246,1,0,0:0:0:0:
218,306,23329,5,8,0:0:0:0:
223,275,23412,1,0,0:0:0:0:
216,236,23496,1,0,0:0:0:0:
195,204,23579,1,0,0:0:0:0:
156,175,23662,5,0,0:0:0:0:
113,146,23746,1,0,0:0:0:0:
94,98,23829,1,0,0:0:0:0:
111,45,23912,1,0,0:0:0:0:
170,8,23996,6,0,P|208:0|252:9,1,67.5000025749208,2|0,0:0|0:0,0:0:0:0:
255,159,24329,2,0,P|226:126|221:84,1,67.5000025749208
356,92,24662,2,0,P|378:125|376:180,1,90,8|0,0:0|0:0,0:0:0:0:
97,231,24996,2,0,P|55:215|30:172,1,90
111,45,25328,5,2,0:0:0:0:
251,33,25496,1,0,0:0:0:0:
195,204,25662,1,0,0:0:0:0:
288,132,25829,1,0,0:0:0:0:
380,174,25995,6,0,P|397:203|407:243,1,67.5,8|0,0:0|2:0,0:0:0:0:
413,272,26329,2,0,L|443:45,1,202.500007724762,4|0,2:0|0:0,0:0:0:0:
320,52,26662,6,0,P|267:83|215:76,1,90,2|0,0:0|0:0,0:0:0:0:
25,147,26996,2,0,P|49:184|90:201,1,90
138,16,27329,6,0,L|149:91,1,67.5,8|0,0:0|2:0,0:0:0:0:
193,233,27662,5,0,0:0:0:0:
199,199,27745,1,0,0:0:0:0:
206,166,27828,1,0,0:0:0:0:
213,133,27995,5,2,0:0:0:0:
281,313,28162,2,0,P|246:338|191:333,1,90
193,233,28495,5,0,0:0:0:0:
199,199,28578,1,0,0:0:0:0:
206,166,28661,5,8,0:0:0:0:
213,133,28745,1,0,0:0:0:0:
225,99,28828,1,0,0:0:0:0:
243,67,28912,1,0,0:0:0:0:
274,35,28995,5,0,0:0:0:0:
326,20,29078,1,0,0:0:0:0:
386,28,29162,1,0,0:0:0:0:
440,65,29245,1,0,0:0:0:0:
459,134,29328,5,2,0:0:0:0:
460,163,29411,1,0,0:0:0:0:
452,192,29494,1,0,0:0:0:0:
435,217,29577,1,0,0:0:0:0:
331,247,29662,5,0,0:0:0:0:
329,217,29745,1,0,0:0:0:0:
337,188,29828,1,0,0:0:0:0:
354,163,29911,1,0,0:0:0:0:
435,217,29995,5,8,0:0:0:0:
447,259,30078,1,0,0:0:0:0:
434,302,30161,1,0,0:0:0:0:
399,329,30244,1,0,0:0:0:0:
331,247,30328,5,0,0:0:0:0:
288,232,30411,1,0,0:0:0:0:
244,238,30494,1,0,0:0:0:0:
208,263,30577,1,0,0:0:0:0:
129,317,30662,6,0,L|56:329,3,45,2|0|0|0,0:0|0:0|0:0|0:0,0:0:0:0:
282,334,30995,2,0,L|329:328,3,45
208,263,31328,5,8,0:0:0:0:
186,232,31411,1,0,0:0:0:0:
174,196,31494,1,0,0:0:0:0:
172,158,31577,1,0,0:0:0:0:
183,114,31661,1,0,0:0:0:0:
220,77,31744,1,0,0:0:0:0:
272,61,31828,1,0,0:0:0:0:
302,2,31995,6,0,P|339:68|219:97,1,180,2|0,0:0|0:0,0:0:0:0:
220,77,32245,1,0,0:0:0:0:
155,46,32328,2,0,P|71:28|31:100,1,180
81,165,32578,1,0,0:0:0:0:
160,184,32662,6,0,L|354:200,1,180,8|0,0:0|0:3,0:3:0:0:
402,243,32912,1,0,0:3:0:0:
467,167,32995,2,0,L|276:155,1,180,4|0,0:2|0:0,0:0:0:0:
145,309,33328,5,2,0:0:0:0:
124,338,33411,1,0,0:0:0:0:
88,342,33495,1,0,0:0:0:0:
59,320,33578,1,0,0:0:0:0:
55,285,33661,1,0,0:0:0:0:
76,256,33745,1,0,0:0:0:0:
112,251,33828,1,0,0:0:0:0:
141,273,33911,1,0,0:0:0:0:
224,233,33995,5,8,0:0:0:0:
292,220,34078,1,0,0:0:0:0:
331,162,34161,1,0,0:0:0:0:
319,93,34245,1,0,0:0:0:0:
262,54,34328,1,0,0:0:0:0:
193,66,34411,1,0,0:0:0:0:
153,124,34495,1,0,0:0:0:0:
166,194,34579,1,0,0:0:0:0:
241,144,34662,5,2,0:0:0:0:
100,297,34995,1,0,0:0:0:0:
241,144,35328,5,2,0:0:0:0:
100,297,35661,1,0,0:0:0:0:
241,144,35995,5,2,0:0:0:0:
100,297,36328,1,0,0:0:0:0:
241,144,36662,5,2,0:0:0:0:
451,219,36912,1,0,0:0:0:0:
464,178,36995,1,0,0:0:0:0:
100,297,37162,1,0,0:0:0:0:
241,144,37328,5,2,0:0:0:0:
451,219,37495,1,0,0:0:0:0:
241,144,37662,1,2,0:0:0:0:
100,297,37828,1,0,0:0:0:0:
241,144,37995,5,2,0:0:0:0:
451,219,38162,1,0,0:0:0:0:
100,297,38328,2,0,P|114:271|141:248,1,45
221,256,38495,2,0,P|244:254|282:235,1,45
241,144,38662,6,0,P|299:107|385:108,1,135.000005149842,2|0,0:0|0:0,0:0:0:0:
372,101,39079,1,0,0:0:0:0:
380,101,39162,1,0,0:0:0:0:
388,100,39246,1,0,0:0:0:0:
396,99,39328,1,0,0:0:0:0:
318,87,39412,5,0,0:0:0:0:
240,76,39495,1,0,0:0:0:0:
162,64,39579,1,0,0:0:0:0:
84,53,39662,1,0,0:0:0:0:
344,216,39828,6,0,L|336:325,1,90
246,300,39995,6,0,B|296:283|337:306|337:306|357:265|409:248,1,180,0|8,0:0|0:0,0:0:0:0:
480,165,40828,2,0,L|427:159,1,33.7500012874604
288,131,40995,1,0,0:0:0:0:
281,97,41078,1,0,0:0:0:0:
275,64,41161,1,0,0:0:0:0:
269,31,41245,1,0,0:0:0:0:
246,5,41328,6,0,P|228:34|211:50,1,45,2|0,0:0|0:0,0:0:0:0:
335,97,41495,2,0,P|362:125|377:132,1,45
480,165,41662,1,0,0:0:0:0:
392,264,41884,1,0,0:0:0:0:
466,243,41995,6,0,B|416:235|416:235|368:247|368:247|318:239|318:239|262:242,1,202.500007724762,4|0,0:2|0:0,0:0:0:0:
186,303,42328,2,0,P|128:211|200:181,1,202.500007724762,4|0,0:2|0:0,0:0:0:0:
392,264,42662,5,2,0:0:0:0:
396,246,42995,2,0,L|383:151,1,67.5000025749208
447,43,43162,2,0,L|456:109,1,67.5000025749208
264,80,43328,2,0,L|167:73,1,76.5000014591217,8|0,0:0|2:0,0:0:0:0:
66,132,43495,2,0,L|142:137,1,76.5000014591217,0|0,0:0|2:0,0:0:0:0:
326,148,43662,5,0,0:0:0:0:
353,112,43717,1,0,0:0:0:0:
359,68,43773,1,0,0:0:0:0:
342,27,43828,1,0,0:0:0:0:
307,0,43884,5,0,0:0:0:0:
183,318,43995,2,0,L|165:432,2,67.5000025749208,2|0|0,0:0|0:0|0:0,0:0:0:0:
66,132,44328,2,0,P|32:136|4:154,1,67.5000025749208
222,218,44495,5,0,0:0:0:0:
244,216,44578,1,0,0:0:0:0:
267,215,44662,1,8,0:0:0:0:
430,268,44828,1,0,0:2:0:0:
357,301,44912,1,0,0:0:0:0:
385,353,44995,6,0,L|398:134,1,202.500007724762,4|0,0:0|0:0,0:0:0:0:
391,60,45328,2,0,B|394:19|394:19|462:22|462:22|476:103|431:140|380:135,1,270,2|0,0:0|0:0,0:0:0:0:
194,78,45662,2,0,P|160:75|200:87,1,135,2|0,0:0|0:0,0:0:0:0:
267,59,45995,6,0,P|225:14|78:103,1,270,8|0,0:0|0:0,0:0:0:0:
52,254,46328,6,0,L|33:266,1,22.5
99,315,46412,2,0,L|87:333,1,22.5
172,343,46495,2,0,L|166:364,1,22.5
250,345,46578,2,0,L|248:366,1,22.5
212,271,46662,5,2,0:0:0:0:
133,238,46828,1,0,0:0:0:0:
201,185,46995,1,0,0:0:0:0:
240,101,47162,1,0,0:0:0:0:
388,207,47328,6,0,P|442:203|467:176,1,90,8|0,0:0|0:0,0:0:0:0:
240,101,47745,2,0,L|88:92,1,134.999995880127
79,100,47995,5,2,0:0:0:0:
162,69,48162,1,0,0:0:0:0:
271,110,48328,1,0,0:0:0:0:
415,70,48495,1,0,0:0:0:0:
511,200,48662,2,0,P|453:239|389:227,1,135.000005149842,8|0,0:0|0:0,0:0:0:0:
346,296,48912,1,0,0:0:0:0:
374,222,48995,2,0,B|331:207|294:236|294:236|254:217|234:153|280:99,1,229.500004377365
340,146,49328,5,2,0:0:0:0:
283,153,49578,1,2,0:0:0:0:
226,161,49828,1,2,0:0:0:0:
55,185,50078,5,0,0:0:0:0:
112,177,50162,1,0,0:0:0:0:
169,169,50245,1,0,0:0:0:0:
226,161,50328,1,0,0:0:0:0:
340,146,50412,5,0,0:0:0:0:
471,273,50662,6,0,B|472:289|472:289|471:315|471:315|478:336|478:336|480:369,1,90,4|0,0:2|0:0,0:0:0:0:
389,221,51162,5,0,0:0:0:0:
296,287,51328,5,8,0:0:0:0:
280,323,51412,2,0,L|286:356,2,22.5
254,293,51662,5,0,0:0:0:0:
243,246,51745,1,0,0:0:0:0:
261,197,51828,1,0,0:0:0:0:
226,161,51912,1,0,0:0:0:0:
248,110,51995,5,2,0:0:0:0:
219,40,52078,1,0,0:0:0:0:
290,16,52161,1,0,0:0:0:0:
318,85,52245,1,0,0:0:0:0:
248,110,52328,5,0,0:0:0:0:
81,262,52578,1,0,0:0:0:0:
57,311,52662,6,0,B|69:157|69:157|30:200,1,202.500007724762,4|0,0:2|0:0,0:0:0:0:
81,262,52995,2,0,B|241:247|241:247|176:214,1,202.500007724762,4|0,0:2|0:0,0:0:0:0:
70,158,53328,5,2,0:0:0:0:
47,127,53495,1,0,0:0:0:0:
37,80,53662,1,0,0:0:0:0:
41,34,53828,1,0,0:0:0:0:
136,23,53995,6,0,P|143:93|201:140,1,135.000005149842,8|0,0:0|0:0,0:0:0:0:
227,50,54328,1,0,0:0:0:0:
481,197,54495,2,0,L|393:188,1,67.5000025749208
334,183,54662,5,2,0:0:0:0:
188,200,54828,1,0,0:0:0:0:
39,185,54995,2,0,L|127:194,1,67.5000025749208
288,98,55162,5,0,0:0:0:0:
293,64,55245,1,0,0:0:0:0:
298,31,55328,1,8,0:0:0:0:
222,287,55495,1,0,0:0:0:0:
297,335,55578,1,0,0:0:0:0:
255,381,55662,6,0,B|298:336|298:336|270:151,1,202.500007724762,4|0,0:0|0:0,0:0:0:0:
298,31,55995,5,2,0:0:0:0:
213,124,56162,1,0,0:0:0:0:
334,183,56328,1,0,0:0:0:0:
222,287,56495,1,0,0:0:0:0:
463,298,56662,2,0,B|480:282|480:282|509:293|509:293|476:318|430:316|401:293,1,150,2|0,0:0|0:0,0:0:0:0:
395,288,56995,5,0,0:0:0:0:
346,239,57078,1,0,0:0:0:0:
334,183,57162,1,0,0:0:0:0:
340,136,57245,1,0,0:0:0:0:
355,103,57328,6,0,P|373:70|404:38,1,53.9999983520508,2|0,0:0|2:0,0:0:0:0:
215,88,57495,2,0,P|212:62|219:19,1,53.9999983520508,0|0,0:0|2:0,0:0:0:0:
108,139,57662,2,0,P|97:111|95:64,1,53.9999983520508,0|0,0:0|2:0,0:0:0:0:
68,228,57828,2,0,P|43:205|26:169,1,53.9999983520508,0|0,0:0|2:0,0:0:0:0:
75,305,57995,6,0,P|129:279|141:204,1,135.000005149842,8|0,0:0|0:0,0:0:0:0:
154,302,58328,6,0,B|213:293|213:293|292:308|292:308|377:295,1,202.500007724762,4|0,0:2|0:0,0:0:0:0:
440,343,58662,2,0,B|490:335|490:335|526:272|492:224|430:223,1,161.999995056153,2|0,0:0|2:0,0:0:0:0:
454,232,58995,2,0,B|404:225|404:225|363:175|389:129|453:109,1,161.999995056153
438,115,59328,5,0,0:0:0:0:
469,93,59412,1,0,0:0:0:0:
480,44,59495,1,0,0:0:0:0:
450,3,59578,1,0,0:0:0:0:
392,0,59662,1,0,0:0:0:0:
262,89,59828,5,0,0:0:0:0:
316,92,59911,1,0,0:0:0:0:
367,75,59994,5,2,0:0:0:0:
359,179,60245,1,2,0:0:0:0:
276,274,60495,1,2,0:0:0:0:
147,301,60662,2,0,B|189:372|189:372|166:138,1,270
83,34,60995,5,8,0:2:0:0:
83,34,61328,5,4,0:1:0:0:
47,256,61662,1,0,0:0:0:0:
71,108,61995,1,2,0:0:0:0:
59,182,62162,1,0,0:0:0:0:
35,330,62495,1,0,0:0:0:0:
99,39,62662,5,0,0:1:0:0:
63,261,62996,1,0,0:0:0:0:
87,113,63329,1,2,0:0:0:0:
75,187,63496,1,0,0:0:0:0:
51,335,63829,1,0,0:0:0:0:
116,44,63995,5,0,0:1:0:0:
80,266,64329,1,0,0:0:0:0:
104,118,64662,1,2,0:0:0:0:
92,192,64829,1,0,0:0:0:0:
68,340,65162,1,0,0:0:0:0:
136,48,65328,5,0,0:1:0:0:
355,314,66662,5,2,0:0:0:0:
384,297,66745,1,0,0:0:0:0:
416,288,66828,1,0,0:0:0:0:
450,288,66911,1,0,0:0:0:0:
482,296,66995,1,0,0:0:0:0:
330,159,67328,5,0,0:0:0:0:
298,168,67412,1,0,0:0:0:0:
268,185,67495,1,0,0:0:0:0:
245,208,67578,1,0,0:0:0:0:
229,238,67661,1,0,0:0:0:0:
467,148,67828,1,0,0:0:0:0:
344,304,67995,5,2,0:0:0:0:
373,287,68078,1,0,0:0:0:0:
405,278,68161,1,0,0:0:0:0:
439,278,68244,1,0,0:0:0:0:
471,286,68328,1,0,0:0:0:0:
319,149,68661,5,0,0:0:0:0:
287,158,68745,1,0,0:0:0:0:
257,175,68828,1,0,0:0:0:0:
234,198,68911,1,0,0:0:0:0:
218,228,68995,2,0,P|200:157|137:116,1,135,4|0,0:2|0:0,0:0:0:0:
29,98,69328,5,0,0:1:0:0:
174,66,69495,1,0,0:0:0:0:
101,82,69662,1,0,0:0:0:0:
248,52,69828,1,0,0:0:0:0:
29,98,69995,5,2,0:0:0:0:
248,52,70162,1,0,0:0:0:0:
512,64,70328,2,0,L|362:95,1,135.000005149842,2|0,0:0|0:0,0:0:0:0:
250,118,70828,1,0,1:0:0:0:
250,118,70995,5,0,1:0:0:0:
250,177,71078,1,0,1:0:0:0:
250,236,71161,1,0,1:0:0:0:
250,295,71244,1,0,1:0:0:0:
250,354,71328,5,0,0:0:0:0:
208,358,71412,1,0,0:0:0:0:
174,335,71495,1,0,0:0:0:0:
175,294,71578,1,0,0:0:0:0:
203,264,71662,5,0,0:0:0:0:
216,263,71745,1,0,0:0:0:0:
227,267,71828,1,0,0:0:0:0:
231,278,71912,1,0,0:0:0:0:
232,289,71995,6,0,L|219:197,1,90,2|0,0:0|0:0,0:0:0:0:
130,199,72662,2,0,L|117:107,1,90,2|0,0:0|0:0,0:0:0:0:
275,110,73328,2,0,L|262:18,1,90,2|0,0:0|0:0,0:0:0:0:
479,90,73995,5,0,1:0:0:0:
512,148,74106,1,0,1:0:0:0:
496,214,74217,1,0,1:0:0:0:
437,248,74328,6,0,L|426:161,1,75,2|0,0:0|0:0,0:0:0:0:
411,190,74662,6,0,L|398:90,1,90,2|0,1:0|0:0,0:0:0:0:
321,39,74912,1,0,0:0:0:0:
213,36,74995,2,0,P|238:57|257:80,1,45,2|0,0:0|0:0,0:0:0:0:
274,159,75162,2,0,P|244:152|207:155,1,45
43,110,75328,6,0,P|87:115|128:135,1,90,8|0,1:0|0:0,0:0:0:0:
196,209,75578,1,0,0:0:0:0:
229,300,75662,2,0,P|246:285|296:276,1,45,2|0,0:0|0:0,0:0:0:0:
425,291,75828,2,0,P|436:254|437:223,1,45
348,113,75995,6,0,P|356:162|328:230,1,90,2|0,1:0|0:0,0:0:0:0:
266,276,76245,1,0,0:0:0:0:
140,276,76328,2,0,L|60:267,1,45,2|0,0:0|0:0,0:0:0:0:
341,354,76495,2,0,L|393:360,1,45
346,200,76662,6,0,P|356:156|348:113,1,90,8|0,1:0|0:0,0:0:0:0:
284,18,76912,1,0,0:0:0:0:
165,17,76995,2,0,L|117:25,1,45,2|0,0:0|0:0,0:0:0:0:
46,191,77162,2,0,L|-26:203,1,45
176,118,77328,6,0,P|222:108|292:123,1,90,2|0,1:0|0:0,0:0:0:0:
383,148,77578,1,0,0:0:0:0:
478,205,77662,2,0,L|471:250,1,45,2|0,0:0|0:0,0:0:0:0:
257,320,77828,2,0,L|267:268,1,45
383,148,77995,6,0,L|403:30,1,90,8|0,1:0|0:0,0:0:0:0:
284,56,78245,1,0,0:0:0:0:
176,118,78328,2,0,L|195:188,1,45,2|0,0:0|0:0,0:0:0:0:
376,304,78495,2,0,L|363:253,1,45
163,251,78662,6,0,P|115:240|81:192,1,90,2|0,1:0|0:0,0:0:0:0:
68,84,78912,1,0,0:0:0:0:
154,16,78995,2,0,P|184:23|215:35,1,45,2|0,0:0|0:0,0:0:0:0:
394,112,79162,1,0,1:0:0:0:
332,115,79245,1,0,1:0:0:0:
289,163,79328,6,0,L|300:275,1,90,8|0,1:0|0:0,0:0:0:0:
376,304,79578,1,0,0:0:0:0:
473,325,79662,2,0,L|486:269,1,45,2|0,0:0|0:0,0:0:0:0:
160,221,79828,2,0,L|148:166,1,45
154,16,79995,5,2,1:0:0:0:
267,81,80162,2,0,L|244:139,1,45
150,177,80328,1,2,0:0:0:0:
107,191,80411,1,0,0:0:0:0:
75,222,80495,1,2,0:0:0:0:
58,263,80577,1,0,0:0:0:0:
57,309,80662,6,0,P|111:295|182:310,1,90,8|0,1:0|0:0,0:0:0:0:
217,318,80912,1,0,0:0:0:0:
296,325,80995,1,2,0:0:0:0:
341,307,81078,1,0,0:0:0:0:
358,262,81162,1,2,0:0:0:0:
403,244,81245,1,0,0:0:0:0:
420,197,81328,6,0,P|436:139|422:84,1,90,2|0,1:0|0:0,0:0:0:0:
372,52,81578,1,0,0:0:0:0:
294,80,81662,1,2,0:0:0:0:
250,87,81746,1,0,0:0:0:0:
188,35,81828,1,2,0:0:0:0:
141,21,81912,1,0,0:0:0:0:
94,97,81995,6,0,P|41:95|-5:132,1,90,8|0,1:0|0:0,0:0:0:0:
68,173,82245,1,0,0:0:0:0:
150,177,82328,1,2,0:0:0:0:
160,223,82411,1,0,0:0:0:0:
96,290,82495,1,2,0:0:0:0:
82,337,82578,1,0,0:0:0:0:
161,352,82662,6,0,P|211:363|278:350,1,90,2|0,1:0|0:0,0:0:0:0:
334,335,82912,1,0,0:0:0:0:
358,263,82995,1,2,0:0:0:0:
307,259,83078,1,0,0:0:0:0:
232,195,83162,1,2,0:0:0:0:
279,186,83245,1,0,0:0:0:0:
361,151,83328,6,0,L|369:62,1,90,8|0,1:0|0:0,0:0:0:0:
298,23,83578,1,0,0:0:0:0:
236,78,83662,1,2,0:0:0:0:
183,36,83745,1,0,0:0:0:0:
117,34,83828,1,2,0:0:0:0:
62,71,83911,1,0,0:0:0:0:
39,133,83995,5,2,0:0:0:0:
161,352,84162,2,0,L|172:276,1,45
199,157,84328,1,0,0:0:0:0:
144,121,84411,1,0,0:0:0:0:
108,175,84494,1,0,0:0:0:0:
162,211,84578,1,0,0:0:0:0:
156,165,84662,6,0,L|141:107,1,45,8|0,0:0|0:0,0:0:0:0:
376,208,84828,2,0,L|387:251,1,45
268,208,84995,2,0,L|257:165,1,45
500,252,85162,2,0,L|511:295,1,45
432,136,85328,5,2,1:0:0:0:
228,31,85495,2,0,L|164:37,1,45
201,46,85662,2,0,L|139:53,1,45,2|0,0:0|0:0,0:0:0:0:
176,60,85828,2,0,L|121:68,1,45
0,124,85995,5,8,1:0:0:0:
131,314,86162,2,0,L|143:246,1,45
238,284,86328,2,0,L|225:355,1,45,2|0,0:0|0:0,0:0:0:0:
330,340,86495,2,0,L|343:279,1,45
501,253,86662,5,2,1:0:0:0:
320,164,86829,2,0,L|304:123,1,45
193,102,86995,2,0,L|176:60,1,45,2|0,0:0|0:0,0:0:0:0:
64,57,87162,2,0,L|47:15,1,45
0,223,87328,5,8,1:0:0:0:
173,191,87495,2,0,L|257:176,1,45
320,164,87662,2,0,L|404:149,1,45,2|0,0:0|0:0,0:0:0:0:
465,136,87828,2,0,L|549:121,1,45
385,265,87995,5,2,1:0:0:0:
334,358,88162,2,0,L|418:371,1,45
495,249,88328,2,0,L|463:171,1,45,2|0,0:0|0:0,0:0:0:0:
320,164,88495,2,0,L|268:229,1,45
175,312,88662,5,8,1:0:0:0:
38,119,88828,2,0,L|48:177,1,45
188,45,88995,2,0,L|180:1,1,45,2|0,0:0|0:0,0:0:0:0:
320,164,89162,2,0,L|327:208,1,45
456,341,89328,5,2,1:0:0:0:
101,55,89495,2,0,L|22:47,1,45
272,300,89662,2,0,L|199:293,1,45,2|0,0:0|0:0,0:0:0:0:
466,188,89828,1,0,1:0:0:0:
443,186,89911,1,0,1:0:0:0:
421,184,89995,6,0,B|302:156|286:-2|411:-26|389:151|288:181,1,315,8|0,1:0|0:0,0:0:0:0:
171,204,90662,6,0,L|-22:220,1,161.999995056153,2|0,1:0|0:0,0:0:0:0:
147,282,90995,1,2,0:0:0:0:
191,284,91078,1,0,0:0:0:0:
230,264,91161,1,2,0:0:0:0:
252,225,91244,1,0,0:0:0:0:
251,181,91328,6,0,P|251:92|286:51,1,135,8|0,1:0|0:0,0:0:0:0:
378,105,91662,1,2,0:0:0:0:
404,141,91745,1,0,0:0:0:0:
378,178,91828,1,2,0:0:0:0:
335,164,91911,1,0,0:0:0:0:
335,119,91995,6,0,L|346:255,1,135,2|0,1:0|0:0,0:0:0:0:
481,332,92329,1,2,0:0:0:0:
464,290,92411,1,0,0:0:0:0:
432,259,92495,1,2,0:0:0:0:
389,246,92577,1,0,0:0:0:0:
345,253,92662,6,0,L|335:119,1,135,8|0,1:0|0:0,0:0:0:0:
378,105,92996,1,2,0:0:0:0:
404,141,93078,1,0,0:0:0:0:
378,178,93162,1,2,0:0:0:0:
335,164,93244,1,0,0:0:0:0:
335,119,93328,5,2,1:0:0:0:
240,89,93495,1,0,0:0:0:0:
127,90,93662,1,0,0:0:0:0:
34,129,93828,1,0,0:0:0:0:
68,284,93995,6,0,P|86:246|80:169,1,90,8|0,1:0|0:0,0:0:0:0:
181,311,94162,2,0,B|193:276|189:244,1,67.5000025749208
294,307,94328,2,0,P|297:273|292:240,1,67.5000025749208
405,262,94495,2,0,P|397:214|365:163,1,90
240,89,94662,5,2,0:0:0:0:
511,93,94828,2,0,L|443:83,1,45
309,74,94995,1,0,0:0:0:0:
240,89,95078,1,0,0:0:0:0:
174,67,95162,1,0,0:0:0:0:
106,86,95245,1,0,0:0:0:0:
62,137,95328,6,0,L|91:194,1,45,8|0,0:0|0:0,0:0:0:0:
177,327,95495,2,0,L|205:266,1,45
249,161,95662,2,0,L|299:172,1,45
495,225,95828,2,0,L|435:249,1,45
249,317,95995,5,2,0:0:0:0:
363,178,96162,2,0,L|374:115,1,45
249,19,96328,1,0,0:0:0:0:
240,89,96412,1,0,0:0:0:0:
249,161,96495,1,0,0:0:0:0:
241,240,96578,1,0,0:0:0:0:
249,317,96662,6,0,L|259:384,1,45,8|0,0:0|0:0,0:0:0:0:
159,209,96828,2,0,L|145:251,1,45
363,178,96995,2,0,L|375:221,1,45
117,58,97162,2,0,L|105:101,1,45
385,29,97328,5,2,0:0:0:0:
505,168,97495,2,0,L|489:235,1,45
407,323,97662,1,0,0:0:0:0:
329,307,97745,1,0,0:0:0:0:
249,317,97828,1,0,0:0:0:0:
177,355,97912,1,0,0:0:0:0:
91,357,97995,6,0,L|56:303,1,45,8|0,0:0|0:0,0:0:0:0:
131,145,98162,2,0,L|156:183,1,45
52,232,98328,2,0,L|17:178,1,45
92,20,98495,2,0,L|117:58,1,45
241,240,98662,5,2,0:0:0:0:
371,161,98828,2,0,L|392:121,1,45
277,41,98995,1,0,0:0:0:0:
244,71,99078,1,0,0:0:0:0:
222,109,99161,1,0,0:0:0:0:
215,153,99245,1,0,0:0:0:0:
227,197,99328,6,0,L|242:245,1,45,8|0,0:0|0:0,0:0:0:0:
329,296,99495,2,0,L|385:304,1,45
468,269,99662,2,0,L|504:224,1,45
510,137,99828,2,0,L|495:75,1,45
398,32,99995,6,0,B|352:95|404:117|355:185,1,156.600004779053,2|8,0:0|0:0,0:0:0:0:
72,344,101328,6,0,L|84:256,1,67.5000025749208,2|0,0:0|0:0,0:0:0:0:
84,336,101662,2,0,L|96:248,1,67.5000025749208
288,28,101995,6,0,L|272:141,1,90,8|0,0:0|0:0,0:0:0:0:
267,41,102329,2,0,L|251:154,1,90
174,196,102662,5,2,0:0:0:0:
270,260,102828,1,0,0:0:0:0:
379,272,102995,1,0,0:0:0:0:
477,230,103162,1,0,0:0:0:0:
510,133,103328,6,0,P|495:89|479:68,1,67.5,8|0,0:0|2:0,0:0:0:0:
452,51,103662,2,0,P|502:129|471:238,1,202.500007724762,4|0,0:2|0:0,0:0:0:0:
312,198,103995,6,0,P|283:140|278:103,1,90,2|0,0:0|0:0,0:0:0:0:
167,351,104328,2,0,P|196:293|201:256,1,90
157,49,104662,6,0,P|123:25|78:21,1,67.5,8|0,0:0|0:0,0:0:0:0:
117,136,104995,1,0,0:0:0:0:
143,156,105078,1,0,0:0:0:0:
175,165,105161,1,0,0:0:0:0:
360,128,105328,5,2,0:0:0:0:
121,39,105495,2,0,P|67:38|27:60,1,90
0,206,105828,5,0,0:0:0:0:
0,206,105912,1,0,0:0:0:0:
0,206,105995,5,8,0:0:0:0:
50,196,106078,1,0,0:0:0:0:
99,206,106162,1,0,0:0:0:0:
136,241,106245,1,0,0:0:0:0:
159,286,106328,5,0,0:0:0:0:
223,282,106412,1,0,0:0:0:0:
293,275,106495,1,0,0:0:0:0:
361,266,106578,1,0,0:0:0:0:
435,253,106662,6,0,L|451:168,1,67.5000025749208,2|0,0:0|0:0,0:0:0:0:
351,137,106995,2,0,P|351:88|331:50,1,67.5000025749208
208,53,107328,6,0,P|164:37|93:50,1,90,8|0,0:0|0:0,0:0:0:0:
235,183,107662,2,0,L|365:173,1,90
509,99,107995,6,0,P|523:159|464:249,1,175.499991966248,2|0,0:0|0:0,0:0:0:0:
324,176,108328,2,0,L|219:184,1,90
6,233,108662,6,0,P|62:236|87:252,1,67.5,8|0,0:0|0:0,0:0:0:0:
208,277,108995,2,0,P|286:279|300:143,1,202.500007724762,0|0,0:2|0:0,0:0:0:0:
255,88,109328,6,0,L|243:212,1,116.999994644165,2|0,0:0|0:0,0:0:0:0:
261,194,109578,1,0,0:0:0:0:
266,179,109661,1,0,0:0:0:0:
257,165,109745,1,0,0:0:0:0:
240,164,109828,1,0,0:0:0:0:
228,176,109911,1,0,0:0:0:0:
231,193,109995,5,8,0:0:0:0:
248,231,110079,1,0,0:0:0:0:
281,269,110163,1,0,0:0:0:0:
328,288,110246,1,0,0:0:0:0:
389,282,110329,1,0,0:0:0:0:
443,249,110413,1,0,0:0:0:0:
467,178,110496,1,0,0:0:0:0:
450,99,110579,1,0,0:0:0:0:
391,40,110663,5,2,0:0:0:0:
178,47,110828,6,0,L|271:34,1,58.4999973220826
331,124,110995,2,0,L|274:133,1,58.4999973220826
175,39,111162,2,0,L|268:26,1,58.4999973220826
328,116,111329,6,0,L|239:131,1,76.5000014591217,8|0,0:0|0:0,0:0:0:0:
27,238,111495,2,0,L|111:224,1,76.5000014591217
450,257,111662,2,0,L|345:271,1,76.5000014591217
148,384,111828,2,0,L|239:368,1,76.5000014591217
155,102,111995,5,2,0:0:0:0:
118,67,112078,1,0,0:0:0:0:
69,54,112161,1,0,0:0:0:0:
21,67,112244,1,0,0:0:0:0:
73,141,112328,5,0,0:0:0:0:
113,168,112411,1,0,0:0:0:0:
135,211,112494,1,0,0:0:0:0:
133,262,112577,1,0,0:0:0:0:
33,301,112662,5,8,0:0:0:0:
47,252,112745,1,0,0:0:0:0:
85,219,112828,1,0,0:0:0:0:
135,211,112911,1,0,0:0:0:0:
232,221,112995,5,0,0:0:0:0:
282,228,113078,1,0,0:0:0:0:
331,217,113161,1,0,0:0:0:0:
372,188,113244,1,0,0:0:0:0:
421,124,113328,5,2,0:0:0:0:
434,88,113412,1,0,0:0:0:0:
445,113,113495,1,0,0:0:0:0:
410,98,113578,1,0,0:0:0:0:
322,109,113662,6,0,L|231:85,1,76.5000014591217
191,0,113828,2,0,L|264:19,1,76.5000014591217
372,188,113995,5,8,0:0:0:0:
325,209,114078,1,0,0:0:0:0:
272,208,114162,1,0,0:0:0:0:
220,194,114245,1,0,0:0:0:0:
177,161,114328,5,0,0:0:0:0:
116,130,114412,1,0,0:0:0:0:
43,130,114495,1,0,0:0:0:0:
15,353,114662,5,2,0:0:0:0:
34,314,114745,1,0,0:0:0:0:
75,296,114828,1,0,0:0:0:0:
119,312,114911,1,0,0:0:0:0:
87,369,114995,5,0,0:0:0:0:
119,312,115078,1,0,0:0:0:0:
177,283,115162,1,0,0:0:0:0:
242,280,115245,1,0,0:0:0:0:
236,358,115328,5,8,0:0:0:0:
242,280,115412,1,0,0:0:0:0:
294,223,115495,1,0,0:0:0:0:
369,204,115578,1,0,0:0:0:0:
392,283,115662,5,0,0:0:0:0:
369,204,115745,1,0,0:0:0:0:
378,122,115828,1,0,0:0:0:0:
418,47,115912,1,0,0:0:0:0:
497,78,115995,5,2,0:0:0:0:
418,47,116078,1,0,0:0:0:0:
341,54,116162,1,0,0:0:0:0:
277,92,116245,1,0,0:0:0:0:
243,153,116328,1,0,0:0:0:0:
208,197,116412,1,0,0:0:0:0:
165,202,116495,1,0,0:0:0:0:
133,190,116578,1,0,0:0:0:0:
64,148,116662,5,8,0:0:0:0:
129,93,116745,1,0,0:0:0:0:
204,76,116829,1,0,0:0:0:0:
277,92,116912,1,0,0:0:0:0:
328,139,116995,1,0,0:0:0:0:
375,170,117079,1,0,0:0:0:0:
417,162,117162,1,0,0:0:0:0:
444,141,117245,1,0,0:0:0:0:
497,78,117328,5,0,0:0:0:0:
64,148,117662,1,0,0:0:0:0:
497,78,117995,5,2,0:0:0:0:
64,148,118329,1,0,0:0:0:0:
497,78,118662,5,2,0:0:0:0:
64,148,118996,1,0,0:0:0:0:
329,369,119328,5,2,0:0:0:0:
291,292,119495,2,0,L|280:179,1,76.5000014591217
250,196,119662,5,0,0:0:0:0:
265,99,119745,5,0,0:0:0:0:
305,155,119828,5,0,0:0:0:0:
209,139,119912,5,0,0:0:0:0:
257,148,119995,6,0,L|257:49,1,76.5000014591217,2|0,0:0|0:0,0:0:0:0:
139,73,120162,2,0,P|117:32|111:-9,1,76.5000014591217
376,76,120329,2,0,P|395:39|404:-6,1,76.5000014591217
257,148,120495,6,0,L|257:49,1,76.5000014591217,2|0,0:0|0:0,0:0:0:0:
85,129,120662,2,0,P|46:102|31:70,1,76.5000014591217
436,131,120829,2,0,P|476:100|492:63,1,76.5000014591217
257,148,120995,6,0,L|257:49,1,76.5000014591217,2|0,0:0|0:0,0:0:0:0:
68,199,121162,2,0,P|20:183|-7:162,1,76.5000014591217
444,199,121328,2,0,P|492:183|519:162,1,76.5000014591217
257,148,121495,6,0,L|257:49,1,76.5000014591217,2|0,0:0|0:0,0:0:0:0:
66,277,121662,2,0,P|23:283|-13:273,1,76.5000014591217
446,277,121828,2,0,P|489:283|525:273,1,76.5000014591217
257,148,121995,6,0,L|257:49,1,76.5000014591217,2|0,0:0|0:0,0:0:0:0:
97,352,122162,2,0,P|61:367|19:367,1,76.5000014591217
415,352,122328,6,0,P|451:367|500:365,1,75.6000009228516
224,306,122662,5,0,0:0:0:0:
291,284,122745,5,0,0:0:0:0:
223,272,122828,5,0,0:0:0:0:
290,248,122912,5,0,0:0:0:0:
257,215,122995,2,0,L|257:124,1,67.5000025749208
343,56,123440,6,0,P|445:188|344:322,1,360.000013732911
172,320,124106,6,0,P|72:170|207:52,1,360.000013732911
343,56,124773,6,0,P|427:187|344:322,1,331.200000505371
172,320,125440,6,0,P|91:173|201:48,1,331.200000505371
343,56,126106,6,0,P|406:184|343:322,1,300
172,320,126773,6,0,P|116:173|187:50,1,300
256,27,127440,6,0,L|256:249,1,180.000006866455
256,27,128773,2,0,L|256:241,1,180.000006866455
