osu file format v14

[General]
AudioFilename: audio.mp3
AudioLeadIn: 0
PreviewTime: 0
Countdown: 0
SampleSet: Normal
StackLeniency: 0.2
Mode: 0
LetterboxInBreaks: 0
WidescreenStoryboard: 1

[Editor]
Bookmarks: 3371
DistanceSpacing: 0.6
BeatDivisor: 4
GridSize: 4
TimelineZoom: 3.199999

[Metadata]
Title:Frozen Time
TitleUnicode:Frozen Time
Artist:sqwv+
ArtistUnicode:sqwv+
Creator:Pandize
Version:Timestop
Source:Dungreed
Tags:
BeatmapID:2157085
BeatmapSetID:1031558

[Difficulty]
HPDrainRate:7
CircleSize:4.5
OverallDifficulty:7
ApproachRate:9
SliderMultiplier:1.4
SliderTickRate:1

[Events]
//Background and Video events
0,0,"Illustration52.jpg",0,0
//Break Periods
//Storyboard Layer 0 (Background)
//Storyboard Layer 1 (Fail)
//Storyboard Layer 2 (Pass)
//Storyboard Layer 3 (Foreground)
//Storyboard Layer 4 (Overlay)
//Storyboard Sound Samples

[TimingPoints]
95,344.827586206897,4,3,1,10,1,0
95,-1000,4,3,1,15,0,0
698,-1000,4,3,1,5,0,0
785,344.827586206897,4,3,1,30,1,0
785,-133.333333333333,4,3,1,30,0,0
1560,-133.333333333333,4,3,1,5,0,0
1647,-133.333333333333,4,3,1,30,0,0
1905,-133.333333333333,4,3,1,5,0,0
1991,-133.333333333333,4,3,1,30,0,0
2940,-133.333333333333,4,3,1,5,0,0
3026,-133.333333333333,4,3,1,30,0,0
5095,-153.846153846154,4,3,1,30,0,0
5440,-181.818181818182,4,3,1,30,0,0
5785,-222.222222222222,4,3,1,30,0,0
6302,-133.333333333333,4,3,1,30,0,0
7078,-133.333333333333,4,3,1,5,0,0
7164,-133.333333333333,4,3,1,30,0,0
7422,-133.333333333333,4,3,1,5,0,0
7509,-133.333333333333,4,3,1,30,0,0
8457,-133.333333333333,4,3,1,5,0,0
8543,-133.333333333333,4,3,1,30,0,0
11302,-333.333333333333,4,3,1,30,0,0
11560,-133.333333333333,4,3,1,5,0,0
11647,-133.333333333333,4,3,1,30,0,0
12164,-100,4,1,1,50,0,0
24233,-80,4,1,1,50,0,0
25612,-66.6666666666667,4,1,1,50,0,0
26991,-57.1428571428571,4,1,1,50,0,0
28371,-50,4,1,1,50,0,0
29750,-44.4444444444445,4,1,1,50,0,0
31129,-40,4,1,1,50,0,0
34233,-40,4,1,1,20,0,0
34405,-40,4,1,1,30,0,0
34578,-40,4,1,1,40,0,0
34750,-40,4,1,1,50,0,0
34922,-40,4,1,1,65,0,0
35009,-40,4,1,1,5,0,0
35095,-40,4,1,1,80,0,0
35181,-40,4,1,1,5,0,0
35267,-28.5714285714286,4,1,1,90,0,0
35526,-28.5714285714286,4,1,1,5,0,0
35612,-66.6666666666667,4,1,1,90,0,0
35698,-66.6666666666667,4,1,1,5,0,0
35785,-66.6666666666667,4,1,1,90,0,0
35871,-66.6666666666667,4,1,1,5,0,0
35957,-66.6666666666667,4,1,1,90,0,0
36129,-66.6666666666667,4,1,1,90,0,0
36216,-66.6666666666667,4,1,1,5,0,0
36302,-66.6666666666667,4,1,1,90,0,0
36388,-66.6666666666667,4,1,1,5,0,0
36474,-66.6666666666667,4,1,1,90,0,0
36560,-66.6666666666667,4,1,1,5,0,0
36647,-133.333333333333,4,1,1,90,0,0
36905,-133.333333333333,4,1,1,5,0,0
36991,-66.6666666666667,4,1,1,90,0,0
37078,-66.6666666666667,4,1,1,5,0,0
37164,-66.6666666666667,4,1,1,90,0,0
37250,-66.6666666666667,4,1,1,5,0,0
37336,-66.6666666666667,4,1,1,90,0,0
38026,-133.333333333333,4,1,1,90,0,0
38285,-133.333333333333,4,1,1,5,0,0
38371,-66.6666666666667,4,1,1,90,0,0
38457,-66.6666666666667,4,1,1,5,0,0
38543,-66.6666666666667,4,1,1,90,0,0
38888,-66.6666666666667,4,1,1,90,0,0
38974,-66.6666666666667,4,1,1,5,0,0
39060,-66.6666666666667,4,1,1,90,0,0
39147,-66.6666666666667,4,1,1,5,0,0
39233,-66.6666666666667,4,1,1,90,0,0
39319,-66.6666666666667,4,1,1,5,0,0
39405,-66.6666666666667,4,1,1,90,0,0
39578,-66.6666666666667,4,1,1,5,0,0
39664,-66.6666666666667,4,1,1,90,0,0
39836,-66.6666666666667,4,1,1,5,0,0
39922,-66.6666666666667,4,1,1,90,0,0
40009,-66.6666666666667,4,1,1,5,0,0
40095,-66.6666666666667,4,1,1,90,0,0
40526,-66.6666666666667,4,1,1,5,0,0
40612,-66.6666666666667,4,1,1,90,0,0
40785,-133.333333333333,4,1,1,90,0,0
41043,-133.333333333333,4,1,1,5,0,0
41129,-66.6666666666667,4,1,1,90,0,0
41216,-66.6666666666667,4,1,1,5,0,0
41302,-66.6666666666667,4,1,1,90,0,0
41388,-66.6666666666667,4,1,1,5,0,0
41474,-66.6666666666667,4,1,1,90,0,0
41733,-66.6666666666667,4,1,1,5,0,0
41819,-66.6666666666667,4,1,1,90,0,0
41905,-66.6666666666667,4,1,1,5,0,0
41991,-66.6666666666667,4,1,1,90,0,0
42078,-66.6666666666667,4,1,1,5,0,0
42164,-133.333333333333,4,1,1,90,0,0
42422,-133.333333333333,4,1,1,5,0,0
42509,-66.6666666666667,4,1,1,90,0,0
42595,-66.6666666666667,4,1,1,5,0,0
42681,-66.6666666666667,4,1,1,90,0,0
42767,-66.6666666666667,4,1,1,5,0,0
42853,-66.6666666666667,4,1,1,90,0,0
43543,-133.333333333333,4,1,1,90,0,0
43802,-133.333333333333,4,1,1,5,0,0
43888,-66.6666666666667,4,1,1,90,0,0
43974,-66.6666666666667,4,1,1,5,0,0
44060,-66.6666666666667,4,1,1,90,0,0
44491,-66.6666666666667,4,1,1,5,0,0
44578,-66.6666666666667,4,1,1,90,0,0
44664,-66.6666666666667,4,1,1,5,0,0
44750,-66.6666666666667,4,1,1,90,0,0
44836,-66.6666666666667,4,1,1,5,0,0
44922,-66.6666666666667,4,1,1,90,0,0
45095,-66.6666666666667,4,1,1,5,0,0
45181,-66.6666666666667,4,1,1,90,0,0
45353,-66.6666666666667,4,1,1,5,0,0
45440,-66.6666666666667,4,1,1,90,0,0
45526,-66.6666666666667,4,1,1,5,0,0
45612,-66.6666666666667,4,1,1,90,0,0
45785,-100,4,1,1,90,0,0
46302,-66.6666666666667,4,1,1,90,0,0
46388,-66.6666666666667,4,1,1,5,0,0
46474,-66.6666666666667,4,1,1,90,0,0
46560,-66.6666666666667,4,1,1,5,0,0
46647,-66.6666666666667,4,1,1,90,0,0
46733,-66.6666666666667,4,1,1,5,0,0
46819,-66.6666666666667,4,1,1,90,0,0
46905,-66.6666666666667,4,1,1,5,0,0
46991,-66.6666666666667,4,1,1,90,0,0
47250,-66.6666666666667,4,1,1,5,0,0
47336,-66.6666666666667,4,1,1,90,0,0
47422,-66.6666666666667,4,1,1,5,0,0
47509,-66.6666666666667,4,1,1,90,0,0
47595,-66.6666666666667,4,1,1,5,0,0
47681,-133.333333333333,4,1,1,90,0,0
47940,-133.333333333333,4,1,1,5,0,0
48026,-66.6666666666667,4,1,1,90,0,0
48112,-66.6666666666667,4,1,1,5,0,0
48198,-66.6666666666667,4,1,1,90,0,0
48285,-66.6666666666667,4,1,1,5,0,0
48371,-66.6666666666667,4,1,1,90,0,0
49060,-133.333333333333,4,1,1,90,0,0
49319,-133.333333333333,4,1,1,5,0,0
49405,-66.6666666666667,4,1,1,90,0,0
49491,-66.6666666666667,4,1,1,5,0,0
49578,-66.6666666666667,4,1,1,90,0,0
50009,-66.6666666666667,4,1,1,5,0,0
50095,-66.6666666666667,4,1,1,90,0,0
50181,-66.6666666666667,4,1,1,5,0,0
50267,-66.6666666666667,4,1,1,90,0,0
50353,-66.6666666666667,4,1,1,5,0,0
50440,-66.6666666666667,4,1,1,90,0,0
50612,-66.6666666666667,4,1,1,5,0,0
50698,-66.6666666666667,4,1,1,90,0,0
50871,-66.6666666666667,4,1,1,5,0,0
50957,-66.6666666666667,4,1,1,90,0,0
51043,-66.6666666666667,4,1,1,5,0,0
51129,-66.6666666666667,4,1,1,90,0,0
51560,-66.6666666666667,4,1,1,5,0,0
51647,-66.6666666666667,4,1,1,90,0,0
51819,-133.333333333333,4,1,1,90,0,0
52078,-133.333333333333,4,1,1,5,0,0
52164,-66.6666666666667,4,1,1,90,0,0
52250,-66.6666666666667,4,1,1,5,0,0
52336,-66.6666666666667,4,1,1,90,0,0
52422,-66.6666666666667,4,1,1,5,0,0
52509,-66.6666666666667,4,1,1,90,0,0
52767,-66.6666666666667,4,1,1,5,0,0
52853,-66.6666666666667,4,1,1,90,0,0
52940,-66.6666666666667,4,1,1,5,0,0
53026,-66.6666666666667,4,1,1,90,0,0
53112,-66.6666666666667,4,1,1,5,0,0
53198,-133.333333333333,4,1,1,90,0,0
53457,-133.333333333333,4,1,1,5,0,0
53543,-66.6666666666667,4,1,1,90,0,0
53629,-66.6666666666667,4,1,1,5,0,0
53716,-66.6666666666667,4,1,1,90,0,0
53802,-66.6666666666667,4,1,1,5,0,0
53888,-66.6666666666667,4,1,1,90,0,0
54578,-133.333333333333,4,1,1,90,0,0
54836,-133.333333333333,4,1,1,5,0,0
54922,-66.6666666666667,4,1,1,90,0,0
55009,-66.6666666666667,4,1,1,5,0,0
55095,-66.6666666666667,4,1,1,90,0,0
55526,-66.6666666666667,4,1,1,5,0,0
55612,-66.6666666666667,4,1,1,90,0,0
55698,-66.6666666666667,4,1,1,5,0,0
55785,-66.6666666666667,4,1,1,90,0,0
55871,-66.6666666666667,4,1,1,5,0,0
55957,-66.6666666666667,4,1,1,90,0,0
56129,-66.6666666666667,4,1,1,5,0,0
56216,-66.6666666666667,4,1,1,90,0,0
56388,-66.6666666666667,4,1,1,5,0,0
56474,-66.6666666666667,4,1,1,90,0,0
56560,-66.6666666666667,4,1,1,5,0,0
56647,-66.6666666666667,4,1,1,90,0,0
56819,-100,4,1,1,90,0,0
57078,-100,4,1,1,5,0,0
57164,-100,4,1,1,90,0,0

[Colours]
Combo1 : 108,182,255
Combo2 : 155,255,255
Combo3 : 197,197,197
SliderTrackOverride : 150,150,150
SliderBorder : 255,255,255

[HitObjects]
4,24,95,6,0,L|0:0,1,24.5,0|0,3:0|2:0,2:0:0:0:
98,172,785,6,0,P|123:179|149:178,2,52.5000020027161,0|0|0,0:0|2:0|2:0,0:0:0:0:
182,57,1302,2,0,P|200:86|196:138,1,78.7500030040742,0|0,0:0|2:0,0:0:0:0:
149,178,1647,2,0,P|140:215|151:253,1,78.7500030040742,0|0,0:0|2:0,0:0:0:0:
207,296,1991,2,0,P|232:303|258:302,3,52.5000020027161,0|0|0|0,0:3|2:3|2:3|2:3,0:3:0:0:
346,243,2681,6,0,P|354:204|343:167,1,78.7500030040742,0|0,0:0|2:0,0:0:0:0:
405,128,3026,1,0,0:0:0:0:
339,95,3198,1,0,0:0:0:0:
278,137,3371,2,0,P|252:141|226:138,3,52.5000020027161,0|0|0|0,0:3|2:3|2:3|2:3,0:3:0:0:
149,79,4060,5,0,0:0:0:0:
142,82,4147,1,0,0:0:0:0:
135,85,4233,1,0,0:0:0:0:
58,73,4405,1,0,0:0:0:0:
30,0,4578,1,0,0:0:0:0:
9,134,4750,6,0,L|2:185,1,52.5000020027161,0|0,0:0|2:0,0:0:0:0:
84,163,5095,6,0,L|78:211,1,45.4999979171754,0|0,0:0|2:0,0:0:0:0:
158,193,5440,6,0,L|152:238,1,38.5000011749268,0|0,0:0|2:0,0:0:0:0:
233,219,5785,6,0,L|228:260,1,31.4999990386963,0|0,0:0|2:0,0:0:0:0:
219,333,6129,1,0,0:0:0:0:
255,138,6302,6,0,P|246:108|222:86,2,52.5000020027161,8|0|0,0:2|2:0|2:0,0:0:0:0:
297,204,6819,2,0,P|260:218|222:210,1,78.7500030040742,0|0,0:0|2:0,0:0:0:0:
183,148,7164,2,0,P|147:133|108:138,1,78.7500030040742,0|0,0:0|2:0,0:0:0:0:
53,187,7509,2,0,P|44:211|45:238,3,52.5000020027161,0|0|0|0,0:2|2:0|2:0|2:0,0:0:0:0:
114,309,8198,6,0,P|148:317|197:299,1,78.7500030040742,0|0,0:0|2:0,0:0:0:0:
202,228,8543,1,0,0:0:0:0:
275,200,8715,1,0,0:0:0:0:
338,247,8888,2,0,P|331:283|317:305,3,52.5000020027161,0|0|0|0,0:0|2:0|2:0|2:0,0:0:0:0:
196,319,9577,5,0,0:0:0:0:
193,312,9664,1,0,0:0:0:0:
190,305,9750,1,0,0:0:0:0:
202,228,9922,1,0,0:0:0:0:
275,200,10095,1,0,0:0:0:0:
141,179,10267,1,0,0:0:0:0:
420,274,10440,5,6,1:2:0:0:
439,203,10612,1,0,0:0:0:0:
290,316,10785,5,8,1:0:0:0:
267,316,10871,1,8,0:2:0:0:
243,317,10957,1,8,0:2:0:0:
220,318,11043,1,8,0:2:0:0:
196,319,11129,1,8,1:0:0:0:
135,240,11302,6,12,L|133:206,1,31.4999990386963,12|12,0:0|2:0,0:0:0:0:
78,322,11647,5,12,2:0:0:0:
40,260,11733,1,14,2:3:0:0:
7,327,11819,5,14,2:3:0:0:
7,327,11991,1,14,0:3:0:0:
404,86,12164,6,0,L|396:217,1,105,12|0,1:0|2:0,1:0:0:0:
393,269,12509,1,0,2:0:0:0:
393,269,12595,1,0,3:0:0:0:
393,269,12681,2,0,L|388:318,1,35,0|0,2:0|2:0,2:0:0:0:
483,255,12853,5,8,0:0:0:0:
299,280,13026,1,0,2:0:0:0:
228,38,13198,6,0,L|316:38,1,70,2|0,3:3|2:0,0:0:0:0:
385,38,13543,1,8,0:0:0:0:
247,120,13716,5,0,2:0:0:0:
251,116,13802,2,0,L|286:116,1,35,8|0,3:2|2:0,0:0:0:0:
368,116,13974,1,8,2:2:0:0:
371,111,14060,1,2,0:3:0:0:
183,282,14233,5,8,0:0:0:0:
214,199,14405,1,0,0:0:0:0:
368,280,14578,5,2,2:3:0:0:
368,280,14750,1,2,0:3:0:0:
371,111,14922,6,0,L|320:113,1,35,8|0,3:1|2:0,0:0:0:0:
309,194,15095,1,0,2:0:0:0:
285,195,15181,1,0,2:0:0:0:
261,196,15267,1,0,2:3:0:0:
238,197,15353,1,8,2:2:0:0:
214,199,15440,1,2,3:3:0:0:
201,43,15612,5,8,0:0:0:0:
140,159,15785,1,0,0:0:0:0:
140,159,15871,1,0,0:0:0:0:
140,159,15957,2,0,L|137:83,1,70,2|0,0:3|0:0,0:3:0:0:
134,11,16302,1,8,0:0:0:0:
334,55,16474,5,0,2:0:0:0:
341,59,16560,1,0,0:0:0:0:
347,63,16647,2,0,L|349:109,1,35,0|0,0:0|2:0,0:0:0:0:
353,179,16818,1,2,0:3:0:0:
454,163,16991,1,8,0:0:0:0:
256,196,17164,1,0,0:0:0:0:
487,349,17336,6,0,L|402:357,1,70,2|2,0:3|2:3,0:0:0:0:
213,282,17681,2,0,L|297:273,1,70,8|0,0:0|2:0,0:0:0:0:
382,264,17940,1,0,3:0:0:0:
382,264,18026,2,0,L|430:258,1,35,0|0,2:0|2:0,2:0:0:0:
349,179,18198,5,0,0:0:0:0:
417,356,18371,1,8,0:0:0:0:
506,250,18543,1,0,0:0:0:0:
218,351,18716,6,0,L|212:271,1,70,2|0,0:3|0:3,0:3:0:0:
201,137,19060,1,8,0:0:0:0:
276,201,19233,5,0,2:0:0:0:
298,203,19319,1,8,2:2:0:0:
321,205,19405,1,0,3:2:0:0:
345,208,19491,1,8,2:2:0:0:
368,210,19577,1,2,1:3:0:0:
349,101,19750,1,8,0:0:0:0:
388,317,19922,1,0,0:0:0:0:
39,141,20095,6,0,L|123:150,1,70,2|2,0:3|2:3,0:0:0:0:
293,263,20440,2,0,L|209:254,1,70,8|0,0:0|2:0,0:0:0:0:
124,245,20699,1,0,3:0:0:0:
124,245,20785,2,0,L|75:240,1,35,0|0,2:0|2:0,2:0:0:0:
138,335,20957,5,0,0:0:0:0:
109,148,21130,1,8,0:0:0:0:
0,233,21302,1,0,0:0:0:0:
365,217,21474,6,0,P|334:188|301:179,1,70,2|0,0:3|0:0,0:0:0:0:
232,204,21819,1,8,0:0:0:0:
355,319,21991,2,0,P|364:304|370:288,1,35,0|0,1:0|2:0,0:0:0:0:
497,214,22164,5,0,2:0:0:0:
464,199,22250,1,8,2:2:0:0:
429,193,22336,1,2,2:3:0:0:
395,198,22422,1,0,2:0:0:0:
365,217,22509,1,8,2:1:0:0:
333,232,22595,1,0,2:0:0:0:
298,234,22681,1,0,3:0:0:0:
263,227,22767,1,0,2:0:0:0:
232,204,22854,5,2,2:3:0:0:
232,204,23026,1,2,2:3:0:0:
177,348,23198,2,0,P|208:319|223:280,1,70,8|0,0:0|2:0,0:0:0:0:
141,209,23457,1,0,0:0:0:0:
141,209,23543,2,0,P|118:212|96:223,1,35,0|0,0:0|2:0,0:0:0:0:
82,311,23716,5,2,0:3:0:0:
18,164,23888,1,8,0:0:0:0:
395,324,24233,6,0,P|398:286|430:247,1,87.5,2|2,3:0|3:0,3:0:0:0:
512,230,24578,1,8,0:0:0:0:
338,216,24750,5,0,3:0:0:0:
336,194,24836,1,8,2:2:0:0:
334,171,24922,1,0,3:2:0:0:
331,147,25008,1,8,2:2:0:0:
329,124,25095,1,2,0:3:0:0:
420,1,25267,1,8,0:0:0:0:
94,314,25612,5,2,0:3:0:0:
94,314,25785,1,2,0:3:0:0:
68,156,25957,1,8,0:0:0:0:
178,231,26129,5,0,0:0:0:0:
178,231,26216,2,0,L|241:227,1,52.5000020027161,0|0,0:0|2:0,0:0:0:0:
314,222,26388,1,0,0:0:0:0:
314,222,26475,2,0,L|377:218,1,52.5000020027161,2|0,0:3|2:0,0:0:0:0:
455,212,26647,1,8,0:0:0:0:
94,314,26991,5,2,0:3:0:0:
94,314,27164,1,2,0:3:0:0:
68,156,27336,1,8,0:0:0:0:
169,231,27508,5,0,0:0:0:0:
169,231,27595,1,0,0:0:0:0:
169,231,27681,2,0,L|244:226,1,61.2500005841255
314,222,27853,1,2,0:3:0:0:
82,235,28026,1,8,0:0:0:0:
493,150,28371,5,2,2:3:0:0:
493,150,28543,1,2,0:3:0:0:
386,292,28716,2,0,P|453:285|497:232,1,140,8|0,0:0|0:0,0:0:0:0:
417,106,28974,1,0,0:0:0:0:
416,106,29060,2,0,P|379:110|348:128,1,70,0|0,0:0|2:0,0:0:0:0:
314,222,29233,5,2,0:3:0:0:
277,42,29405,1,8,0:0:0:0:
150,372,29750,6,0,P|141:295|81:246,1,157.500006008148,2|2,0:3|0:3,0:0:0:0:
0,230,30095,1,8,0:0:0:0:
231,252,30267,5,0,3:0:0:0:
227,218,30353,1,8,2:2:0:0:
224,183,30439,1,0,3:2:0:0:
220,147,30525,1,8,2:2:0:0:
217,112,30612,1,2,3:0:0:0:
0,76,30784,5,8,0:0:0:0:
49,13,30957,1,0,0:0:0:0:
236,347,31129,5,2,0:3:0:0:
236,347,31302,1,2,0:3:0:0:
42,268,31474,1,8,0:0:0:0:
422,237,31646,5,0,0:0:0:0:
422,237,31733,2,0,L|334:242,1,87.5,0|0,0:0|2:0,0:0:0:0:
231,252,31905,1,0,0:0:0:0:
232,252,31992,2,0,L|144:257,1,87.5,2|0,3:0|2:0,0:0:0:0:
42,268,32164,1,8,0:0:0:0:
494,305,32508,5,2,0:3:0:0:
494,305,32681,1,2,0:3:0:0:
468,147,32853,1,8,0:0:0:0:
249,262,33026,5,2,3:2:0:0:
335,253,33112,1,2,3:2:0:0:
422,246,33198,2,0,L|334:253,1,87.5,8|0,0:0|2:0,0:0:0:0:
295,131,33371,5,2,3:2:0:0:
380,139,33457,1,2,3:2:0:0:
468,147,33543,2,0,L|380:139,1,87.5,8|0,0:0|2:0,0:0:0:0:
340,15,33716,5,0,0:0:0:0:
207,379,33888,1,6,2:2:0:0:
142,214,34233,5,8,0:0:0:0:
151,156,34405,5,0,3:0:0:0:
149,169,34491,1,8,3:2:0:0:
148,184,34578,1,8,3:2:0:0:
144,199,34664,1,0,3:0:0:0:
142,214,34751,1,2,3:2:0:0:
450,178,34922,6,0,P|466:152|472:95,1,87.5,8|0,0:0|2:0,0:0:0:0:
366,9,35095,2,0,P|335:13|288:45,1,87.5,8|0,0:0|2:0,0:0:0:0:
291,291,35267,6,0,B|372:272|376:187|376:187|350:112|271:118|271:118|250:168|294:207,1,367.500003504753,6|0,0:3|2:0,0:0:0:0:
441,259,35612,6,0,P|467:258|491:247,1,52.5000020027161,0|0,0:0|2:0,0:0:0:0:
492,110,35785,2,0,P|468:98|442:97,1,52.5000020027161,0|0,0:0|2:0,0:0:0:0:
283,196,35957,1,8,0:0:0:0:
262,148,36129,6,0,P|268:174|283:196,1,52.5000020027161,0|0,0:0|2:0,0:0:0:0:
372,204,36302,2,0,P|392:187|405:164,1,52.5000020027161,0|0,0:0|2:0,0:0:0:0:
370,77,36474,2,0,P|346:70|320:72,1,52.5000020027161,0|0,0:0|2:0,0:0:0:0:
76,331,36647,6,0,L|80:252,1,78.7500030040742,2|0,0:3|0:0,0:0:0:0:
80,252,36991,2,0,P|112:268|134:272,1,52.5000020027161,0|0,0:0|2:0,0:0:0:0:
214,129,37164,2,0,P|239:135|262:148,1,52.5000020027161,0|0,0:0|2:0,0:0:0:0:
337,307,37336,5,8,0:0:0:0:
361,87,37509,1,0,0:0:0:0:
210,251,37681,1,0,0:0:0:0:
429,206,37853,1,0,0:0:0:0:
226,114,38026,6,0,L|147:120,1,78.7500030040742,2|0,0:3|0:0,0:0:0:0:
147,120,38371,2,0,P|143:155|147:177,1,52.5000020027161,0|0,0:0|2:0,0:0:0:0:
217,258,38543,5,0,2:0:0:0:
217,258,38629,1,0,2:0:0:0:
217,258,38716,1,8,0:0:0:0:
117,367,38888,6,0,P|149:352|166:337,1,52.5000020027161,0|0,0:0|2:0,0:0:0:0:
147,120,39060,2,0,P|143:155|147:177,1,52.5000020027161,0|0,0:0|2:0,0:0:0:0:
347,269,39233,2,0,P|318:248|297:240,1,52.5000020027161,0|0,0:0|2:0,0:0:0:0:
99,299,39405,6,0,P|46:274|13:195,1,105.000004005432,2|0,0:3|2:0,0:0:0:0:
37,216,39664,6,0,P|42:158|108:101,1,105.000004005432,2|0,0:3|2:0,0:0:0:0:
146,119,39922,6,0,P|120:121|96:131,1,52.5000020027161,2|0,0:3|2:0,0:0:0:0:
37,216,40095,1,8,0:0:0:0:
285,195,40267,2,0,L|127:207,1,157.500006008148,0|0,0:0|2:0,0:0:0:0:
37,216,40612,1,0,0:0:0:0:
396,315,40785,6,0,L|404:235,1,78.7500030040742,2|0,0:3|0:0,0:0:0:0:
404,236,41129,2,0,P|439:241|461:238,1,52.5000020027161,0|0,0:0|2:0,0:0:0:0:
466,106,41302,2,0,P|430:100|408:103,1,52.5000020027161,0|0,0:0|2:0,0:0:0:0:
243,236,41474,5,8,0:0:0:0:
263,188,41647,6,0,P|257:214|243:236,1,52.5000020027161,0|0,0:0|2:0,0:0:0:0:
152,118,41819,2,0,P|176:111|203:113,1,52.5000020027161,0|0,0:0|2:0,0:0:0:0:
148,249,41991,2,0,P|128:232|116:209,1,52.5000020027161,0|0,0:0|2:0,0:0:0:0:
31,14,42165,6,0,L|26:93,1,78.7500030040742,2|0,0:3|0:0,0:0:0:0:
26,92,42509,2,0,P|61:91|83:96,1,52.5000020027161,0|0,0:0|2:0,0:0:0:0:
148,249,42681,2,0,P|183:249|205:244,1,52.5000020027161,0|0,0:0|2:0,0:0:0:0:
331,58,42854,5,8,0:0:0:0:
355,273,43027,1,0,0:0:0:0:
204,114,43199,1,0,0:0:0:0:
423,159,43371,1,0,0:0:0:0:
226,249,43543,6,0,L|147:255,1,78.7500030040742,2|0,0:3|0:0,0:0:0:0:
147,255,43888,2,0,P|137:221|138:198,1,52.5000020027161,0|0,0:0|2:0,0:0:0:0:
204,114,44060,5,0,2:0:0:0:
204,114,44146,1,0,2:0:0:0:
204,114,44233,1,8,0:0:0:0:
61,87,44405,6,0,P|91:105|106:121,1,52.5000020027161,0|0,0:0|2:0,0:0:0:0:
147,255,44577,2,0,P|146:219|152:198,1,52.5000020027161,0|0,0:0|2:0,0:0:0:0:
250,91,44750,2,0,P|218:108|197:114,1,52.5000020027161,0|0,0:0|2:0,0:0:0:0:
71,285,44922,6,0,P|29:244|25:158,1,105.000004005432,2|0,0:3|2:0,0:0:0:0:
41,185,45181,6,8,P|40:127|-20:65,1,105.000004005432,10|8,0:3|2:0,0:0:0:0:
0,65,45439,6,0,P|26:67|51:59,1,52.5000020027161,2|0,0:3|2:0,0:0:0:0:
257,14,45612,1,8,0:0:0:0:
118,12,45785,2,0,L|257:15,1,140,0|0,0:0|2:0,0:0:0:0:
371,30,46302,6,0,P|346:40|327:57,1,52.5000020027161,2|0,1:3|2:0,2:0:0:0:
428,219,46474,2,0,P|453:209|472:192,1,52.5000020027161,0|0,1:0|2:0,2:0:0:0:
305,153,46647,2,0,P|315:178|332:197,1,52.5000020027161,0|0,1:0|2:0,2:0:0:0:
494,96,46819,2,0,P|484:71|467:52,1,52.5000020027161,0|0,1:0|2:0,2:0:0:0:
184,185,46991,1,8,0:0:0:0:
163,137,47163,6,0,P|169:163|184:185,1,52.5000020027161,0|0,0:0|2:0,0:0:0:0:
273,193,47336,2,0,P|293:176|306:153,1,52.5000020027161,0|0,0:0|2:0,0:0:0:0:
271,66,47508,2,0,P|247:59|221:61,1,52.5000020027161,0|0,0:0|2:0,0:0:0:0:
39,297,47681,6,0,L|43:218,1,78.7500030040742,2|0,0:3|0:0,0:0:0:0:
42,218,48026,2,0,P|65:229|91:234,1,52.5000020027161,0|0,0:0|2:0,0:0:0:0:
170,45,48198,2,0,P|195:49|219:61,1,52.5000020027161,0|0,0:0|2:0,0:0:0:0:
255,278,48370,5,8,0:0:0:0:
321,66,48543,1,0,0:0:0:0:
393,277,48715,1,0,0:0:0:0:
211,147,48887,1,0,0:0:0:0:
433,146,49060,6,0,L|516:144,1,78.7500030040742,2|0,0:3|2:0,0:0:0:0:
511,144,49405,2,0,P|515:179|511:201,1,52.5000020027161,0|0,0:3|2:3,0:3:0:0:
393,277,49577,5,0,2:3:0:0:
393,277,49663,1,0,2:3:0:0:
393,277,49750,1,8,0:1:0:0:
344,145,49922,6,0,P|325:163|311:185,1,52.5000020027161,0|0,0:3|2:3,0:3:0:0:
411,325,50095,2,0,P|401:291|389:271,1,52.5000020027161,0|0,0:3|2:3,0:3:0:0:
226,294,50267,2,0,P|260:302|282:301,1,52.5000020027161,0|0,0:3|2:3,0:3:0:0:
372,60,50440,6,0,P|425:85|458:164,1,105.000004005432,2|0,0:3|2:0,0:0:0:0:
434,143,50699,6,0,P|429:201|363:258,1,105.000004005432,2|0,0:3|2:0,0:0:0:0:
325,240,50957,6,0,P|351:238|375:228,1,52.5000020027161,2|0,0:3|2:0,0:0:0:0:
434,143,51130,1,8,0:0:0:0:
186,147,51302,2,0,L|345:144,1,157.500006008148,0|0,0:0|2:0,0:0:0:0:
434,143,51647,1,0,0:0:0:0:
158,362,51819,6,0,L|150:282,1,78.7500030040742,2|0,0:3|0:0,0:0:0:0:
150,283,52164,2,0,P|185:288|207:285,1,52.5000020027161,0|0,0:0|2:0,0:0:0:0:
198,137,52337,2,0,P|171:135|146:141,1,52.5000020027161,0|0,0:0|2:0,0:0:0:0:
47,272,52509,5,8,0:0:0:0:
27,224,52682,6,0,P|33:250|47:272,1,52.5000020027161,0|0,0:0|2:0,0:0:0:0:
146,141,52854,2,0,P|122:134|95:136,1,52.5000020027161,0|0,0:0|2:0,0:0:0:0:
150,283,53026,2,0,P|170:266|182:243,1,52.5000020027161,0|0,0:0|2:0,0:0:0:0:
337,22,53200,6,0,L|342:101,1,78.7500030040742,2|0,0:3|0:0,0:0:0:0:
341,100,53544,2,0,P|306:99|284:104,1,52.5000020027161,0|0,0:0|2:0,0:0:0:0:
234,246,53716,2,0,P|199:246|177:241,1,52.5000020027161,0|0,0:0|2:0,0:0:0:0:
109,38,53889,5,8,0:0:0:0:
50,246,54062,1,0,0:0:0:0:
225,113,54234,1,0,0:0:0:0:
1,123,54406,1,0,0:0:0:0:
181,242,54578,6,0,L|263:248,1,78.7500030040742,2|0,0:3|0:0,0:0:0:0:
259,248,54923,2,0,P|269:214|268:191,1,52.5000020027161,0|0,0:0|2:0,0:0:0:0:
225,113,55095,5,0,2:0:0:0:
225,113,55181,1,0,2:0:0:0:
225,113,55268,1,8,0:0:0:0:
333,4,55440,6,0,P|310:30|300:50,1,52.5000020027161,0|0,0:0|2:0,0:0:0:0:
344,194,55612,2,0,P|333:159|321:141,1,52.5000020027161,0|0,0:0|2:0,0:0:0:0:
173,107,55785,2,0,P|208:113|230:112,1,52.5000020027161,0|0,0:0|2:0,0:0:0:0:
427,69,55957,6,0,P|469:110|473:196,1,105.000004005432,2|0,0:3|2:0,0:0:0:0:
458,167,56216,6,0,P|432:212|433:263,1,105.000004005432,2|0,0:3|2:0,0:0:0:0:
450,283,56474,6,0,P|425:290|399:288,1,52.5000020027161,2|0,0:3|2:0,0:0:0:0:
268,202,56647,1,8,0:0:0:0:
265,348,56820,2,0,L|268:218,1,105,0|0,0:0|2:0,0:0:0:0:
268,202,57164,1,0,1:0:0:0:
125,288,57336,5,2,3:2:0:0:
