osu file format v14

[General]
AudioFilename: audio.mp3
AudioLeadIn: 0
PreviewTime: 33933
Countdown: 0
SampleSet: Soft
StackLeniency: 0.2
Mode: 0
LetterboxInBreaks: 0
WidescreenStoryboard: 0

[Editor]
Bookmarks: 11778,33847,40743,46261,51778,57295,68330,91778,97295,102812,108330,113847,134537
DistanceSpacing: 0.4
BeatDivisor: 4
GridSize: 4
TimelineZoom: 2.5

[Metadata]
Title:Frozen Time
TitleUnicode:Frozen Time
Artist:sqwv+
ArtistUnicode:sqwv+
Creator:Aro
Version:Player VS Ice Witch
Source:Dungreed
Tags:
BeatmapID:1590772
BeatmapSetID:755819

[Difficulty]
HPDrainRate:6
CircleSize:3
OverallDifficulty:8
ApproachRate:9
SliderMultiplier:2.49999990463257
SliderTickRate:1

[Events]
//Background and Video events
0,0,"thumb-1920-820454.jpg",0,0
//Break Periods
//Storyboard Layer 0 (Background)
//Storyboard Layer 1 (Fail)
//Storyboard Layer 2 (Pass)
//Storyboard Layer 3 (Foreground)
//Storyboard Sound Samples

[TimingPoints]
744,689.655172413793,4,2,0,30,1,0
6261,-83.3333333333333,4,2,0,30,0,0
11261,-111.111111111111,4,2,0,30,0,0
11778,-71.4285714285714,4,2,0,30,0,0
31088,-55.5555555555556,4,2,0,30,0,0
35226,-50,4,2,0,30,0,1
57295,-100,4,2,0,30,0,0
67812,-111.111111111111,4,2,0,30,0,0
68330,-71.4285714285714,4,2,0,30,0,0
84881,-71.4285714285714,4,2,0,30,0,0
87640,-55.5555555555556,4,2,0,30,0,0
91778,-50,4,2,0,30,0,1
113847,-100,4,2,0,30,0,0
128675,-111.111111111111,4,2,0,30,0,0
130743,-100,4,2,0,30,0,0
131778,-111.111111111111,4,2,0,30,0,0
133157,-142.857142857143,4,2,0,30,0,0

[HitObjects]
84,104,744,6,0,B|132:88|132:88|268:102,1,187.499992847443
434,188,1606,2,0,B|400:199|400:199|297:188,1,124.999995231628
225,234,2123,2,0,P|194:228|164:236,2,62.4999976158143
324,336,2640,6,0,L|317:251,1,62.4999976158143
439,125,2985,2,0,L|432:210,2,62.4999976158143
449,29,3502,2,0,P|479:34|505:51,2,62.4999976158143
344,40,4019,2,0,L|348:-4,2,31.2499988079071
260,104,4364,1,0,0:0:0:0:
312,204,4537,1,0,0:0:0:0:
199,199,4709,5,0,0:0:0:0:
372,292,5054,5,0,0:0:0:0:
138,294,5399,5,0,0:0:0:0:
312,204,5743,2,0,L|376:160,1,62.4999976158142
272,100,6088,2,0,L|304:77,1,31.2499988079071
260,104,6261,6,0,B|220:90|220:90|100:104,1,149.999989700318
212,188,6778,2,0,L|137:195,1,74.9999948501589
272,260,7123,2,0,L|346:252,1,74.9999948501589
224,344,7468,1,0,0:0:0:0:
310,155,7640,6,0,L|384:147,2,74.9999948501589
482,0,8157,6,0,L|474:74,1,74.9999948501589
462,167,8502,1,0,0:0:0:0:
451,260,8675,1,0,0:0:0:0:
440,353,8847,1,0,0:0:0:0:
304,263,9019,6,0,L|315:168,2,74.9999948501589
159,71,9537,2,0,L|155:33,2,37.4999974250794
261,89,9881,5,0,0:0:0:0:
313,189,10054,1,0,0:0:0:0:
200,184,10226,2,0,L|114:175,1,74.9999948501589
373,277,10571,1,0,0:0:0:0:
283,348,10744,5,0,0:0:0:0:
267,313,10830,1,0,0:0:0:0:
264,276,10916,1,0,0:0:0:0:
272,240,11002,1,0,0:0:0:0:
291,208,11088,1,0,0:0:0:0:
403,173,11261,2,0,B|375:210|375:210|372:293,1,112.499992275238
418,165,11778,5,0,0:0:0:0:
234,112,11950,1,0,0:0:0:0:
48,158,12123,2,0,L|48:272,1,87.4999939918521
152,337,12468,1,0,2:0:0:0:
265,337,12640,1,0,2:0:0:0:
265,223,12813,1,0,2:0:0:0:
152,223,12985,1,0,2:0:0:0:
279,231,13157,5,0,0:0:0:0:
388,195,13330,1,0,0:0:0:0:
388,82,13502,1,0,0:0:0:0:
279,46,13675,1,0,0:0:0:0:
212,138,13847,2,0,P|172:119|129:119,1,87.4999939918521
213,138,14192,2,0,P|170:138|131:120,1,87.4999939918521
21,0,14537,6,0,B|38:23|38:23|31:81,1,87.4999939918521
0,190,14881,1,0,0:0:0:0:
56,91,15054,1,0,0:0:0:0:
170,91,15226,1,0,0:0:0:0:
227,190,15399,1,0,0:0:0:0:
170,288,15571,1,0,0:0:0:0:
56,288,15744,1,0,0:0:0:0:
46,281,15916,5,0,0:0:0:0:
103,380,16088,1,0,0:0:0:0:
160,281,16261,5,0,0:0:0:0:
217,380,16433,1,0,0:0:0:0:
275,281,16606,2,0,P|317:290|359:281,1,87.4999939918521
275,281,16950,2,0,P|317:272|358:281,1,87.4999939918521
395,382,17295,5,0,0:0:0:0:
465,292,17468,1,0,0:0:0:0:
436,180,17641,1,0,0:0:0:0:
334,133,17813,1,0,0:0:0:0:
232,184,17986,5,0,0:0:0:0:
208,295,18158,1,0,0:0:0:0:
281,383,18330,1,0,0:0:0:0:
305,270,18502,1,0,0:0:0:0:
305,270,18675,5,0,0:0:0:0:
199,313,18847,1,0,0:0:0:0:
94,269,19019,1,0,0:0:0:0:
51,164,19192,1,0,0:0:0:0:
94,59,19364,5,0,0:0:0:0:
199,16,19537,1,0,0:0:0:0:
305,59,19709,1,0,0:0:0:0:
348,164,19881,1,0,0:0:0:0:
348,164,20054,5,0,0:0:0:0:
310,57,20226,1,0,0:0:0:0:
211,0,20399,1,0,0:0:0:0:
99,20,20571,1,0,0:0:0:0:
26,107,20744,5,0,0:0:0:0:
26,220,20916,1,0,0:0:0:0:
99,308,21088,1,0,0:0:0:0:
211,327,21261,1,0,0:0:0:0:
310,271,21433,5,0,0:0:0:0:
422,290,21606,1,0,0:0:0:0:
348,164,21778,5,0,0:0:0:0:
460,183,21951,1,0,0:0:0:0:
421,77,22123,1,0,0:0:0:0:
408,45,22209,1,0,0:0:0:0:
375,31,22295,1,0,0:0:0:0:
343,45,22381,1,0,0:0:0:0:
329,77,22468,1,0,0:0:0:0:
343,110,22554,1,0,0:0:0:0:
375,123,22640,1,0,0:0:0:0:
408,110,22726,1,0,0:0:0:0:
430,76,22812,5,0,0:0:0:0:
467,193,22984,1,0,0:0:0:0:
430,310,23157,1,0,0:0:0:0:
330,382,23330,1,0,0:0:0:0:
208,382,23502,5,0,0:0:0:0:
109,309,23675,1,0,0:0:0:0:
71,193,23847,1,0,0:0:0:0:
109,76,24019,1,0,0:0:0:0:
109,76,24192,5,0,0:0:0:0:
208,4,24364,1,0,0:0:0:0:
330,4,24537,1,0,0:0:0:0:
430,76,24709,1,0,0:0:0:0:
467,193,24881,5,0,0:0:0:0:
430,310,25054,1,0,0:0:0:0:
330,382,25226,1,0,0:0:0:0:
208,382,25399,1,0,0:0:0:0:
208,382,25571,5,0,0:0:0:0:
109,309,25743,1,0,0:0:0:0:
71,193,25915,1,0,0:0:0:0:
109,76,26088,1,0,0:0:0:0:
208,4,26261,5,0,0:0:0:0:
330,4,26433,1,0,0:0:0:0:
430,76,26606,1,0,0:0:0:0:
467,193,26778,1,0,0:0:0:0:
430,310,26950,5,0,0:0:0:0:
331,382,27123,1,0,0:0:0:0:
208,382,27295,1,0,0:0:0:0:
109,310,27468,1,0,0:0:0:0:
109,310,27640,5,0,0:0:0:0:
71,193,27812,1,0,0:0:0:0:
109,77,27985,1,0,0:0:0:0:
208,4,28157,1,0,0:0:0:0:
330,4,28330,6,0,L|216:190,1,174.999987983704,0|0,0:0|0:0,0:0:0:0:
52,240,28847,2,0,L|156:48,1,174.999987983704,0|0,0:0|0:0,0:0:0:0:
255,218,29364,2,0,P|222:179|173:187,1,87.4999939918521,0|0,0:0|0:0,0:0:0:0:
271,366,29709,2,0,P|308:292|400:276,1,174.999987983704
279,182,30226,1,0,0:0:0:0:
273,188,30399,1,0,0:0:0:0:
265,192,30571,1,0,0:0:0:0:
256,192,30743,1,0,0:0:0:0:
256,192,31088,12,0,33502,0:0:0:0:
256,192,33847,5,0,0:0:0:0:
256,192,34364,5,0,0:0:0:0:
255,163,34450,1,0,0:0:0:0:
255,135,34536,1,0,0:0:0:0:
254,107,34622,1,0,0:0:0:0:
254,79,34708,1,0,0:0:0:0:
380,277,34881,1,0,0:0:0:0:
153,193,35054,1,0,0:0:0:0:
443,163,35226,5,0,0:0:0:0:
300,239,35399,6,0,P|298:309|310:329,1,62.4999976158143
395,67,35571,2,0,P|454:30|477:30,1,62.4999976158143
240,100,35743,2,0,L|159:58,1,62.4999976158143
328,142,35916,6,0,P|346:154|329:140,1,62.4999976158143
414,217,36088,6,0,P|438:184|443:141,1,62.4999976158143
190,173,36261,2,0,P|200:205|224:225,1,62.4999976158143
335,15,36433,2,0,P|304:11|263:33,1,62.4999976158143
304,248,36606,5,0,0:0:0:0:
330,384,36778,2,0,L|318:252,1,124.999995231629
231,355,37123,2,0,P|199:355|170:346,1,62.4999976158143
103,283,37295,6,0,P|85:271|102:285,1,62.4999976158143
36,185,37468,6,0,B|-11:199|-11:199|24:218,1,62.4999976158143
179,210,37640,2,0,B|212:246|212:246|172:245,1,62.4999976158143
125,70,37812,2,0,L|134:2,1,62.4999976158143
115,155,37985,5,0,0:0:0:0:
349,39,38157,2,0,L|225:54,1,124.999995231629
284,163,38502,1,0,0:0:0:0:
284,163,38588,1,0,0:0:0:0:
284,163,38675,6,0,P|302:161|283:166,1,62.4999976158143
345,274,38847,6,0,P|372:290|392:341,1,62.4999976158143
189,200,39019,2,0,P|158:189|106:206,1,62.4999976158143
221,326,39192,2,0,L|247:269,1,62.4999976158143
331,76,39364,5,0,0:0:0:0:
461,221,39537,2,0,P|470:172|463:130,1,62.4999976158143
339,64,39709,1,0,0:0:0:0:
186,180,39881,2,0,P|189:130|207:91,1,62.4999976158143
347,52,40054,6,0,P|365:40|348:54,1,62.4999976158143
326,152,40226,1,0,0:0:0:0:
305,252,40399,1,0,0:0:0:0:
284,352,40571,1,0,0:0:0:0:
186,180,40743,5,0,0:0:0:0:
124,78,40916,6,0,P|162:60|194:63,1,62.4999976158143
182,304,41088,2,0,P|139:299|113:281,1,62.4999976158143
315,177,41261,2,0,L|391:175,1,62.4999976158143
186,180,41433,6,0,P|163:183|186:183,1,62.4999976158143
63,154,41606,6,0,P|56:190|63:225,1,62.4999976158143
312,97,41778,2,0,P|284:72|250:61,1,62.4999976158143,0|0,2:0|2:0,2:0:0:0:
261,302,41950,2,0,P|289:278|306:247,1,62.4999976158143,0|0,2:0|2:0,2:0:0:0:
420,174,42123,5,0,0:0:0:0:
439,31,42295,2,0,L|451:171,1,124.999995231629
467,336,42640,2,0,L|462:263,1,62.4999976158143
310,240,42812,6,0,P|287:243|310:243,1,62.4999976158143
207,88,42985,6,0,L|265:149,1,62.4999976158143
131,236,43157,2,0,L|215:238,1,62.4999976158143
204,384,43330,2,0,L|265:326,1,62.4999976158143
398,143,43502,5,0,0:0:0:0:
436,243,43675,2,0,L|280:240,1,124.999995231629
193,237,44019,1,0,0:0:0:0:
193,237,44106,1,0,0:0:0:0:
193,237,44192,6,0,P|216:240|193:240,1,62.4999976158143
267,95,44364,6,0,P|295:124|297:176,1,62.4999976158143
258,384,44537,2,0,P|282:363|293:335,1,62.4999976158143
396,241,44709,2,0,L|304:241,1,62.4999976158143
36,234,44881,5,0,0:0:0:0:
78,372,45054,2,0,P|127:381|169:374,1,62.4999976158143
24,226,45226,1,0,0:0:0:0:
119,97,45398,2,0,P|169:100|208:118,1,62.4999976158143
12,218,45571,6,0,P|0:236|14:219,1,62.4999976158143
112,239,45743,1,0,0:0:0:0:
212,260,45916,1,0,0:0:0:0:
312,281,46088,1,0,0:0:0:0:
180,103,46261,5,0,0:0:0:0:
102,32,46433,6,0,P|75:76|80:113,1,62.4999976158143
288,66,46606,2,0,P|262:21|228:6,1,62.4999976158143
162,200,46778,2,0,P|213:200|243:177,1,62.4999976158143
183,94,46950,6,0,P|171:112|185:95,1,62.4999976158143
313,155,47123,6,0,L|396:154,1,62.4999976158143
66,173,47295,2,0,L|-17:175,1,62.4999976158143
183,94,47468,2,0,L|178:7,1,62.4999976158143
193,240,47640,5,0,0:0:0:0:
403,341,47812,2,0,P|378:303|320:244,1,124.999995231629
484,285,48157,2,0,P|469:237|453:216,1,62.4999976158143
367,169,48330,6,0,P|376:155|370:168,1,62.4999976158143
230,143,48502,6,0,B|217:135|217:135|285:114,1,62.4999976158143
502,138,48675,2,0,B|515:130|515:130|447:109,1,62.4999976158143
360,0,48847,2,0,L|362:62,1,62.4999976158143
373,286,49019,5,0,0:0:0:0:
169,369,49192,2,0,P|194:331|252:272,1,124.999995231629
217,133,49537,1,0,0:0:0:0:
217,133,49623,1,0,0:0:0:0:
217,133,49709,6,0,P|229:115|215:132,1,62.4999976158143
343,180,49881,6,0,P|357:151|356:110,1,62.4999976158143
88,81,50054,2,0,P|80:111|85:142,1,62.4999976158143
202,225,50226,2,0,P|189:305|189:305,1,62.4999976158143
217,133,50399,5,0,0:0:0:0:
374,46,50571,2,0,B|325:103,1,62.4999976158143
222,120,50743,1,0,0:0:0:0:
88,22,50916,2,0,B|118:90,1,62.4999976158143
226,109,51088,6,0,P|224:87|228:109,1,62.4999976158143
301,177,51260,1,0,0:0:0:0:
377,245,51433,1,0,0:0:0:0:
453,313,51605,1,0,0:0:0:0:
197,123,51778,5,0,0:0:0:0:
87,170,51950,6,0,P|117:212|155:225,1,62.4999976158143
202,15,52123,2,0,P|149:20|120:47,1,62.4999976158143,0|0,0:0|0:0,0:0:0:0:
283,184,52295,2,0,P|305:135|297:97,1,62.4999976158143,0|0,0:0|0:0,0:0:0:0:
196,132,52468,6,0,P|188:112|199:130,1,62.4999976158143
302,32,52640,6,0,L|393:-3,1,62.4999976158143
62,74,52812,2,0,L|-35:71,1,62.4999976158143,0|0,0:0|0:0,0:0:0:0:
209,247,52985,2,0,L|224:332,1,62.4999976158143,0|0,0:0|0:0,0:0:0:0:
196,132,53157,5,0,0:0:0:0:
408,192,53330,6,0,B|365:197|365:197|287:170,1,124.999995231629
360,56,53675,2,0,B|338:40|338:40|272:52,1,62.4999976158143
413,188,53847,6,0,P|426:187|415:189,1,62.4999976158143
452,80,54019,6,0,L|513:124,1,62.4999976158143
313,203,54192,2,0,L|320:127,1,62.4999976158143
496,264,54364,2,0,L|426:294,1,62.4999976158143
413,188,54537,5,0,0:0:0:0:
231,349,54710,6,0,B|274:354|274:354|352:327,1,124.999995231629
191,235,55054,1,0,0:0:0:0:
191,235,55140,1,0,0:0:0:0:
192,240,55226,6,0,P|179:239|190:241,1,62.4999976158143
37,242,55399,6,0,P|44:286|65:316,1,62.4999976158143
187,95,55571,2,0,P|217:97|246:111,1,62.4999976158143
340,361,55743,2,0,P|275:312|275:312,1,62.4999976158143
192,240,55916,5,0,0:0:0:0:
80,321,56089,2,0,P|32:334|-2:359,1,62.4999976158143
193,225,56261,1,0,0:0:0:0:
327,221,56433,2,0,P|373:201|416:200,1,62.4999976158143
201,210,56606,6,0,P|195:189|193:212,1,62.4999976158143
204,220,56778,5,0,0:0:0:0:
211,230,56864,1,0,0:0:0:0:
218,240,56950,1,0,0:0:0:0:
225,250,57036,1,0,0:0:0:0:
233,260,57122,1,0,0:0:0:0:
241,270,57209,1,0,0:0:0:0:
248,280,57295,6,0,B|277:276|295:284|331:280,2,62.4999976158143
342,147,57812,2,0,B|425:136|399:153|471:146,1,124.999995231629
285,78,58675,2,0,P|262:100|257:144,3,62.4999976158143
340,274,59364,2,0,P|332:243|296:216,3,62.4999976158143
142,223,60054,2,0,P|172:231|213:214,2,62.4999976158143
167,137,60571,2,0,B|156:54|173:80|166:8,1,124.999995231629
142,223,61261,5,0,0:0:0:0:
229,223,61433,1,0,0:0:0:0:
224,218,61606,1,0,0:0:0:0:
229,214,61778,1,0,0:0:0:0:
233,218,61950,1,0,0:0:0:0:
320,215,62123,1,0,0:0:0:0:
316,211,62295,1,0,0:0:0:0:
311,215,62467,1,0,0:0:0:0:
316,220,62640,1,0,0:0:0:0:
342,300,62812,5,0,0:0:0:0:
245,268,62985,1,0,0:0:0:0:
245,168,63157,1,0,0:0:0:0:
342,137,63330,1,0,0:0:0:0:
399,218,63502,2,0,P|398:164|393:83,1,124.999995231629
221,53,64019,1,0,0:0:0:0:
200,67,64192,2,0,P|201:121|206:202,1,124.999995231629
4,292,64709,1,0,0:0:0:0:
16,278,64881,6,0,P|70:252|131:266,1,124.999995231629
79,341,65399,1,0,0:0:0:0:
89,353,65571,2,0,B|199:404|204:296|337:363|337:363,1,249.999990463257
448,212,66433,1,0,0:0:0:0:
438,255,66606,1,0,0:0:0:0:
429,297,66778,1,0,0:0:0:0:
258,194,66950,5,0,0:0:0:0:
266,54,67295,5,0,0:0:0:0:
282,89,67381,1,0,0:0:0:0:
285,126,67467,1,0,0:0:0:0:
277,162,67553,1,0,0:0:0:0:
258,194,67639,1,0,0:0:0:0:
84,93,67812,2,0,B|121:121|121:121|204:124,1,112.499992275238
402,151,68330,5,0,0:0:0:0:
180,333,68502,1,0,0:0:0:0:
274,362,68675,2,0,L|261:255,1,87.4999939918521
243,152,69020,5,0,0:0:0:0:
150,59,69192,1,0,0:0:0:0:
276,26,69364,5,0,0:0:0:0:
243,152,69537,1,0,0:0:0:0:
210,278,69710,5,0,0:0:0:0:
335,243,69882,1,0,0:0:0:0:
243,152,70054,1,0,0:0:0:0:
335,243,70227,1,0,0:0:0:0:
418,191,70399,5,0,0:0:0:0:
325,98,70571,1,0,0:0:0:0:
510,98,70743,5,0,0:0:0:0:
418,5,70916,1,0,0:0:0:0:
233,5,71088,5,0,0:0:0:0:
140,98,71261,1,0,0:0:0:0:
233,191,71433,1,0,0:0:0:0:
325,98,71606,1,0,0:0:0:0:
243,155,71778,5,0,0:0:0:0:
243,286,71951,1,0,0:0:0:0:
118,114,72123,5,0,0:0:0:0:
41,220,72296,1,0,0:0:0:0:
118,327,72468,5,0,0:0:0:0:
118,114,72640,1,0,0:0:0:0:
118,327,72813,5,0,0:0:0:0:
243,155,72985,1,0,0:0:0:0:
440,269,73158,5,0,0:0:0:0:
308,269,73330,1,0,0:0:0:0:
505,155,73502,5,0,0:0:0:0:
440,41,73675,1,0,0:0:0:0:
177,42,73847,5,0,0:0:0:0:
308,41,74020,1,0,0:0:0:0:
389,143,74192,1,0,0:0:0:0:
362,273,74364,1,0,0:0:0:0:
124,273,74537,5,0,0:0:0:0:
243,330,74709,1,0,0:0:0:0:
94,144,74882,5,0,0:0:0:0:
177,42,75054,1,0,0:0:0:0:
402,132,75227,5,0,0:0:0:0:
308,40,75399,1,0,0:0:0:0:
85,135,75571,5,0,0:0:0:0:
177,42,75743,1,0,0:0:0:0:
86,265,75916,5,0,0:0:0:0:
179,358,76088,1,0,0:0:0:0:
403,263,76259,5,0,0:0:0:0:
311,358,76433,1,0,0:0:0:0:
79,287,76606,5,0,0:0:0:0:
179,372,76778,1,0,0:0:0:0:
411,287,76951,5,0,0:0:0:0:
311,372,77123,1,0,0:0:0:0:
434,158,77295,5,0,0:0:0:0:
368,44,77468,1,0,0:0:0:0:
56,158,77641,5,0,0:0:0:0:
122,44,77813,1,0,0:0:0:0:
245,0,77985,5,0,0:0:0:0:
434,158,78158,1,0,0:0:0:0:
245,0,78330,5,0,0:0:0:0:
56,158,78502,1,0,0:0:0:0:
245,0,78675,1,0,0:0:0:0:
269,18,78761,1,0,0:0:0:0:
275,48,78847,1,0,0:0:0:0:
256,73,78933,1,0,0:0:0:0:
226,78,79020,1,0,0:0:0:0:
201,61,79106,1,0,0:0:0:0:
196,30,79192,1,0,0:0:0:0:
214,6,79278,1,0,0:0:0:0:
251,3,79364,5,0,0:0:0:0:
373,3,79536,1,0,0:0:0:0:
473,75,79709,1,0,0:0:0:0:
510,192,79881,1,0,0:0:0:0:
373,381,80054,5,0,0:0:0:0:
473,309,80226,1,0,0:0:0:0:
251,381,80399,5,0,0:0:0:0:
152,308,80570,1,0,0:0:0:0:
114,192,80743,5,0,0:0:0:0:
152,75,80915,1,0,0:0:0:0:
251,3,81089,1,0,0:0:0:0:
373,3,81261,1,0,0:0:0:0:
510,192,81433,5,0,0:0:0:0:
473,75,81606,1,0,0:0:0:0:
473,309,81777,5,0,0:0:0:0:
373,381,81950,1,0,0:0:0:0:
251,381,82123,5,0,0:0:0:0:
152,308,82295,1,0,0:0:0:0:
114,192,82467,1,0,0:0:0:0:
152,75,82640,1,0,0:0:0:0:
373,3,82812,5,0,0:0:0:0:
251,3,82984,1,0,0:0:0:0:
473,75,83157,5,0,0:0:0:0:
510,192,83330,1,0,0:0:0:0:
473,309,83502,5,0,0:0:0:0:
373,381,83675,1,0,0:0:0:0:
251,381,83847,1,0,0:0:0:0:
152,308,84019,1,0,0:0:0:0:
152,75,84192,5,0,0:0:0:0:
114,192,84364,1,0,0:0:0:0:
251,3,84537,5,0,0:0:0:0:
373,3,84709,1,0,0:0:0:0:
463,80,84881,2,0,L|472:256,1,174.999987983704
372,108,85399,2,0,L|381:284,1,174.999987983704
279,136,85916,2,0,L|285:266,1,87.4999939918521
293,317,86261,6,0,P|232:252|305:231,1,174.999987983704
104,156,86778,1,0,0:0:0:0:
98,162,86951,1,0,0:0:0:0:
90,166,87123,1,0,0:0:0:0:
81,166,87295,1,0,0:0:0:0:
73,163,87640,6,0,B|79:141|88:112|87:98|104:57|143:25|167:10|200:-8|252:-19|272:-7|301:6|331:10|346:9|385:22|422:50|448:101|458:133|459:152|448:204|469:240|446:256|425:301|411:325|382:350|350:358|324:392|273:388|255:391|190:382|162:364|113:325|105:301|86:265|82:249|82:249|122:241|148:215|148:215|153:182|155:152|165:118|189:96|220:88|239:79|255:67|299:89|331:90|352:111|367:158|375:188|370:218|342:270|319:286|269:290|255:288|255:288|255:368,1,1687.49988412858
254,190,90399,5,0,0:0:0:0:
197,264,90571,1,0,0:0:0:0:
219,109,90744,1,0,0:0:0:0:
343,206,90916,1,0,0:0:0:0:
92,164,91088,1,0,0:0:0:0:
350,60,91261,1,0,0:0:0:0:
311,337,91433,1,0,0:0:0:0:
206,16,91606,1,0,0:0:0:0:
448,192,91778,5,0,0:0:0:0:
400,68,91950,6,0,L|476:108,1,62.4999976158143
271,150,92123,2,0,L|356:146,1,62.4999976158143
200,285,92295,2,0,L|272:239,1,62.4999976158143
294,336,92468,6,0,B|303:367|303:367|310:323,1,62.4999976158143
404,287,92640,6,0,L|331:241,1,62.4999976158143
333,152,92813,2,0,L|247:148,1,62.4999976158143
204,70,92985,2,0,L|128:110,1,62.4999976158143
304,52,93157,5,0,0:0:0:0:
124,12,93330,2,0,L|-8:12,1,124.999995231629
57,219,93675,2,0,P|89:235|125:235,1,62.4999976158143
297,59,93847,6,0,B|306:28|306:28|313:72,1,62.4999976158143
496,148,94019,6,0,L|397:104,1,62.4999976158143
297,261,94192,2,0,L|297:199,1,62.4999976158143
109,147,94364,2,0,L|204:104,1,62.4999976158143
297,59,94537,5,0,0:0:0:0:
384,228,94709,2,0,L|528:228,1,124.999995231629
297,199,95054,1,0,0:0:0:0:
297,199,95140,1,0,0:0:0:0:
297,199,95226,6,0,B|288:230|288:230|281:186,1,62.4999976158143
129,60,95399,6,0,L|201:60,1,62.4999976158143
435,134,95571,2,0,L|351:134,1,62.4999976158143
129,208,95744,2,0,L|201:208,1,62.4999976158143
428,275,95916,5,0,0:0:0:0:
260,280,96088,2,0,B|185:311,1,62.4999976158143
443,282,96261,1,0,0:0:0:0:
322,378,96433,2,0,B|250:375,1,62.4999976158143
456,288,96606,6,0,B|465:319|465:319|472:275,1,62.4999976158143
454,125,96778,6,0,L|454:213,1,62.4999976158143
302,125,96950,2,0,L|302:213,1,62.4999976158143
150,125,97123,2,0,L|150:213,1,62.4999976158143
0,125,97295,5,0,0:0:0:0:
62,234,97468,6,0,L|0:231,1,62.4999976158143
150,293,97640,2,0,L|97:326,1,62.4999976158143
254,290,97812,2,0,L|230:348,1,62.4999976158143
334,230,97985,6,0,B|357:251|357:251|315:238,1,62.4999976158143
161,84,98157,6,0,L|185:26,1,62.4999976158143
265,81,98330,2,0,L|318:48,1,62.4999976158143
343,150,98502,2,0,L|405:153,1,62.4999976158143
213,194,98675,5,0,0:0:0:0:
36,84,98847,2,0,L|184:84,1,124.999995231629
450,84,99192,2,0,L|512:84,1,62.4999976158143
449,219,99364,6,0,B|472:240|472:240|442:230,1,62.4999976158143
262,356,99537,6,0,L|349:292,1,62.4999976158143
263,127,99710,2,0,L|316:158,1,62.4999976158143
456,21,99882,2,0,L|445:124,1,62.4999976158143
449,219,100054,5,0,0:0:0:0:
387,356,100226,2,0,L|239:356,1,124.999995231629
99,237,100571,1,0,0:0:0:0:
99,237,100657,1,0,0:0:0:0:
99,237,100744,6,0,B|76:216|76:216|105:225,1,62.4999976158143
308,24,100916,6,0,L|228:24,1,62.4999976158143
44,112,101088,2,0,L|124:112,1,62.4999976158143
308,200,101261,2,0,L|228:200,1,62.4999976158143
99,237,101433,5,0,0:0:0:0:
320,232,101606,2,0,L|392:232,1,62.4999976158143
84,244,101778,1,0,0:0:0:0:
340,264,101950,2,0,L|402:264,1,62.4999976158143
71,250,102123,6,0,B|62:281|62:281|55:237,1,62.4999976158143
236,344,102295,6,0,L|173:344,1,62.4999976158143
248,192,102468,2,0,L|185:192,1,62.4999976158143
236,40,102640,2,0,L|173:40,1,62.4999976158143
0,192,102812,5,0,0:0:0:0:
104,301,102985,6,0,P|113:343|144:365,1,62.4999976158143
205,289,103157,2,0,P|246:298|279:279,1,62.4999976158143
236,192,103330,2,0,P|262:158|259:120,1,62.4999976158143,0|0,0:0|0:0,0:0:0:0:
300,32,103502,6,0,B|309:1|309:1|316:45,1,62.4999976158143
351,138,103675,6,0,P|358:168|380:191,1,62.4999976158143
351,291,103847,2,0,P|381:298|411:288,1,62.4999976158143
490,355,104020,2,0,P|509:330|512:300,1,62.4999976158143,0|0,0:0|0:0,0:0:0:0:
312,380,104192,5,0,0:0:0:0:
308,216,104364,2,0,L|308:91,1,124.999995231629
300,384,104709,2,0,L|220:372,1,62.4999976158143
144,240,104881,6,0,B|128:267|128:267|153:249,1,62.4999976158143
88,31,105054,6,0,L|126:132,1,62.4999976158143
308,91,105227,2,0,L|264:134,1,62.4999976158143
360,305,105399,2,0,L|262:268,1,62.4999976158143
153,242,105571,5,0,0:0:0:0:
88,31,105744,2,0,L|88:191,1,124.999995231629
96,344,106088,1,0,0:0:0:0:
96,344,106175,1,0,0:0:0:0:
96,344,106261,6,0,B|87:375|87:375|80:331,1,62.4999976158143
184,240,106433,6,0,L|272:240,1,62.4999976158143
356,128,106606,2,0,L|268:128,1,62.4999976158143
184,16,106778,2,0,L|272:16,1,62.4999976158143
460,128,106950,5,0,0:0:0:0:
356,256,107123,2,0,L|356:336,1,62.4999976158143
468,120,107295,1,0,0:0:0:0:
324,276,107468,2,0,L|324:356,1,62.4999976158143
476,112,107640,6,0,B|485:81|485:81|492:125,1,62.4999976158143
304,192,107812,6,0,L|304:104,1,62.4999976158143
152,144,107984,2,0,L|152:56,1,62.4999976158143
0,192,108157,2,0,L|0:104,1,62.4999976158143
152,312,108330,5,0,0:0:0:0:
397,354,108502,6,0,P|458:340|492:300,1,62.4999976158143
408,249,108675,2,0,P|422:187|399:139,1,62.4999976158143
316,194,108847,2,0,P|266:154|213:154,1,62.4999976158143
266,46,109019,6,0,B|257:16|257:16|250:52,1,62.4999976158143
257,152,109192,6,0,P|224:167|199:194,1,62.4999976158143
95,179,109365,2,0,P|94:215|108:249,1,62.4999976158143
50,335,109537,2,0,P|81:352|119:354,1,62.4999976158143
258,266,109709,5,0,0:0:0:0:
461,335,109881,2,0,L|327:336,1,124.999995231629
112,335,110226,2,0,L|175:335,1,62.4999976158143
253,206,110399,6,0,B|262:236|262:236|268:207,1,62.4999976158143
463,114,110571,6,0,L|364:158,1,62.4999976158143
264,1,110744,2,0,L|264:63,1,62.4999976158143
76,115,110916,2,0,L|171:158,1,62.4999976158143
260,203,111088,5,0,0:0:0:0:
175,335,111261,2,0,L|50:335,1,124.999995231629
355,342,111606,1,0,0:0:0:0:
355,342,111693,1,0,0:0:0:0:
355,342,111779,6,0,B|364:311|364:311|371:355,1,62.4999976158143
203,241,111950,6,0,L|140:241,1,62.4999976158143
310,132,112123,2,0,L|372:132,1,62.4999976158143
203,20,112295,2,0,L|140:20,1,62.4999976158143
288,132,112468,5,0,0:0:0:0:
147,132,112640,2,0,L|46:131,1,62.4999976158143
285,150,112812,1,0,0:0:0:0:
445,132,112985,2,0,L|546:131,1,62.4999976158143
286,166,113157,6,0,B|295:196|295:196|301:167,1,62.4999976158143
303,146,113330,1,0,0:0:0:0:
301,121,113416,1,0,0:0:0:0:
300,96,113502,1,0,0:0:0:0:
299,71,113588,1,0,0:0:0:0:
298,46,113674,1,0,0:0:0:0:
297,21,113761,1,0,0:0:0:0:
297,2,113847,6,0,B|233:18|243:-7|172:1,1,124.999995231629
73,92,114364,2,0,B|145:110|145:110|197:92,2,124.999995231629
157,265,115226,2,0,L|150:185,3,62.4999976158143
78,323,115916,2,0,P|119:354|241:315,1,187.499992847443
357,184,116606,2,0,B|334:205|305:253|308:295|331:361|368:374|368:374|426:368|466:313|476:285|474:250|470:220|461:185,1,437.4999833107
426,118,117985,2,0,B|406:90|406:90|243:78,1,187.499992847443
179,9,118675,2,0,B|164:32|147:64|150:108|168:133|193:158|193:158|127:137|91:139,1,249.999990463257
246,184,119709,5,0,0:0:0:0:
275,237,120054,1,0,0:0:0:0:
268,297,120399,1,0,0:0:0:0:
227,342,120743,1,0,0:0:0:0:
186,259,121088,1,0,0:0:0:0:
338,162,121433,1,0,0:0:0:0:
347,343,121778,1,0,0:0:0:0:
254,113,122123,6,0,B|232:159|237:199|252:223|271:248|300:269|344:274|379:277|404:237|417:226|430:206|447:197|440:156|431:128|427:102|392:83|392:83|347:109|338:161|338:161|347:108|321:73|321:73,1,624.999976158143
253,24,124192,5,0,0:0:0:0:
196,51,124537,1,0,0:0:0:0:
38,39,124881,5,0,0:0:0:0:
110,87,125226,1,0,0:0:0:0:
126,173,125571,1,0,0:0:0:0:
64,240,125916,2,0,P|124:268|184:240,1,124.999995231629
276,136,126606,1,0,0:0:0:0:
296,112,126778,1,0,0:0:0:0:
316,88,126950,2,0,P|312:4|312:4,3,62.4999976158143
500,128,127640,5,0,0:0:0:0:
484,272,127985,1,0,0:0:0:0:
367,186,128330,1,0,0:0:0:0:
347,210,128503,1,0,0:0:0:0:
328,236,128675,2,0,B|136:176|176:272|88:272|-12:236,1,337.499976825715
104,60,130054,6,0,P|76:116|96:176,1,112.499992275238
176,120,130743,1,0,0:0:0:0:
268,24,131088,1,0,0:0:0:0:
312,60,131433,1,0,0:0:0:0:
332,112,131778,1,0,0:0:0:0:
328,168,132123,1,0,0:0:0:0:
239,217,132468,5,0,0:0:0:0:
332,259,132812,1,0,0:0:0:0:
381,346,133157,2,0,B|455:356|455:356|497:300|497:300|425:285|425:285|385:343,1,262.499981975556
289,350,134537,6,0,L|249:348,3,24.9999990463257
