osu file format v14

[General]
AudioFilename: audio.mp3
AudioLeadIn: 0
PreviewTime: -1
Countdown: 1
SampleSet: Soft
StackLeniency: 0.7
Mode: 0
LetterboxInBreaks: 0
WidescreenStoryboard: 0

[Editor]
DistanceSpacing: 1.2
BeatDivisor: 16
GridSize: 4
TimelineZoom: 1

[Metadata]
Title:Just Blazed
TitleUnicode:Just Blazed
Artist:spongebob
ArtistUnicode:spongebob
Creator:Azers Mom
Version:Just Blazed
Source:
Tags:
BeatmapID:1870969
BeatmapSetID:895429

[Difficulty]
HPDrainRate:5
CircleSize:4
OverallDifficulty:8.5
ApproachRate:8.8
SliderMultiplier:2
SliderTickRate:1

[Events]
//Background and Video events
0,0,"flat800x800075f.png",0,0
//Break Periods
//Storyboard Layer 0 (Background)
//Storyboard Layer 1 (Fail)
//Storyboard Layer 2 (Pass)
//Storyboard Layer 3 (Foreground)
//Storyboard Sound Samples

[TimingPoints]
-612,364.741641337386,4,2,0,50,1,0

[HitObjects]
370,114,26,5,0,0:0:0:0:
364,153,117,1,0,0:0:0:0:
350,190,208,1,0,0:0:0:0:
327,222,299,1,0,0:0:0:0:
294,246,391,1,0,0:0:0:0:
257,262,482,1,0,0:0:0:0:
218,272,573,1,0,0:0:0:0:
178,276,664,1,0,0:0:0:0:
138,271,755,1,0,0:0:0:0:
101,254,846,1,0,0:0:0:0:
68,231,938,1,0,0:0:0:0:
42,199,1029,1,0,0:0:0:0:
390,108,1485,5,0,0:0:0:0:
340,275,1758,1,0,0:0:0:0:
228,73,2032,1,0,0:0:0:0:
234,242,2305,2,0,B|160:324|160:324|21:222,1,250
255,194,3308,5,0,0:0:0:0:
145,95,3764,1,0,0:0:0:0:
145,95,3856,1,0,0:0:0:0:
145,95,3947,1,0,0:0:0:0:
255,94,4129,5,0,0:0:0:0:
255,94,4221,1,0,0:0:0:0:
255,94,4312,1,0,0:0:0:0:
363,93,4493,5,0,0:0:0:0:
363,93,4585,1,0,0:0:0:0:
363,93,4676,1,0,0:0:0:0:
364,193,4858,5,0,0:0:0:0:
364,193,4950,1,0,0:0:0:0:
364,193,5041,1,0,0:0:0:0:
255,194,5223,5,0,0:0:0:0:
255,194,5315,1,0,0:0:0:0:
255,194,5406,1,0,0:0:0:0:
97,191,5588,5,0,0:0:0:0:
121,191,5588,1,0,0:0:0:0:
97,191,5679,1,0,0:0:0:0:
121,191,5679,1,0,0:0:0:0:
97,191,5770,1,0,0:0:0:0:
121,191,5770,1,0,0:0:0:0:
98,306,5953,5,0,0:0:0:0:
122,306,5953,1,0,0:0:0:0:
122,306,6044,1,0,0:0:0:0:
98,306,6044,1,0,0:0:0:0:
98,306,6135,1,0,0:0:0:0:
122,306,6135,1,0,0:0:0:0:
244,306,6318,5,0,0:0:0:0:
268,306,6318,1,0,0:0:0:0:
244,306,6409,1,0,0:0:0:0:
268,306,6409,1,0,0:0:0:0:
268,306,6500,1,0,0:0:0:0:
244,306,6500,1,0,0:0:0:0:
386,304,6682,5,0,0:0:0:0:
410,304,6682,1,0,0:0:0:0:
410,304,6773,1,0,0:0:0:0:
386,304,6773,1,0,0:0:0:0:
386,304,6864,1,0,0:0:0:0:
410,304,6864,1,0,0:0:0:0:
384,191,7047,5,0,0:0:0:0:
408,191,7047,1,0,0:0:0:0:
384,191,7138,1,0,0:0:0:0:
408,191,7138,1,0,0:0:0:0:
408,191,7229,1,0,0:0:0:0:
384,191,7229,1,0,0:0:0:0:
291,80,7412,6,0,B|143:94|57:204|191:279|423:252|403:69|92:58|-10:235|66:323|194:366|409:365|518:298|479:156|435:63|458:30|129:23|28:110|-3:102|54:243|43:334|253:346|425:252|283:39|57:21|101:80|323:94|223:327|83:304|79:290|282:346|410:260|399:92|58:0|-11:74|-19:231|-2:294|61:332|195:353|370:328|470:238|357:52|291:10|97:3|291:35|412:87|224:156|389:234|176:308|146:313|152:303|153:303|146:284|145:284|145:284|60:159|62:123|213:143|440:223|425:227|186:274|178:277|169:267|137:170|113:122|114:128|115:128|105:40|103:38|226:43|236:45|45:102|46:102|1:186|165:321|319:344|118:218|74:203|258:266,1,1900
156,57,11971,5,0,0:0:0:0:
223,312,12245,1,0,0:0:0:0:
333,58,12518,1,0,0:0:0:0:
135,236,12792,1,0,0:0:0:0:
360,225,13156,5,0,0:0:0:0:
234,193,13316,5,0,0:0:0:0:
234,193,13339,1,0,0:0:0:0:
234,193,13362,1,0,0:0:0:0:
234,193,13384,1,0,0:0:0:0:
234,193,13407,1,0,0:0:0:0:
296,136,13521,5,0,0:0:0:0:
296,136,13544,5,0,0:0:0:0:
296,136,13567,5,0,0:0:0:0:
296,136,13589,5,0,0:0:0:0:
256,192,14000,12,0,14137,0:0:0:0:
