osu file format v14

[General]
AudioFilename: audio.mp3
AudioLeadIn: 0
PreviewTime: 33124
Countdown: 0
SampleSet: Soft
StackLeniency: 0.7
Mode: 0
LetterboxInBreaks: 0
WidescreenStoryboard: 1

[Editor]
Bookmarks: 46838,57124
DistanceSpacing: 1
BeatDivisor: 4
GridSize: 8
TimelineZoom: 1

[Metadata]
Title:Non stop road (TV size)
TitleUnicode:Non stop road(TV size)
Artist:sphere
ArtistUnicode:スフィア
Creator:- G I D Z -
Version:wkyik's Insane
Source:夏色キセキ
Tags:Natsuiro Kiseki tv size anime opening Rizia gidz 寿 美菜子 Minako Kotobuki 高垣彩陽 Ayahi Takagaki 戸松 遥 Haruka Tomatsu 豊崎愛生 Aki Toyosaki
BeatmapID:1157993
BeatmapSetID:546703

[Difficulty]
HPDrainRate:7
CircleSize:4
OverallDifficulty:7
ApproachRate:8
SliderMultiplier:1.8
SliderTickRate:1

[Events]
//Background and Video events
0,0,"BG.jpg",0,0
//Break Periods
//Storyboard Layer 0 (Background)
//Storyboard Layer 1 (Fail)
//Storyboard Layer 2 (Pass)
//Storyboard Layer 3 (Foreground)
//Storyboard Sound Samples

[TimingPoints]
210,342.857142857143,4,2,1,50,1,0
210,-133.333333333333,4,2,1,50,0,0
5695,-100,4,2,1,50,0,0
11181,-133.333333333333,4,2,1,50,0,0
30381,-100,4,2,1,50,0,0
33124,-100,4,2,1,70,0,1
66038,-100,4,2,1,50,0,0
71524,-100,4,2,1,70,0,1
87981,-100,4,2,1,70,0,0
92095,-100,4,2,1,5,0,0

[Colours]
Combo1 : 133,208,85
Combo2 : 72,107,156
Combo3 : 237,184,97

[HitObjects]
113,157,210,5,2,0:0:0:0:
113,157,724,1,0,0:0:0:0:
211,94,895,1,0,0:0:0:0:
98,66,1067,2,0,P|74:157|81:206,1,135.000005149842,2|0,0:0|0:0,0:0:0:0:
88,292,1581,6,0,L|230:274,1,135.000005149842,2|0,0:0|0:0,0:0:0:0:
313,262,2095,1,2,0:0:0:0:
437,93,2610,1,0,0:0:0:0:
437,93,2952,6,0,P|408:70|304:74,1,135.000005149842,2|0,0:0|0:0,0:0:0:0:
241,118,3467,1,0,0:0:0:0:
241,118,3638,1,2,0:0:0:0:
241,118,3810,2,0,P|251:180|257:263,1,135.000005149842
276,361,4324,6,0,P|281:293|291:227,1,135.000005149842,2|0,0:0|0:0,0:0:0:0:
368,176,4838,2,0,P|435:181|501:191,1,135.000005149842,2|0,0:0|0:0,0:0:0:0:
501,191,5352,1,0,0:0:0:0:
235,43,5695,6,0,P|145:45|59:72,1,180,4|0,0:0|0:0,0:0:0:0:
89,246,6210,2,0,P|178:243|264:216,1,180
327,123,6724,1,0,0:0:0:0:
62,162,7067,6,0,P|33:247|30:336,1,180,4|0,0:0|0:0,0:0:0:0:
202,368,7582,2,0,P|230:282|233:193,1,180
168,102,8096,1,0,0:0:0:0:
233,352,8438,6,0,L|334:335,2,90,4|0|0,0:0|0:0|0:0,0:0:0:0:
152,282,8952,2,0,L|165:192,2,90
139,379,9467,1,0,0:0:0:0:
139,379,9638,1,0,0:0:0:0:
254,249,9810,6,0,P|292:222|427:237,1,180,4|0,0:0|0:0,0:0:0:0:
475,66,10495,1,0,0:0:0:0:
356,109,10667,1,0,0:0:0:0:
261,26,10838,1,8,0:0:0:0:
78,167,11181,6,0,L|84:258,1,67.5000025749208,4|0,0:0|0:0,0:0:0:0:
184,231,11524,2,0,L|178:322,1,67.5000025749208
84,326,11867,2,0,P|49:326|16:330,2,67.5000025749208
179,344,12381,1,0,0:0:0:0:
262,299,12552,6,0,P|306:294|411:298,1,135.000005149842
489,316,13067,1,0,0:0:0:0:
450,163,13238,2,0,P|453:196|455:244,1,67.5000025749208
288,201,13581,2,0,P|284:167|283:120,1,67.5000025749208
383,44,13924,6,0,P|381:77|378:111,1,67.5000025749208
270,148,14267,2,0,P|236:144|202:143,1,67.5000025749208
110,119,14610,1,0,0:0:0:0:
53,43,14781,1,0,0:0:0:0:
144,31,14952,1,0,0:0:0:0:
118,210,15124,1,0,0:0:0:0:
253,303,15295,6,0,P|290:298|336:284,1,67.5000025749208
407,254,15638,1,0,0:0:0:0:
255,185,15810,1,0,0:0:0:0:
255,185,15895,1,0,0:0:0:0:
255,185,15981,2,0,P|214:177|166:158,1,67.5000025749208
356,125,16324,2,0,P|369:164|377:215,1,67.5000025749208
272,384,16667,6,0,P|262:345|307:236,1,135.000005149842,4|0,0:0|0:0,0:0:0:0:
350,196,17181,2,0,L|194:218,1,135.000005149842
121,234,17695,1,0,0:0:0:0:
240,0,18038,6,0,P|250:39|205:148,1,135.000005149842
143,177,18552,1,0,0:0:0:0:
73,112,18724,2,0,P|115:84|147:86,1,67.5000025749208
237,152,19067,2,0,P|240:202|222:229,1,67.5000025749208
142,293,19410,6,0,L|-21:286,1,135.000005149842
377,200,20095,2,0,L|540:193,1,135.000005149842
380,108,20610,1,0,0:0:0:0:
358,310,20781,5,0,0:0:0:0:
490,222,20952,1,0,0:0:0:0:
310,173,21124,1,8,0:0:0:0:
436,287,21295,1,0,0:0:0:0:
436,287,21381,1,0,0:0:0:0:
436,287,21467,1,0,0:0:0:0:
343,341,21638,1,8,0:3:0:0:
258,272,21810,1,4,0:3:0:0:
165,326,21981,1,4,0:3:0:0:
80,259,22152,5,4,0:0:0:0:
320,92,22495,1,0,0:0:0:0:
258,272,22838,1,8,0:0:0:0:
56,71,23181,1,0,0:0:0:0:
56,71,23524,6,0,P|111:90|200:82,1,135.000005149842
271,61,24038,2,0,P|337:55|401:76,1,135.000005149842
468,133,24552,1,8,0:0:0:0:
329,360,24895,6,0,L|323:282,1,67.5000025749208
318,204,25238,2,0,L|160:223,2,135.000005149842,0|8|0,0:0|0:0|0:0,0:0:0:0:
384,86,26267,5,2,0:0:0:0:
237,86,26610,1,0,0:0:0:0:
384,86,26781,1,8,0:3:0:0:
234,70,26952,1,0,0:0:0:0:
389,104,27124,1,8,0:3:0:0:
358,253,27295,1,8,0:0:0:0:
27,111,27638,5,4,0:0:0:0:
298,196,27981,1,0,0:0:0:0:
118,249,28324,1,0,0:0:0:0:
213,26,28667,1,8,0:0:0:0:
384,143,29010,6,0,L|396:290,1,135.000005149842
309,254,29524,1,0,0:0:0:0:
226,224,29695,2,0,L|238:371,1,135.000005149842,0|8,0:0|0:0,0:0:0:0:
2,160,30381,6,0,P|37:109|159:111,1,180,4|8,0:0|0:0,0:0:0:0:
220,154,30895,1,0,0:0:0:0:
267,232,31067,2,0,P|266:292|242:343,1,90
85,279,31410,2,0,P|124:270|188:262,1,90,8|0,0:0|0:0,0:0:0:0:
245,125,31752,6,0,P|284:134|348:142,1,90
491,60,32095,2,0,P|452:69|388:77,1,90,8|0,0:0|0:0,0:0:0:0:
369,228,32438,2,0,P|363:273|353:317,1,90,8|0,0:0|0:0,0:0:0:0:
239,92,32781,1,8,0:0:0:0:
243,118,32867,1,8,0:0:0:0:
247,144,32952,1,8,0:0:0:0:
252,170,33038,1,8,0:0:0:0:
257,196,33124,5,4,0:0:0:0:
49,134,33467,1,8,0:0:0:0:
58,349,33810,2,0,P|96:355|165:320,1,90,2|0,0:0|0:0,0:0:0:0:
214,283,34152,1,10,0:0:0:0:
253,201,34324,1,0,0:0:0:0:
143,81,34495,6,0,P|114:131|129:258,1,180,2|8,0:0|0:0,0:0:0:0:
274,355,35010,2,0,L|483:338,1,180,2|0,0:0|0:0,0:0:0:0:
510,227,35524,2,0,P|513:176|490:123,1,90,8|0,0:0|0:0,0:0:0:0:
403,59,35867,6,0,L|313:66,1,90,2|0,0:0|0:0,0:0:0:0:
244,124,36210,1,8,0:0:0:0:
293,298,36381,2,0,P|353:236|332:153,1,180,2|0,0:0|0:0,0:0:0:0:
172,203,36895,2,0,L|289:215,1,90,10|0,0:0|0:0,0:0:0:0:
449,334,37238,6,0,L|238:355,1,180,2|8,0:0|0:0,0:0:0:0:
35,304,37752,2,0,L|214:285,1,180,2|0,0:0|0:0,0:0:0:0:
188,366,38267,1,8,0:0:0:0:
127,30,38610,6,0,P|87:75|102:214,1,180,4|8,0:0|0:0,0:0:0:0:
159,257,39124,1,0,0:0:0:0:
257,248,39295,1,2,0:0:0:0:
205,163,39467,2,0,P|195:119|204:65,1,90,0|8,0:0|0:0,0:0:0:0:
291,113,39810,1,0,0:0:0:0:
336,294,39981,6,0,P|280:302|149:249,1,180,2|8,0:0|0:0,0:0:0:0:
200,100,40495,2,0,P|256:92|387:145,1,180,2|0,0:0|0:0,0:0:0:0:
499,222,41010,1,8,0:0:0:0:
13,162,41352,6,0,P|62:204|199:209,1,180,2|8,0:0|0:0,0:0:0:0:
344,158,41867,2,0,L|449:145,2,90,0|2|0,0:0|0:0|0:0,0:0:0:0:
241,109,42381,1,8,0:0:0:0:
208,297,42552,1,0,0:0:0:0:
208,297,42638,1,0,0:0:0:0:
208,297,42724,6,0,P|166:283|106:289,1,90
35,128,43067,2,0,P|77:142|137:136,1,90,8|0,0:0|0:0,0:0:0:0:
344,158,43410,2,0,L|331:53,1,90,12|0,0:0|0:0,0:0:0:0:
196,229,43752,1,8,0:0:0:0:
191,264,43838,1,8,0:0:0:0:
186,299,43924,1,8,0:0:0:0:
182,334,44010,1,8,0:0:0:0:
177,369,44095,5,4,0:0:0:0:
99,167,44438,1,8,0:0:0:0:
274,292,44781,2,0,P|291:241|287:191,1,90,2|0,0:0|0:0,0:0:0:0:
260,119,45124,1,10,0:0:0:0:
184,71,45295,1,0,0:0:0:0:
203,228,45467,6,0,P|251:246|392:177,1,180,2|8,0:0|0:0,0:0:0:0:
468,96,45981,2,0,L|436:308,1,180,2|0,0:0|0:0,0:0:0:0:
389,356,46495,2,0,P|348:371|282:360,1,90,8|0,0:0|0:0,0:0:0:0:
244,194,46838,6,0,P|285:179|351:190,1,90,2|0,0:0|0:0,0:0:0:0:
273,93,47181,1,8,0:0:0:0:
296,287,47352,2,0,P|206:281|119:257,1,180,2|0,0:0|0:0,0:0:0:0:
138,81,47867,2,0,P|227:86|314:110,1,180,8|2,0:0|0:0,0:0:0:0:
384,167,48381,1,0,0:0:0:0:
401,79,48552,1,8,0:0:0:0:
301,194,48724,2,0,P|283:242|356:344,1,180
475,297,49238,2,0,P|490:256|479:193,1,90,8|0,0:0|0:0,0:0:0:0:
387,119,49581,6,0,B|306:80|306:80|207:100,1,180,4|8,0:0|0:0,0:0:0:0:
295,178,50095,2,0,L|496:138,1,180,2|0,0:0|0:0,0:0:0:0:
487,269,50610,1,8,0:0:0:0:
382,339,50781,1,0,0:0:0:0:
275,272,50952,6,0,P|226:252|160:262,1,90,2|0,0:0|0:0,0:0:0:0:
116,199,51295,1,8,0:0:0:0:
116,199,51467,2,0,P|100:246|195:344,1,180,2|0,0:0|0:0,0:0:0:0:
290,264,51981,2,0,L|307:164,1,90,10|0,0:0|0:0,0:0:0:0:
82,71,52324,6,0,P|63:121|43:271,1,180,2|8,0:0|0:0,0:0:0:0:
290,264,52838,2,0,P|256:222|136:130,1,180,2|0,0:0|0:0,0:0:0:0:
152,300,53352,1,8,0:0:0:0:
327,165,53524,1,0,0:0:0:0:
146,52,53695,6,0,P|151:97|158:142,1,90,2|0,0:0|0:0,0:0:0:0:
315,254,54038,2,0,P|322:209|327:165,1,90,8|0,0:0|0:0,0:0:0:0:
279,35,54381,1,8,0:0:0:0:
158,142,54552,1,0,0:0:0:0:
158,142,54638,1,0,0:0:0:0:
158,142,54724,2,0,L|233:154,1,45,8|0,0:0|0:0,0:0:0:0:
319,120,54895,2,0,L|331:195,1,45
249,270,55067,6,0,P|195:279|136:295,1,90,4|0,0:0|0:0,0:0:0:0:
0,274,55410,1,8,0:0:0:0:
76,319,55581,1,0,0:0:0:0:
0,366,55752,6,0,P|62:337|185:315,1,180,2|8,0:0|0:0,0:0:0:0:
252,355,56267,2,0,P|195:315|115:220,1,180,2|0,0:0|0:0,0:0:0:0:
88,148,56781,1,10,0:0:0:0:
105,59,56952,1,0,0:0:0:0:
185,18,57124,6,0,P|239:7|368:67,1,180,2|8,0:0|0:0,0:0:0:0:
309,225,57638,2,0,P|255:236|126:176,1,180,2|0,0:0|0:0,0:0:0:0:
148,102,58152,1,8,0:0:0:0:
12,221,58495,1,2,0:0:0:0:
30,346,58667,1,0,0:0:0:0:
154,332,58838,1,8,0:0:0:0:
136,207,59010,1,0,0:0:0:0:
82,276,59181,6,0,L|97:378,1,90,4|0,0:0|0:0,0:0:0:0:
243,183,59524,1,8,0:0:0:0:
82,276,59695,1,0,0:0:0:0:
126,176,59867,2,0,L|111:74,1,90,4|0,0:0|0:0,0:0:0:0:
248,286,60210,2,0,P|289:277|353:271,1,90,8|0,0:0|0:0,0:0:0:0:
336,271,60467,1,0,0:0:0:0:
336,271,60552,5,6,0:0:0:0:
270,208,60724,1,0,0:0:0:0:
309,364,60895,1,8,0:0:0:0:
439,267,61067,1,0,0:0:0:0:
256,298,61238,6,0,P|166:291|77:279,1,180,2|8,0:0|0:0,0:0:0:0:
98,102,61752,2,0,P|187:108|276:120,1,180,2|0,0:0|0:0,0:0:0:0:
396,77,62267,1,8,0:0:0:0:
378,201,62438,1,0,0:0:0:0:
252,182,62610,2,0,P|247:134|246:66,1,90,2|0,0:0|0:0,0:0:0:0:
378,201,62952,2,0,P|383:249|384:317,1,90,8|0,0:0|0:0,0:0:0:0:
384,290,63210,1,0,0:0:0:0:
384,290,63295,5,4,0:0:0:0:
306,352,63467,1,0,0:0:0:0:
210,326,63638,1,8,0:0:0:0:
176,232,63810,6,0,P|166:175|283:106,1,180,4|0,0:0|0:0,0:0:0:0:
415,196,64324,1,8,0:0:0:0:
397,201,64410,1,8,0:0:0:0:
380,206,64495,1,8,0:0:0:0:
363,212,64581,1,8,0:0:0:0:
346,218,64667,6,0,L|141:200,1,180,4|8,0:0|0:0,0:0:0:0:
332,103,65181,2,0,L|537:85,1,180,4|8,0:0|0:3,0:0:0:0:
485,192,65695,1,4,0:3:0:0:
420,279,65867,1,4,0:3:0:0:
324,328,66038,5,4,0:0:0:0:
126,239,66381,1,0,0:0:0:0:
219,143,66552,1,8,0:0:0:0:
219,143,66638,1,8,0:0:0:0:
219,143,66724,2,0,L|202:290,2,120,8|8|4,0:0|0:3|0:3,0:0:0:0:
140,81,67410,6,0,P|82:66|1:162,1,180,4|0,0:0|0:0,0:0:0:0:
13,231,67924,2,0,L|215:253,1,180,8|8,0:3|0:3,0:0:0:0:
264,304,68438,1,4,0:3:0:0:
358,243,68610,1,4,0:3:0:0:
450,346,68781,5,8,0:0:0:0:
408,142,68952,1,8,0:0:0:0:
408,142,70324,5,8,0:0:0:0:
386,229,70495,1,8,0:0:0:0:
338,305,70667,1,8,0:0:0:0:
241,352,70838,5,8,0:0:0:0:
116,332,71010,1,8,0:0:0:0:
41,209,71181,1,8,0:0:0:0:
81,52,71352,1,8,0:0:0:0:
255,5,71524,6,0,P|325:3|431:73,1,180,4|8,0:0|0:0,0:0:0:0:
512,101,72038,2,0,P|442:99|336:169,1,180,2|0,0:0|0:0,0:0:0:0:
317,326,72552,2,0,P|310:281|299:238,1,90,10|0,0:0|0:0,0:0:0:0:
114,159,72895,6,0,P|184:157|290:227,1,180,2|8,0:0|0:0,0:0:0:0:
223,365,73410,2,0,P|153:367|47:297,1,180,2|0,0:0|0:0,0:0:0:0:
20,222,73924,2,0,P|16:174|27:120,1,90,8|0,0:0|0:0,0:0:0:0:
150,24,74267,6,0,L|333:39,2,180,2|8|2,0:0|0:0|0:0,0:0:0:0:
62,71,75124,1,0,0:0:0:0:
159,150,75295,1,8,0:0:0:0:
329,38,75467,1,0,0:0:0:0:
430,118,75638,6,0,L|412:235,1,90,12|0,0:0|0:0,0:0:0:0:
274,352,75981,2,0,L|287:263,1,90,8|0,0:0|0:0,0:0:0:0:
287,180,76324,2,8,L|331:186,3,45
407,291,76667,2,8,L|363:297,3,45
288,359,77010,6,0,P|299:307|376:200,1,180,4|8,0:0|0:0,0:0:0:0:
451,165,77524,1,0,0:0:0:0:
476,78,77695,2,0,P|438:89|367:94,1,90,2|0,0:0|0:0,0:0:0:0:
284,128,78038,2,0,P|239:123|195:111,1,90,10|0,0:0|0:0,0:0:0:0:
108,47,78381,6,0,P|72:88|84:240,1,180,2|8,0:0|0:0,0:0:0:0:
117,303,78895,2,0,L|324:280,1,180,2|0,0:0|0:0,0:0:0:0:
400,251,79410,2,0,L|386:349,1,90,10|0,0:0|0:0,0:0:0:0:
497,240,79752,6,0,P|450:167|364:158,1,180,2|8,0:0|0:0,0:0:0:0:
250,104,80267,2,0,P|256:184|277:303,1,180,2|0,0:0|0:0,0:0:0:0:
387,340,80781,2,0,P|396:289|405:219,1,90,8|0,0:0|0:0,0:0:0:0:
467,150,81124,6,0,P|416:141|346:132,1,90,2|0,0:0|0:0,0:0:0:0:
277,176,81467,1,8,0:0:0:0:
277,176,81638,2,0,P|269:126|351:31,1,180,2|0,0:0|0:0,0:0:0:0:
467,150,82152,2,0,P|475:200|393:295,1,180,8|4,0:0|0:0,0:0:0:0:
192,363,82838,5,8,0:0:0:0:
192,363,83010,2,0,P|121:359|9:350,1,180
31,243,83524,1,8,0:0:0:0:
132,279,83695,1,0,0:0:0:0:
178,181,83867,6,0,P|88:173|-1:168,1,180,2|8,0:0|0:0,0:0:0:0:
236,264,84381,2,0,P|325:271|415:276,1,180,2|0,0:0|0:0,0:0:0:0:
376,175,84895,2,0,P|322:170|268:167,1,90,8|0,0:0|0:0,0:0:0:0:
144,284,85238,6,0,P|168:332|304:316,1,180,2|8,0:0|0:0,0:0:0:0:
304,117,85752,2,0,P|239:176|236:264,1,180,2|0,0:0|0:0,0:0:0:0:
374,350,86267,1,8,0:0:0:0:
451,208,86438,1,0,0:0:0:0:
451,208,86524,1,0,0:0:0:0:
451,208,86610,6,0,L|354:198,1,90,4|0,0:0|0:0,0:0:0:0:
138,316,86952,2,0,L|235:306,1,90,4|8,0:0|0:0,0:0:0:0:
227,306,87210,1,8,0:0:0:0:
227,306,87295,1,0,0:0:0:0:
289,196,87467,1,8,0:3:0:0:
220,90,87638,1,4,0:3:0:0:
93,95,87810,1,0,0:0:0:0:
38,208,87981,5,4,0:0:0:0:
256,192,88152,12,0,92095,0:0:0:0:
