osu file format v14

[General]
AudioFilename: audio.mp3
AudioLeadIn: 0
PreviewTime: 33124
Countdown: 0
SampleSet: Soft
StackLeniency: 0.7
Mode: 0
LetterboxInBreaks: 0
WidescreenStoryboard: 0

[Editor]
Bookmarks: 11181,22152,29010,33124,44095,55067,66038,77010
DistanceSpacing: 1
BeatDivisor: 2
GridSize: 8
TimelineZoom: 1

[Metadata]
Title:Non stop road (TV size)
TitleUnicode:Non stop road(TV size)
Artist:sphere
ArtistUnicode:スフィア
Creator:- G I D Z -
Version:Normal
Source:夏色キセキ
Tags:Natsuiro Kiseki tv size anime opening Rizia gidz 寿 美菜子 Minako Kotobuki 高垣彩陽 Ayahi Takagaki 戸松 遥 Haruka Tomatsu 豊崎愛生 Aki Toyosaki
BeatmapID:1157992
BeatmapSetID:546703

[Difficulty]
HPDrainRate:4
CircleSize:3.5
OverallDifficulty:4
ApproachRate:4.5
SliderMultiplier:1
SliderTickRate:1

[Events]
//Background and Video events
0,0,"BG.jpg",0,0
//Break Periods
//Storyboard Layer 0 (Background)
//Storyboard Layer 1 (Fail)
//Storyboard Layer 2 (Pass)
//Storyboard Layer 3 (Foreground)
//Storyboard Sound Samples

[TimingPoints]
210,342.857142857143,4,2,1,50,1,0
33124,-100,4,2,1,70,0,1
66038,-100,4,2,1,50,0,0
71524,-100,4,2,1,70,0,1
87981,-100,4,2,1,70,0,0
92095,-100,4,2,1,5,0,0

[Colours]
Combo1 : 133,208,85
Combo2 : 72,107,156
Combo3 : 237,184,97

[HitObjects]
67,108,210,6,0,P|113:122|167:107,1,100,2|0,0:0|0:0,0:0:0:0:
197,73,724,2,0,P|244:60|292:74,1,100
327,109,1238,1,0,0:0:0:0:
375,196,1581,6,0,P|329:210|275:195,1,100,2|0,0:0|0:0,0:0:0:0:
235,174,2095,2,0,P|187:161|139:175,1,100
113,217,2609,1,0,0:0:0:0:
137,313,2952,6,0,P|184:325|232:311,2,100,2|0|0,0:0|0:0|0:0,0:0:0:0:
41,282,3981,1,0,0:0:0:0:
113,217,4324,6,0,P|127:171|112:117,1,100,2|0,0:0|0:0,0:0:0:0:
64,119,4838,2,0,P|51:71|65:23,1,100
111,6,5352,1,0,0:0:0:0:
210,13,5695,6,0,B|285:-17|284:40|364:4,2,150,4|0|0,0:0|0:0|0:0,0:0:0:0:
209,114,7067,2,0,B|136:146|137:89|62:119,2,150,4|0|0,0:0|0:0|0:0,0:0:0:0:
218,213,8438,2,0,B|293:243|292:186|372:222,2,150,4|0|0,0:0|0:0|0:0,0:0:0:0:
117,204,9810,5,4,0:0:0:0:
364,218,10667,2,0,L|364:162,1,50,0|8,0:0|0:0,0:0:0:0:
330,73,11181,6,0,P|279:57|216:56,1,100,4|0,0:0|0:0,0:0:0:0:
184,67,11695,1,0,0:0:0:0:
148,102,11867,2,0,P|151:126|161:149,1,50,2|0,0:0|0:0,0:0:0:0:
175,197,12210,2,0,P|171:221|161:244,1,50
136,287,12552,6,0,P|187:301|240:334,1,100,2|0,0:0|0:0,0:0:0:0:
275,340,13067,2,0,P|284:290|305:245,1,100,2|0,0:0|0:0,0:0:0:0:
301,195,13581,1,2,0:0:0:0:
315,97,13924,6,0,P|366:81|429:80,1,100,2|0,0:0|0:0,0:0:0:0:
461,87,14438,1,0,0:0:0:0:
496,122,14610,2,0,P|492:146|482:169,1,50,2|0,0:0|0:0,0:0:0:0:
461,215,14953,2,0,P|464:239|475:262,1,50
495,307,15295,6,0,P|444:323|381:324,1,100,2|0,0:0|0:0,0:0:0:0:
348,316,15810,2,0,P|298:319|250:334,1,100,2|0,0:0|0:0,0:0:0:0:
209,362,16324,1,2,0:0:0:0:
114,328,16667,6,0,P|78:286|61:225,1,100,4|0,0:0|0:0,0:0:0:0:
81,197,17181,2,0,P|117:155|134:94,1,100,2|0,0:0|0:0,0:0:0:0:
119,64,17695,1,2,0:0:0:0:
216,85,18038,6,0,P|269:85|329:76,1,100,2|0,0:0|0:0,0:0:0:0:
361,58,18552,2,0,P|414:58|474:67,1,100,2|0,0:0|0:0,0:0:0:0:
496,99,19067,1,2,0:0:0:0:
450,188,19410,6,0,P|435:235|430:285,1,100,2|2,0:0|0:0,0:0:0:0:
356,351,20095,2,0,P|306:348|258:333,1,100,2|2,0:0|0:0,0:0:0:0:
162,297,20781,6,0,P|129:296|101:305,1,50
65,316,21124,2,0,P|40:273|28:225,1,100,8|8,0:0|0:3,0:0:0:0:
33,174,21638,1,8,0:3:0:0:
49,126,21810,2,0,P|59:103|63:78,1,50,4|4,0:3|0:3,0:0:0:0:
58,28,22152,6,0,P|106:20|155:25,1,100,4|0,0:0|0:0,0:0:0:0:
205,113,22838,1,8,0:0:0:0:
275,41,23181,1,0,0:0:0:0:
328,125,23524,6,0,P|378:127|427:117,1,100
468,88,24038,1,0,0:0:0:0:
499,127,24210,2,0,P|507:150|508:175,1,50
496,223,24552,1,8,0:0:0:0:
429,297,24895,5,0,0:0:0:0:
356,227,25238,2,0,P|306:225|257:234,1,100,0|8,0:0|0:0,0:0:0:0:
170,284,25924,1,0,0:0:0:0:
94,218,26267,6,0,P|96:168|86:119,1,100
73,70,26781,2,0,P|121:60|171:62,1,100,8|4,0:3|0:3,0:0:0:0:
218,79,27295,2,0,P|242:77|266:68,1,50,8|0,0:0|0:0,0:0:0:0:
295,27,27638,5,12,0:0:0:0:
387,65,27981,2,8,P|426:99|436:150,1,100,8|0,0:0|0:0,0:0:0:0:
413,242,28667,1,8,0:0:0:0:
346,316,29010,6,0,P|296:318|247:308,1,100
205,280,29524,1,0,0:0:0:0:
157,262,29696,2,0,P|132:258|107:263,1,50
64,289,30038,1,8,0:0:0:0:
18,199,30381,6,0,P|37:153|68:114,1,100,4|8,0:0|0:0,0:0:0:0:
114,95,30895,1,0,0:0:0:0:
114,95,31067,2,0,P|147:131|189:158,1,100,0|8,0:0|0:0,0:0:0:0:
239,166,31581,1,0,0:0:0:0:
239,166,31753,6,0,P|265:123|302:90,1,100,0|8,0:0|0:0,0:0:0:0:
351,95,32267,1,0,0:0:0:0:
351,95,32438,2,0,P|385:132|427:159,1,100,8|8,0:0|0:0,0:0:0:0:
406,257,33124,6,0,P|356:252|307:260,1,100,4|8,0:0|0:0,0:0:0:0:
217,304,33810,2,0,P|192:307|167:305,1,50
118,296,34152,1,8,0:0:0:0:
41,232,34495,6,0,P|33:183|38:134,1,100,0|8,0:0|0:0,0:0:0:0:
98,52,35181,2,0,P|122:48|147:50,1,50
196,61,35524,1,8,0:0:0:0:
267,130,35867,6,0,P|271:179|262:228,1,100,0|8,0:0|0:0,0:0:0:0:
320,310,36552,2,0,P|344:306|369:308,1,50
418,321,36895,1,8,0:0:0:0:
473,238,37238,6,0,P|481:189|476:140,1,100,0|8,0:0|0:0,0:0:0:0:
443,100,37752,2,0,P|393:108|344:104,1,100
296,87,38267,1,8,0:0:0:0:
204,45,38610,6,0,P|154:36|105:41,1,100,4|8,0:0|0:0,0:0:0:0:
36,114,39296,2,0,P|32:138|34:163,1,50
45,212,39638,1,8,0:0:0:0:
114,283,39981,6,0,P|163:288|212:279,1,100,0|8,0:0|0:0,0:0:0:0:
295,223,40667,2,0,P|297:198|293:173,1,50
279,125,41010,1,8,0:0:0:0:
340,46,41352,6,0,P|389:54|438:50,1,100,0|8,0:0|0:0,0:0:0:0:
493,134,42038,2,0,P|495:158|491:183,1,50
480,232,42381,1,8,0:0:0:0:
414,307,42724,5,0,0:0:0:0:
343,235,43067,1,8,0:0:0:0:
275,309,43410,1,8,0:0:0:0:
201,241,43752,1,8,0:0:0:0:
119,298,44095,6,0,P|102:249|111:198,1,100,4|8,0:0|0:0,0:0:0:0:
181,133,44781,2,0,P|183:108|179:83,1,50
157,38,45124,1,8,0:0:0:0:
255,21,45467,6,0,P|305:30|354:25,1,100,0|8,0:0|0:0,0:0:0:0:
447,59,46153,2,0,P|451:83|449:108,1,50
440,157,46496,1,8,0:0:0:0:
356,211,46838,6,0,P|306:215|257:206,1,100,0|8,0:0|0:0,0:0:0:0:
162,239,47524,2,0,P|157:263|159:288,1,50
160,338,47867,1,8,0:0:0:0:
259,349,48210,6,0,P|308:356|357:351,1,100,0|8,0:0|0:0,0:0:0:0:
402,328,48724,2,0,P|413:280|436:236,1,100
470,197,49239,1,8,0:0:0:0:
415,113,49581,6,0,P|365:104|316:109,1,100,4|8,0:0|0:0,0:0:0:0:
234,166,50267,2,0,P|209:169|184:164,1,50
140,141,50610,1,8,0:0:0:0:
58,199,50952,6,0,P|67:249|62:298,1,100,0|8,0:0|0:0,0:0:0:0:
149,346,51638,2,0,P|173:348|198:344,1,50
246,329,51981,1,8,0:0:0:0:
295,241,52324,6,0,P|304:191|299:142,1,100,0|8,0:0|0:0,0:0:0:0:
236,64,53010,2,0,P|211:66|186:62,1,50
137,54,53353,1,8,0:0:0:0:
48,100,53695,5,0,0:0:0:0:
115,174,54038,1,8,0:0:0:0:
29,225,54381,1,8,0:0:0:0:
88,305,54724,1,8,0:0:0:0:
172,251,55067,6,0,P|221:246|270:255,1,100,4|8,0:0|0:0,0:0:0:0:
313,281,55581,1,0,0:0:0:0:
354,253,55752,2,0,P|345:203|350:154,1,100,0|8,0:0|0:0,0:0:0:0:
309,62,56438,6,0,P|259:71|210:66,1,100,0|8,0:0|0:0,0:0:0:0:
166,42,56952,1,0,0:0:0:0:
119,60,57124,2,0,P|128:110|123:159,1,100,0|8,0:0|0:0,0:0:0:0:
207,212,57810,6,0,P|256:203|305:208,1,100,0|8,0:0|0:0,0:0:0:0:
353,223,58324,1,0,0:0:0:0:
398,243,58495,2,0,P|447:251|496:246,1,100,0|8,0:0|0:0,0:0:0:0:
494,146,59181,6,0,P|445:142|396:151,1,100,4|8,0:0|0:0,0:0:0:0:
351,127,59695,2,0,P|301:131|252:122,1,100,4|0,0:0|0:0,0:0:0:0:
203,133,60210,1,8,0:0:0:0:
180,230,60552,6,0,P|189:280|184:329,1,100,4|8,0:0|0:0,0:0:0:0:
144,359,61066,1,0,0:0:0:0:
94,350,61238,2,0,P|85:300|90:251,1,100,0|8,0:0|0:0,0:0:0:0:
139,164,61924,6,0,P|148:114|143:65,1,100,0|8,0:0|0:0,0:0:0:0:
110,27,62438,1,0,0:0:0:0:
157,11,62609,2,0,P|206:15|255:6,1,100,0|8,0:0|0:0,0:0:0:0:
350,38,63295,6,0,L|370:199,1,150,4|4,0:0|0:0,0:0:0:0:
386,285,64152,1,0,0:0:0:0:
351,321,64324,2,0,L|303:331,1,50,8|8,0:0|0:0,0:0:0:0:
256,310,64667,6,0,L|231:154,1,150,4|4,0:0|0:0,0:0:0:0:
218,62,65524,2,0,L|270:60,2,50,8|8|4,0:3|0:3|0:3,0:3:0:0:
169,49,66038,5,4,0:0:0:0:
459,324,67410,1,4,0:0:0:0:
60,354,68781,1,4,0:3:0:0:
159,46,71181,1,8,0:0:0:0:
159,46,71524,6,0,P|154:95|163:144,1,100,4|8,0:0|0:0,0:0:0:0:
251,192,72210,2,0,P|254:216|250:241,1,50
241,290,72553,1,8,0:0:0:0:
340,288,72895,6,0,P|349:238|344:189,1,100,0|8,0:0|0:0,0:0:0:0:
319,91,73581,2,0,P|343:88|368:92,1,50
412,115,73924,1,8,0:0:0:0:
345,189,74267,6,0,P|295:180|246:185,1,100,0|8,0:0|0:0,0:0:0:0:
168,247,74953,2,0,P|144:250|119:246,1,50
75,220,75296,1,8,0:0:0:0:
151,155,75638,5,8,0:0:0:0:
246,185,75981,1,8,0:0:0:0:
285,93,76324,1,8,0:0:0:0:
378,129,76667,1,8,0:0:0:0:
387,228,77010,6,0,P|382:277|391:326,1,100,4|12,0:0|0:0,0:0:0:0:
295,295,77696,2,0,P|270:290|245:293,1,50
202,318,78039,1,8,0:0:0:0:
130,248,78381,6,0,P|139:198|134:149,1,100,0|8,0:0|0:0,0:0:0:0:
106,52,79067,2,0,P|130:49|155:53,1,50
194,83,79410,1,8,0:0:0:0:
263,154,79752,6,0,P|313:163|362:158,1,100,0|8,0:0|0:0,0:0:0:0:
459,134,80438,2,0,P|462:158|458:183,1,50
446,232,80781,1,8,0:0:0:0:
369,296,81124,6,0,P|320:282|277:258,1,100,0|8,0:0|0:0,0:0:0:0:
246,218,81638,2,0,P|202:194|154:181,1,100
105,192,82153,1,8,0:0:0:0:
80,288,82495,6,0,P|128:297|177:292,1,100,4|8,0:0|0:0,0:0:0:0:
247,219,83181,2,0,P|251:194|248:169,1,50
237,120,83524,1,8,0:0:0:0:
336,106,83867,6,0,P|345:156|340:205,1,100,0|8,0:0|0:0,0:0:0:0:
343,304,84553,2,0,P|367:307|392:303,1,50
441,293,84896,1,8,0:0:0:0:
492,207,85238,6,0,P|493:156|480:108,1,100,0|8,0:0|0:0,0:0:0:0:
400,47,85924,2,0,P|375:42|350:45,1,50
308,71,86267,1,8,0:0:0:0:
209,53,86610,5,8,0:0:0:0:
231,150,86952,1,8,0:0:0:0:
141,194,87295,1,8,0:0:0:0:
177,287,87638,1,4,0:3:0:0:
269,249,87981,5,4,0:0:0:0:
256,192,88152,12,0,92095,0:0:0:0:
