osu file format v14

[General]
AudioFilename: audio.mp3
AudioLeadIn: 0
PreviewTime: 33124
Countdown: 0
SampleSet: Soft
StackLeniency: 0.7
Mode: 0
LetterboxInBreaks: 0
WidescreenStoryboard: 1

[Editor]
Bookmarks: 11181,22152,31067,33124,44095,55067,66038,77010
DistanceSpacing: 1.5
BeatDivisor: 4
GridSize: 8
TimelineZoom: 1

[Metadata]
Title:Non stop road (TV size)
TitleUnicode:Non stop road(TV size)
Artist:sphere
ArtistUnicode:スフィア
Creator:- G I D Z -
Version:Gidzia's Hard
Source:夏色キセキ
Tags:Natsuiro Kiseki tv size anime opening Rizia gidz 寿 美菜子 Minako Kotobuki 高垣彩陽 Ayahi Takagaki 戸松 遥 Haruka Tomatsu 豊崎愛生 Aki Toyosaki
BeatmapID:1157990
BeatmapSetID:546703

[Difficulty]
HPDrainRate:6
CircleSize:4
OverallDifficulty:6
ApproachRate:7
SliderMultiplier:1.4
SliderTickRate:1

[Events]
//Background and Video events
0,0,"BG.jpg",0,0
//Break Periods
//Storyboard Layer 0 (Background)
//Storyboard Layer 1 (Fail)
//Storyboard Layer 2 (Pass)
//Storyboard Layer 3 (Foreground)
//Storyboard Sound Samples

[TimingPoints]
210,342.857142857143,4,2,1,50,1,0
210,-133.333333333333,4,2,1,50,0,0
5695,-100,4,2,1,50,0,0
11181,-133.333333333333,4,2,1,50,0,0
30381,-100,4,2,1,50,0,0
33124,-100,4,2,1,70,0,1
66038,-100,4,2,1,50,0,0
71524,-100,4,2,1,70,0,1
87981,-100,4,2,1,70,0,0
92095,-100,4,2,1,5,0,0

[Colours]
Combo1 : 133,208,85
Combo2 : 72,107,156
Combo3 : 237,184,97

[HitObjects]
125,103,210,5,2,0:0:0:0:
125,103,724,2,0,P|128:131|131:168,1,52.5000020027161,0|0,0:0|0:0,0:0:0:0:
98,233,1067,2,0,P|136:242|216:239,1,105.000004005432,0|0,0:0|0:0,0:0:0:0:
292,211,1581,2,0,P|320:253|308:366,2,157.500006008148,2|0|0,0:0|0:0|0:0,0:0:0:0:
195,123,2952,5,2,0:0:0:0:
195,123,3467,2,0,P|201:84|206:57,1,52.5000020027161,0|0,0:0|0:0,0:0:0:0:
291,59,3810,2,0,P|281:110|273:162,1,105.000004005432,0|0,0:0|0:0,0:0:0:0:
299,248,4324,2,0,P|343:214|456:224,2,157.500006008148,2|0|0,0:0|0:0|0:0,0:0:0:0:
194,354,5695,6,0,L|34:343,1,140,4|0,0:0|0:0,0:0:0:0:
27,256,6210,2,0,L|166:265,1,140,0|0,0:0|0:0,0:0:0:0:
250,228,6724,1,0,0:0:0:0:
312,57,7067,6,0,P|284:27|162:33,1,140,4|0,0:0|0:0,0:0:0:0:
161,102,7581,2,0,P|189:132|311:126,1,140,0|0,0:0|0:0,0:0:0:0:
373,127,8095,1,0,0:0:0:0:
477,276,8438,6,0,B|453:317|453:317|338:334,1,140,4|0,0:0|0:0,0:0:0:0:
272,350,8952,2,0,P|259:270|251:181,1,140,0|0,0:0|0:0,0:0:0:0:
260,119,9467,1,0,0:0:0:0:
454,40,9810,6,0,P|467:120|475:209,1,140,4|0,0:0|0:0,0:0:0:0:
405,366,10495,1,0,0:0:0:0:
318,335,10667,1,0,0:0:0:0:
240,382,10838,1,8,0:0:0:0:
76,287,11181,6,0,P|129:284|196:270,1,105.000004005432,4|0,0:0|0:0,0:0:0:0:
255,252,11695,1,0,0:0:0:0:
306,191,11867,2,0,P|311:163|307:118,1,52.5000020027161,2|0,0:0|0:0,0:0:0:0:
387,158,12210,2,0,P|382:186|386:231,1,52.5000020027161,0|0,0:0|0:0,0:0:0:0:
453,242,12552,6,0,P|462:164|451:84,2,157.500006008148,2|0|0,0:0|0:0|0:0,0:0:0:0:
387,286,13752,1,0,0:0:0:0:
311,261,13924,2,0,P|284:260|259:265,1,52.5000020027161,2|0,0:0|0:0,0:0:0:0:
210,328,14267,2,0,P|183:328|158:323,1,52.5000020027161,0|0,0:0|0:0,0:0:0:0:
96,273,14610,2,0,P|93:220|79:153,1,105.000004005432
202,66,15295,6,0,P|205:119|219:186,1,105.000004005432,2|0,0:0|0:0,0:0:0:0:
272,239,15810,1,0,0:0:0:0:
272,239,15895,1,0,0:0:0:0:
272,239,15981,2,0,P|304:240|339:236,1,52.5000020027161,2|0,0:0|0:0,0:0:0:0:
397,262,16324,2,0,P|399:236|398:210,1,52.5000020027161,2|0,0:0|0:0,0:0:0:0:
462,164,16667,6,0,P|472:241|462:320,2,157.500006008148,4|0|0,0:0|0:0|0:0,0:0:0:0:
347,55,18038,2,0,P|269:46|189:57,2,157.500006008148,2|0|0,0:0|0:0|0:0,0:0:0:0:
349,213,19410,6,0,P|322:213|297:208,1,52.5000020027161,2|0,0:0|0:0,0:0:0:0:
228,170,19752,2,0,P|201:169|176:174,1,52.5000020027161,2|0,0:0|0:0,0:0:0:0:
111,219,20095,2,0,P|102:194|99:168,1,52.5000020027161,2|0,0:0|0:0,0:0:0:0:
98,89,20438,2,0,P|123:93|149:93,1,52.5000020027161,2|0,0:0|0:0,0:0:0:0:
220,56,20781,5,2,0:0:0:0:
285,98,20952,1,0,0:0:0:0:
351,54,21124,1,8,0:0:0:0:
425,78,21295,2,0,L|452:52,2,26.2500010013581,0|0|8,0:0|0:0|0:3,0:0:0:0:
387,147,21638,1,8,0:3:0:0:
455,185,21810,2,0,P|459:210|459:236,1,52.5000020027161,8|4,0:3|0:3,0:0:0:0:
429,309,22152,6,0,P|375:317|310:323,1,105.000004005432,4|0,0:0|0:0,0:0:0:0:
198,226,22838,2,0,P|252:234|317:240,1,105.000004005432,8|0,0:0|0:0,0:0:0:0:
388,106,23524,6,0,P|384:55|383:38,2,52.5000020027161,0|0|0,0:0|0:0|0:0,0:0:0:0:
308,77,24038,2,0,P|254:69|189:63,1,105.000004005432,4|0,0:3|0:0,0:0:0:0:
126,80,24552,1,8,0:0:0:0:
28,203,24895,6,0,P|20:242|62:313,1,105.000004005432,0|0,0:0|0:0,0:0:0:0:
197,342,25581,2,0,P|205:303|163:232,1,105.000004005432,8|0,0:0|0:0,0:0:0:0:
250,104,26267,2,0,L|368:118,1,105.000004005432,0|0,0:0|0:0,0:0:0:0:
432,104,26781,2,0,L|442:166,1,52.5000020027161,8|8,0:3|0:3,0:0:0:0:
491,216,27124,2,0,L|481:278,1,52.5000020027161,4|8,0:3|0:0,0:0:0:0:
353,357,27638,5,4,0:0:0:0:
228,260,27981,2,0,P|213:214|227:142,2,105.000004005432,0|0|8,0:0|0:0|0:0,0:0:0:0:
353,357,29010,2,0,L|481:343,1,105.000004005432,0|0,0:0|0:0,0:0:0:0:
480,270,29524,1,0,0:0:0:0:
480,270,29695,2,0,L|375:281,1,105.000004005432,0|8,0:0|0:0,0:0:0:0:
173,341,30381,6,0,P|126:348|20:293,1,140,4|8,0:0|0:0,0:0:0:0:
17,234,30895,1,0,0:0:0:0:
70,169,31067,2,0,P|117:162|223:217,1,140,0|8,0:0|0:0,0:0:0:0:
263,251,31581,1,0,0:0:0:0:
323,192,31752,6,0,L|338:49,1,140,0|8,0:0|0:0,0:0:0:0:
416,20,32267,1,0,0:0:0:0:
477,76,32438,2,0,P|489:108|482:167,1,70,8|0,0:0|0:0,0:0:0:0:
505,226,32781,2,0,P|490:257|444:293,1,70,8|8,0:0|0:0,0:0:0:0:
382,264,33124,6,0,P|324:235|243:237,1,140,4|8,0:0|0:0,0:0:0:0:
171,264,33638,1,0,0:0:0:0:
89,241,33810,2,0,P|87:275|102:314,2,70,2|0|8,0:0|0:0|0:0,0:0:0:0:
110,159,34324,1,0,0:0:0:0:
193,168,34495,6,0,P|222:110|220:29,1,140,2|8,0:0|0:0,0:0:0:0:
306,37,35010,2,0,P|304:106|334:168,1,140,2|0,0:0|0:0,0:0:0:0:
406,214,35524,2,0,P|417:181|415:146,1,70,8|0,0:0|0:0,0:0:0:0:
499,139,35867,6,0,P|500:208|470:270,1,140,2|8,0:0|0:0,0:0:0:0:
387,289,36381,2,0,P|317:287|255:317,1,140,2|0,0:0|0:0,0:0:0:0:
184,364,36895,2,0,P|172:331|174:296,1,70,8|0,0:0|0:0,0:0:0:0:
237,240,37238,6,0,P|267:177|265:108,1,140,2|8,0:0|0:0,0:0:0:0:
211,43,37752,2,0,P|141:44|79:14,1,140,2|0,0:0|0:0,0:0:0:0:
35,86,38266,2,0,P|33:120|44:153,1,70,8|0,0:0|0:0,0:0:0:0:
93,222,38610,5,4,0:0:0:0:
147,158,38781,1,0,0:0:0:0:
182,234,38952,2,0,P|208:256|241:267,1,70,8|0,0:0|0:0,0:0:0:0:
323,246,39295,2,2,P|324:280|313:313,2,70,2|0|8,0:0|0:0|0:0,0:0:0:0:
279,173,39810,1,0,0:0:0:0:
362,165,39981,6,0,P|402:221|413:289,1,140,2|8,0:0|0:0,0:0:0:0:
492,260,40495,2,0,P|480:191|440:135,1,140,2|0,0:0|0:0,0:0:0:0:
373,82,41010,2,0,P|338:88|304:80,1,70,8|0,0:0|0:0,0:0:0:0:
237,31,41352,6,0,P|168:20|102:41,1,140,2|8,0:0|0:0,0:0:0:0:
52,202,42038,2,0,L|68:293,1,70,2|0,0:0|0:0,0:0:0:0:
113,338,42381,1,8,0:0:0:0:
113,338,42552,1,0,0:0:0:0:
176,282,42724,6,0,P|209:271|243:273,1,70,2|0,0:0|0:0,0:0:0:0:
324,298,43067,2,0,P|326:263|315:230,1,70,8|0,0:0|0:0,0:0:0:0:
273,157,43410,2,0,P|306:146|340:148,1,70,8|0,0:0|0:0,0:0:0:0:
421,172,43752,2,0,P|423:137|412:104,1,70,8|0,0:0|0:0,0:0:0:0:
371,30,44095,6,0,L|221:41,1,140,4|8,0:0|0:0,0:0:0:0:
94,138,44781,2,0,P|86:182|78:234,1,70,2|0,0:0|0:0,0:0:0:0:
86,291,45124,1,8,0:0:0:0:
86,291,45295,1,0,0:0:0:0:
145,350,45467,6,0,P|192:371|290:359,1,140,2|8,0:0|0:0,0:0:0:0:
349,319,45981,2,0,P|370:272|358:174,1,140,2|0,0:0|0:0,0:0:0:0:
312,118,46495,2,0,L|217:128,1,70,8|0,0:0|0:0,0:0:0:0:
160,107,46838,6,0,P|155:65|173:18,2,70,2|0|8,0:0|0:0|0:0,0:0:0:0:
102,168,47352,2,0,P|108:227|69:307,1,140,2|0,0:0|0:0,0:0:0:0:
4,344,47867,2,0,L|172:360,1,140,8|2,0:0|0:0,0:0:0:0:
227,366,48381,5,0,0:0:0:0:
304,334,48552,1,8,0:0:0:0:
380,369,48724,2,0,P|411:326|400:226,1,140,2|0,0:0|0:0,0:0:0:0:
358,173,49238,1,8,0:0:0:0:
443,28,49581,5,4,0:0:0:0:
281,75,49924,1,8,0:0:0:0:
281,75,50095,2,0,B|216:88|216:88|111:75,1,140,2|0,0:0|0:0,0:0:0:0:
60,59,50610,2,0,L|50:144,1,70,8|0,0:0|0:0,0:0:0:0:
35,210,50952,6,0,P|101:202|194:197,1,140,2|8,0:0|0:0,0:0:0:0:
257,182,51467,2,0,P|326:190|396:194,1,140,2|0,0:0|0:0,0:0:0:0:
479,210,51981,1,8,0:0:0:0:
413,364,52324,5,0,0:0:0:0:
258,297,52667,1,8,0:0:0:0:
258,297,52838,1,0,0:0:0:0:
189,346,53010,2,0,L|103:360,1,70,2|0,0:0|0:0,0:0:0:0:
39,332,53352,2,0,L|58:246,1,70,8|0,0:0|0:0,0:0:0:0:
102,194,53695,6,0,P|98:141|36:53,2,140,2|8|8,0:0|0:0|0:0,0:0:0:0:
142,267,54552,2,0,L|203:266,5,35,8|8|8|8|8|8,0:0|0:0|0:0|0:0|0:0|0:0,0:0:0:0:
219,266,55067,6,0,P|284:244|334:195,1,140,4|8,0:0|0:0,0:0:0:0:
344,111,55581,1,0,0:0:0:0:
426,124,55752,2,0,P|466:180|478:248,1,140,2|8,0:0|0:0,0:0:0:0:
440,324,56267,1,0,0:0:0:0:
361,353,56438,6,0,L|277:343,1,70,2|0,0:0|0:0,0:0:0:0:
209,325,56781,1,8,0:0:0:0:
209,325,56952,1,0,0:0:0:0:
145,269,57124,2,0,P|169:203|219:156,1,140,2|8,0:0|0:0,0:0:0:0:
298,127,57638,1,0,0:0:0:0:
349,60,57810,6,0,P|293:18|224:6,1,140,2|8,0:0|0:0,0:0:0:0:
149,43,58324,1,0,0:0:0:0:
65,47,58495,2,0,P|26:104|18:173,1,140,2|8,0:0|0:0,0:0:0:0:
59,247,59010,1,0,0:0:0:0:
59,247,59095,1,0,0:0:0:0:
59,247,59181,6,0,L|136:271,1,70,2|0,0:0|0:0,0:0:0:0:
207,290,59524,1,8,0:0:0:0:
285,260,59695,1,2,0:0:0:0:
351,312,59867,2,0,L|375:235,1,70,0|0,0:0|0:0,0:0:0:0:
397,164,60210,1,8,0:0:0:0:
486,185,60381,1,0,0:0:0:0:
486,185,60467,1,8,0:0:0:0:
486,185,60552,6,0,P|482:114|421:71,1,140,4|8,0:0|0:0,0:0:0:0:
347,81,61067,1,0,0:0:0:0:
298,149,61238,2,0,P|235:175|175:143,1,140,2|8,0:0|0:0,0:0:0:0:
121,79,61752,1,0,0:0:0:0:
59,136,61924,6,0,L|65:224,1,70,2|0,0:0|0:0,0:0:0:0:
77,288,62267,1,8,0:0:0:0:
77,288,62438,1,0,0:0:0:0:
157,311,62610,2,0,P|221:284|267:232,1,140,2|8,0:0|0:0,0:0:0:0:
286,156,63124,1,8,0:0:0:0:
286,156,63210,1,8,0:0:0:0:
286,156,63295,6,0,P|350:180|419:174,1,140,4|8,0:0|0:0,0:0:0:0:
494,133,63810,2,0,P|443:180|419:245,1,140,4|0,0:0|0:0,0:0:0:0:
379,319,64324,2,0,L|335:315,3,35,8|8|8|8,0:0|0:0|0:0|0:0,0:0:0:0:
302,312,64667,2,0,L|159:302,1,140,4|8,0:0|0:0,0:0:0:0:
146,219,65181,2,0,L|285:228,1,140,4|8,0:0|0:3,0:0:0:0:
369,236,65695,1,8,0:3:0:0:
336,158,65867,1,8,0:3:0:0:
418,170,66038,5,4,0:0:0:0:
323,30,66381,1,0,0:0:0:0:
244,60,66552,2,0,L|180:54,2,35,0|0|8,0:0|0:0|0:0,0:0:0:0:
176,149,66952,2,0,L|43:139,1,93.3333333333333,8|4,0:3|0:3,0:0:0:0:
31,242,67410,6,0,P|56:287|159:282,1,140,4|0,0:0|0:0,0:0:0:0:
219,277,67924,2,0,P|286:277|325:332,1,140,12|0,0:3|0:0,0:0:0:0:
396,378,68438,1,12,0:3:0:0:
396,378,68610,1,12,0:3:0:0:
470,338,68781,6,0,L|482:247,1,70,8|8,0:0|0:0,0:0:0:0:
424,42,70324,6,0,L|347:52,1,70,4|4,0:3|0:3,0:0:0:0:
264,64,70667,1,4,0:3:0:0:
183,22,70838,5,8,0:0:0:0:
97,53,71010,1,8,0:0:0:0:
69,139,71181,1,8,0:0:0:0:
91,226,71352,1,8,0:0:0:0:
146,298,71524,6,0,P|192:323|288:318,1,140,4|8,0:0|0:0,0:0:0:0:
352,361,72038,2,0,P|405:343|452:259,1,140,2|0,0:0|0:0,0:0:0:0:
432,192,72552,2,0,P|430:157|446:109,1,70,8|0,0:0|0:0,0:0:0:0:
479,49,72895,6,0,P|416:37|317:31,1,140,2|8,0:0|0:0,0:0:0:0:
286,96,73410,2,0,P|216:90|147:78,1,140,2|0,0:0|0:0,0:0:0:0:
86,20,73924,1,8,0:0:0:0:
14,171,74267,6,0,P|-3:227|6:324,2,140,2|8|0,0:0|0:0|0:0,0:0:0:0:
82,122,75124,1,0,0:0:0:0:
138,183,75295,2,0,P|180:196|235:197,1,70,8|0,0:0|0:0,0:0:0:0:
286,175,75638,6,0,P|299:133|300:78,1,70,8|0,0:0|0:0,0:0:0:0:
386,109,75981,2,0,P|376:66|349:17,1,70,8|0,0:0|0:0,0:0:0:0:
382,201,76324,2,0,P|424:191|473:164,1,70,8|8,0:0|0:0,0:0:0:0:
506,296,76667,2,0,P|473:282|439:275,1,70,8|0,0:0|0:0,0:0:0:0:
361,306,77010,6,0,P|293:324|224:318,1,140,4|12,0:0|0:0,0:0:0:0:
144,291,77524,1,0,0:0:0:0:
149,207,77695,2,0,P|139:164|112:115,1,70,2|0,0:0|0:0,0:0:0:0:
51,106,78038,1,8,0:0:0:0:
51,106,78210,1,0,0:0:0:0:
109,46,78381,6,0,P|178:51|245:33,1,140,2|8,0:0|0:0,0:0:0:0:
317,76,78895,2,0,P|311:145|329:212,1,140,2|0,0:0|0:0,0:0:0:0:
387,274,79410,1,8,0:0:0:0:
228,329,79752,6,0,P|160:347|91:341,1,140,2|8,0:0|0:0,0:0:0:0:
83,257,80267,2,0,P|150:238|219:244,1,140,2|0,0:0|0:0,0:0:0:0:
297,276,80781,1,8,0:0:0:0:
433,178,81124,6,0,P|438:108|420:41,2,140,2|8|0,0:0|0:0|0:0,0:0:0:0:
373,237,81981,1,0,0:0:0:0:
294,208,82152,2,0,P|280:175|273:141,1,70,8|0,0:0|0:0,0:0:0:0:
290,58,82495,6,0,P|220:52|153:70,1,140,4|8,0:0|0:0,0:0:0:0:
43,198,83181,1,2,0:0:0:0:
43,198,83352,2,0,L|47:281,1,70,0|8,0:0|0:0,0:0:0:0:
96,335,83695,1,0,0:0:0:0:
173,367,83867,6,0,P|242:372|309:354,1,140,2|8,0:0|0:0,0:0:0:0:
354,282,84381,2,0,P|359:212|341:145,1,140,2|0,0:0|0:0,0:0:0:0:
276,91,84895,1,8,0:0:0:0:
156,209,85238,6,0,P|137:141|143:72,1,140,2|8,0:0|0:0,0:0:0:0:
202,13,85752,1,0,0:0:0:0:
266,67,85924,1,2,0:0:0:0:
266,67,86095,1,0,0:0:0:0:
335,19,86267,2,0,P|369:24|402:35,1,70,8|0,0:0|0:0,0:0:0:0:
446,107,86610,6,0,P|438:141|425:173,1,70,10|0,0:0|0:0,0:0:0:0:
388,248,86952,1,8,0:0:0:0:
316,293,87124,2,0,L|330:337,2,35,8|8|8,0:0|0:0|0:0,0:0:0:0:
287,213,87467,1,8,0:3:0:0:
205,233,87638,1,8,0:3:0:0:
229,313,87810,1,4,0:3:0:0:
146,297,87981,5,4,0:0:0:0:
256,192,88152,12,0,92095,0:0:0:0:
