osu file format v14

[General]
AudioFilename: audio.mp3
AudioLeadIn: 0
PreviewTime: 33124
Countdown: 0
SampleSet: Soft
StackLeniency: 0.7
Mode: 0
LetterboxInBreaks: 0
WidescreenStoryboard: 1

[Editor]
Bookmarks: 57124
DistanceSpacing: 1.2
BeatDivisor: 4
GridSize: 8
TimelineZoom: 1.6

[Metadata]
Title:Non stop road (TV size)
TitleUnicode:Non stop road(TV size)
Artist:sphere
ArtistUnicode:スフィア
Creator:- G I D Z -
Version:Insane
Source:夏色キセキ
Tags:Natsuiro Kiseki tv size anime opening Rizia gidz 寿 美菜子 Minako Kotobuki 高垣彩陽 Ayahi Takagaki 戸松 遥 Haruka Tomatsu 豊崎愛生 Aki Toyosaki
BeatmapID:1157991
BeatmapSetID:546703

[Difficulty]
HPDrainRate:7
CircleSize:4
OverallDifficulty:7
ApproachRate:8
SliderMultiplier:1.5
SliderTickRate:1

[Events]
//Background and Video events
0,0,"BG.jpg",0,0
//Break Periods
//Storyboard Layer 0 (Background)
//Storyboard Layer 1 (Fail)
//Storyboard Layer 2 (Pass)
//Storyboard Layer 3 (Foreground)
//Storyboard Sound Samples

[TimingPoints]
210,342.857142857143,4,2,1,50,1,0
210,-133.333333333333,4,2,1,50,0,0
5695,-100,4,2,1,50,0,0
9810,-166.666666666667,4,2,1,50,0,0
11181,-133.333333333333,4,2,1,50,0,0
30381,-100,4,2,1,50,0,0
33124,-100,4,2,1,70,0,1
66038,-100,4,2,1,50,0,0
71524,-100,4,2,1,70,0,1
87981,-100,4,2,1,70,0,0
92095,-100,4,2,1,5,0,0

[Colours]
Combo1 : 133,208,85
Combo2 : 72,107,156
Combo3 : 237,184,97

[HitObjects]
50,165,210,6,0,P|53:137|65:111,2,56.2500021457673,2|0|0,0:0|0:0|0:0,0:0:0:0:
100,231,724,2,0,L|225:225,1,112.500004291535
280,185,1238,1,0,0:0:0:0:
150,307,1581,6,0,P|229:327|301:277,2,168.750006437302,2|0|0,0:0|0:0|0:0,0:0:0:0:
212,225,2952,2,0,P|199:167|167:118,1,112.500004291535,2|0,0:0|0:0,0:0:0:0:
102,80,3467,2,0,P|105:52|117:26,2,56.2500021457673
102,80,4324,6,0,P|182:98|255:49,1,168.750006437302,2|0,0:0|0:0,0:0:0:0:
251,53,5352,1,0,0:0:0:0:
367,247,5695,6,0,B|382:180|382:180|381:95|381:95|398:15,2,225,4|0|0,0:0|0:0|0:0,0:0:0:0:
196,126,7067,2,0,B|210:196|210:196|208:281|208:281|224:347,2,225,4|0|0,0:0|0:0|0:0,0:0:0:0:
55,278,8438,2,0,B|70:211|70:211|69:126|69:126|86:46,2,225,4|0|0,0:0|0:0|0:0,0:0:0:0:
385,312,9810,6,0,L|318:92,1,224.999993133545,4|0,0:0|0:0,0:0:0:0:
456,128,10838,1,8,0:0:0:0:
225,208,11181,6,0,P|191:198|157:174,1,56.2500021457673,4|0,0:0|0:0,0:0:0:0:
174,44,11524,2,0,P|164:78|140:112,1,56.2500021457673,2|0,0:0|0:0,0:0:0:0:
29,111,11867,2,0,P|63:121|97:145,1,56.2500021457673,2|0,0:0|0:0,0:0:0:0:
72,263,12210,2,0,P|82:229|106:195,1,56.2500021457673,2|0,0:0|0:0,0:0:0:0:
180,291,12552,6,0,P|204:304|231:311,1,56.2500021457673,2|0,0:0|0:0,0:0:0:0:
322,255,12895,2,0,P|297:241|270:234,1,56.2500021457673,2|0,0:0|0:0,0:0:0:0:
308,333,13238,2,0,P|332:346|359:353,1,56.2500021457673,2|0,0:0|0:0,0:0:0:0:
456,307,13581,2,0,P|431:293|404:286,1,56.2500021457673,2|0,0:0|0:0,0:0:0:0:
322,254,13924,6,0,P|329:198|317:121,1,112.500004291535,2|0,0:0|0:0,0:0:0:0:
273,65,14438,1,0,0:0:0:0:
203,124,14610,2,0,P|175:116|151:103,1,56.2500021457673,2|0,0:0|0:0,0:0:0:0:
80,44,14952,2,0,P|66:68|59:95,1,56.2500021457673,2|0,0:0|0:0,0:0:0:0:
113,284,15295,6,0,P|120:228|108:151,1,112.500004291535,2|0,0:0|0:0,0:0:0:0:
37,179,15810,1,0,0:0:0:0:
37,179,15895,1,0,0:0:0:0:
37,179,15981,1,2,0:0:0:0:
100,300,16152,1,2,0:0:0:0:
203,210,16324,2,0,P|249:204|298:212,1,84.3750032186509,2|0,3:0|0:0,0:0:0:0:
328,219,16667,6,0,P|345:139|324:44,2,168.750006437302,4|0|0,0:0|0:0|0:0,0:0:0:0:
246,347,18038,2,0,P|326:364|421:343,2,168.750006437302,2|0|0,0:0|0:0|0:0,0:0:0:0:
201,265,19238,1,0,0:0:0:0:
328,219,19410,6,0,P|341:186|344:144,1,56.2500021457673,2|0,0:0|0:0,0:0:0:0:
232,75,19753,2,0,P|264:88|306:91,1,56.2500021457673,2|0,0:0|0:0,0:0:0:0:
375,4,20096,2,0,P|361:36|358:78,1,56.2500021457673,2|0,0:0|0:0,0:0:0:0:
414,131,20438,1,2,0:0:0:0:
265,165,20610,1,0,0:0:0:0:
437,125,20781,6,0,P|443:180|437:236,1,112.500004291535,2|8,0:0|0:0,0:0:0:0:
385,314,21296,1,0,0:0:0:0:
385,314,21381,1,0,0:0:0:0:
385,314,21467,1,8,0:3:0:0:
274,214,21638,1,8,0:3:0:0:
239,345,21810,1,8,0:3:0:0:
358,231,21981,1,4,0:3:0:0:
202,267,22152,6,0,P|146:257|95:235,1,112.500004291535,4|0,0:0|0:0,0:0:0:0:
176,49,22838,2,0,P|231:58|282:80,1,112.500004291535,8|0,0:0|0:0,0:0:0:0:
328,155,23352,1,0,0:0:0:0:
431,206,23524,6,0,L|430:89,1,112.500004291535
328,155,24038,1,4,0:3:0:0:
377,269,24210,2,0,P|401:283|428:290,1,56.2500021457673
430,93,24552,1,8,0:0:0:0:
430,93,24895,6,0,P|389:53|341:25,1,112.500004291535
186,180,25581,2,0,P|226:219|274:247,1,112.500004291535,8|0,0:0|0:0,0:0:0:0:
361,233,26095,1,0,0:0:0:0:
448,161,26267,6,0,L|448:273,1,112.500004291535
361,233,26781,1,8,0:3:0:0:
449,89,26952,1,8,0:3:0:0:
352,133,27124,1,4,0:3:0:0:
448,273,27295,1,8,0:0:0:0:
448,273,27638,6,0,P|405:318|356:328,1,112.500004291535,4|0,0:0|0:0,0:0:0:0:
143,275,28324,2,0,P|156:243|159:201,1,56.2500021457673
68,317,28667,1,8,0:0:0:0:
208,156,29010,5,0,0:0:0:0:
28,209,29352,2,0,P|54:220|82:225,1,56.2500021457673
208,156,29695,2,0,P|182:145|154:140,1,56.2500021457673
230,36,30038,1,8,0:0:0:0:
230,36,30381,6,0,B|305:53|305:53|384:32,1,150,4|0,0:0|0:0,0:0:0:0:
456,17,30895,1,0,0:0:0:0:
456,17,31067,2,0,L|458:178,1,150,2|8,0:0|0:0,0:0:0:0:
422,253,31581,1,0,0:0:0:0:
498,301,31752,6,0,B|423:284|423:284|352:302,1,150,2|8,0:0|0:0,0:0:0:0:
286,356,32267,1,0,0:0:0:0:
229,221,32438,1,8,0:0:0:0:
167,326,32610,1,0,0:0:0:0:
115,230,32781,2,8,L|122:186,3,37.5
140,169,33124,6,0,P|160:137|161:86,1,75,4|0,0:0|0:0,0:0:0:0:
105,43,33467,1,8,0:0:0:0:
63,129,33638,1,0,0:0:0:0:
207,207,33810,2,0,P|244:209|278:196,1,75,2|0,0:0|0:0,0:0:0:0:
334,119,34152,1,8,0:0:0:0:
232,134,34324,1,0,0:0:0:0:
334,119,34495,6,0,P|371:175|345:264,1,150,2|8,0:0|0:0,0:0:0:0:
277,294,35010,1,0,0:0:0:0:
441,286,35181,2,0,P|461:250|463:215,1,75,2|0,0:0|0:0,0:0:0:0:
437,131,35524,1,8,0:0:0:0:
437,131,35695,1,0,0:0:0:0:
221,231,35867,6,0,P|292:213|354:252,1,150,2|8,0:0|0:0,0:0:0:0:
147,286,36381,2,0,P|129:214|168:152,1,150,2|0,0:0|0:0,0:0:0:0:
271,136,36895,1,10,0:0:0:0:
199,72,37067,1,0,0:0:0:0:
327,69,37238,6,0,P|398:86|460:47,1,150,2|8,0:0|0:0,0:0:0:0:
463,148,37752,1,0,0:0:0:0:
359,203,37924,2,0,P|359:240|375:273,1,75,2|0,0:0|0:0,0:0:0:0:
450,342,38267,1,8,0:0:0:0:
450,342,38438,1,0,0:0:0:0:
280,264,38610,6,0,P|208:246|146:285,1,150,4|8,0:0|0:0,0:0:0:0:
171,365,39124,1,0,0:0:0:0:
49,231,39295,2,0,P|45:193|58:159,1,75,2|0,0:0|0:0,0:0:0:0:
144,126,39638,1,8,0:0:0:0:
77,64,39810,1,0,0:0:0:0:
144,126,39981,6,0,P|215:143|277:104,1,150,2|8,0:0|0:0,0:0:0:0:
319,28,40495,2,0,P|357:90|340:161,1,150,2|0,0:0|0:0,0:0:0:0:
272,214,41010,1,8,0:0:0:0:
272,214,41181,1,0,0:0:0:0:
389,294,41352,6,0,P|351:290|317:303,1,75,2|0,0:0|0:0,0:0:0:0:
259,364,41695,1,8,0:0:0:0:
462,351,41867,2,0,P|479:279|440:217,1,150
356,185,42381,1,8,0:0:0:0:
435,143,42552,1,0,0:0:0:0:
242,139,42724,6,0,P|238:101|251:67,1,75,2|0,0:0|0:0,0:0:0:0:
356,185,43067,2,0,P|369:219|365:256,1,75,8|0,0:0|0:0,0:0:0:0:
191,226,43410,2,0,P|228:222|262:235,1,75,8|0,0:0|0:0,0:0:0:0:
88,334,43752,2,8,L|58:311,3,37.5
34,294,44095,6,0,P|16:222|55:160,1,150,4|8,0:0|0:0,0:0:0:0:
146,141,44610,1,0,0:0:0:0:
280,249,44781,2,0,P|293:214|289:177,1,75,2|0,0:0|0:0,0:0:0:0:
245,74,45124,1,8,0:0:0:0:
343,104,45295,1,0,0:0:0:0:
245,74,45467,6,0,P|169:77|121:132,1,150,2|8,0:0|0:0,0:0:0:0:
100,217,45981,1,0,0:0:0:0:
252,158,46152,2,0,P|255:196|242:230,1,75
166,283,46495,1,8,0:0:0:0:
166,283,46667,1,0,0:0:0:0:
76,372,46838,6,0,P|138:333|209:350,1,150,2|8,0:0|0:0,0:0:0:0:
297,380,47352,2,0,P|343:323|336:250,1,150,2|0,0:0|0:0,0:0:0:0:
259,198,47867,1,8,0:0:0:0:
259,198,48038,1,0,0:0:0:0:
190,124,48210,6,0,P|252:163|323:146,1,150,2|8,0:0|0:0,0:0:0:0:
377,69,48724,2,0,P|416:131|399:202,1,150,2|0,0:0|0:0,0:0:0:0:
323,250,49238,1,8,0:0:0:0:
399,293,49410,1,0,0:0:0:0:
323,250,49581,6,0,P|249:244|195:293,1,150,4|8,0:0|0:0,0:0:0:0:
176,374,50095,1,0,0:0:0:0:
91,229,50267,2,0,P|88:191|102:157,1,75,2|0,0:0|0:0,0:0:0:0:
163,89,50610,1,8,0:0:0:0:
195,175,50781,1,0,0:0:0:0:
254,104,50952,6,0,P|326:108|374:163,1,150,2|8,0:0|0:0,0:0:0:0:
327,232,51467,2,0,P|400:237|454:188,1,150,2|0,0:0|0:0,0:0:0:0:
434,107,51981,1,8,0:0:0:0:
434,107,52152,1,0,0:0:0:0:
380,321,52324,6,0,P|308:334|248:291,1,150,2|8,0:0|0:0,0:0:0:0:
263,195,52838,1,0,0:0:0:0:
163,89,53010,2,0,P|149:123|151:160,1,75,2|0,0:0|0:0,0:0:0:0:
184,247,53352,1,8,0:0:0:0:
97,220,53524,1,0,0:0:0:0:
254,104,53695,6,0,P|267:69|265:32,1,75,2|0,0:0|0:0,0:0:0:0:
75,70,54038,2,0,P|61:104|63:141,1,75,8|0,0:0|0:0,0:0:0:0:
97,220,54381,1,8,0:0:0:0:
263,195,54552,1,8,0:0:0:0:
297,181,54637,1,8,0:0:0:0:
335,181,54723,1,8,0:0:0:0:
369,196,54809,1,8,0:0:0:0:
396,221,54894,1,8,0:0:0:0:
411,255,54980,1,8,0:0:0:0:
411,293,55067,6,0,P|467:246|472:172,1,150,4|8,0:0|0:0,0:0:0:0:
417,106,55581,1,0,0:0:0:0:
284,268,55752,2,0,P|246:270|212:256,1,75,2|0,0:0|0:0,0:0:0:0:
172,181,56095,1,8,0:0:0:0:
73,222,56267,6,0,P|129:175|134:101,1,150
71,49,56781,1,8,0:0:0:0:
71,49,56952,1,0,0:0:0:0:
251,185,57124,2,0,P|288:187|322:173,1,75,2|0,0:0|0:0,0:0:0:0:
363,98,57467,1,8,0:0:0:0:
459,143,57639,6,0,P|402:96|397:22,1,150
483,10,58152,1,8,0:0:0:0:
483,10,58324,1,0,0:0:0:0:
230,88,58495,2,0,P|195:102|158:99,2,75,2|0|8,0:0|0:0|0:0,0:0:0:0:
285,20,59010,1,0,0:0:0:0:
251,185,59181,6,0,P|248:222|262:256,1,75,2|0,0:0|0:0,0:0:0:0:
328,313,59524,1,8,0:0:0:0:
182,337,59695,2,0,P|215:352|252:352,1,75,2|0,0:0|0:0,0:0:0:0:
328,313,60038,1,0,0:0:0:0:
171,246,60210,1,8,0:0:0:0:
343,163,60381,1,0,0:0:0:0:
343,163,60467,1,8,0:0:0:0:
343,163,60552,6,0,P|298:135|277:92,1,75,4|0,0:0|0:0,0:0:0:0:
428,129,60895,2,0,P|431:181|409:224,1,75,8|0,0:0|0:0,0:0:0:0:
358,83,61238,1,2,0:0:0:0:
358,83,61410,1,0,0:0:0:0:
276,211,61581,2,0,P|236:218|193:200,1,75,8|0,0:0|0:0,0:0:0:0:
182,114,61924,6,0,P|141:125|110:166,1,75,2|0,0:0|0:0,0:0:0:0:
271,107,62267,2,0,P|260:66|219:35,1,75,8|0,0:0|0:0,0:0:0:0:
87,244,62610,1,2,0:0:0:0:
233,308,62781,1,0,0:0:0:0:
87,244,62952,1,8,0:0:0:0:
233,308,63124,1,8,0:0:0:0:
233,308,63210,1,8,0:0:0:0:
233,308,63295,6,0,P|305:302|352:245,1,150,4|8,0:0|0:0,0:0:0:0:
376,156,63810,2,0,P|432:202|438:275,1,150,4|0,0:0|0:0,0:0:0:0:
372,346,64324,1,8,0:0:0:0:
343,321,64409,1,8,0:0:0:0:
308,309,64495,1,8,0:0:0:0:
271,312,64581,1,8,0:0:0:0:
233,308,64667,6,0,P|195:245|213:174,1,150,4|8,0:0|0:0,0:0:0:0:
285,121,65181,2,0,P|243:88|176:94,1,112.5,4|0,0:0|0:0,0:0:0:0:
156,104,65524,1,8,0:3:0:0:
138,252,65695,1,8,0:3:0:0:
85,185,65867,1,8,0:3:0:0:
212,174,66038,5,4,0:0:0:0:
146,29,66381,1,0,0:0:0:0:
61,76,66552,2,8,L|51:24,2,37.5
138,252,66952,5,8,0:3:0:0:
283,138,67181,1,4,0:3:0:0:
446,255,67410,6,0,P|383:217|312:235,1,150,4|0,0:0|0:0,0:0:0:0:
278,311,67924,2,0,P|207:328|144:290,1,150,12|0,0:3|0:0,0:0:0:0:
93,214,68438,1,12,0:3:0:0:
55,297,68610,1,12,0:3:0:0:
26,102,68781,5,8,0:0:0:0:
226,211,68952,1,8,0:0:0:0:
226,211,70324,5,4,0:3:0:0:
136,211,70495,1,4,0:3:0:0:
181,289,70667,1,4,0:3:0:0:
359,206,70838,5,8,0:0:0:0:
380,197,71010,1,8,0:0:0:0:
401,189,71181,1,8,0:0:0:0:
422,181,71352,1,8,0:0:0:0:
271,291,71524,6,0,P|282:218|239:159,1,150,4|8,0:0|0:0,0:0:0:0:
163,197,72038,1,0,0:0:0:0:
330,363,72210,2,0,P|366:356|397:335,1,75,2|0,0:0|0:0,0:0:0:0:
422,247,72552,1,8,0:0:0:0:
489,309,72724,1,0,0:0:0:0:
271,291,72895,6,0,P|198:279|139:322,1,150,2|8,0:0|0:0,0:0:0:0:
77,375,73410,1,0,0:0:0:0:
41,216,73581,2,0,P|38:178|51:143,1,75,2|0,0:0|0:0,0:0:0:0:
118,92,73924,1,8,0:0:0:0:
55,24,74095,1,0,0:0:0:0:
118,92,74267,6,0,P|187:117|253:86,1,150,2|8,0:0|0:0,0:0:0:0:
308,21,74781,1,0,0:0:0:0:
267,195,74952,2,0,P|254:229|256:267,1,75,2|0,0:0|0:0,0:0:0:0:
312,326,75295,1,8,0:0:0:0:
220,336,75467,1,0,0:0:0:0:
362,246,75638,6,0,P|364:208|351:173,1,75,8|0,0:0|0:0,0:0:0:0:
188,186,75981,2,0,P|175:220|177:258,1,75,8|0,0:0|0:0,0:0:0:0:
220,336,76324,1,8,0:0:0:0:
279,187,76495,1,8,0:0:0:0:
313,173,76580,1,8,0:0:0:0:
351,173,76666,1,8,0:0:0:0:
385,188,76752,1,8,0:0:0:0:
412,213,76837,1,8,0:0:0:0:
427,247,76923,1,8,0:0:0:0:
427,285,77010,6,0,P|483:238|488:164,1,150,4|12,0:0|0:0,0:0:0:0:
434,95,77524,1,0,0:0:0:0:
341,271,77695,2,0,P|303:273|268:260,1,75,2|0,0:0|0:0,0:0:0:0:
197,191,78038,1,8,0:0:0:0:
197,191,78210,1,0,0:0:0:0:
154,289,78381,6,0,P|162:216|116:158,1,150,2|8,0:0|0:0,0:0:0:0:
46,208,78895,1,0,0:0:0:0:
172,55,79067,2,0,P|209:52|244:65,1,75,2|0,0:0|0:0,0:0:0:0:
294,143,79410,1,8,0:0:0:0:
333,60,79581,1,0,0:0:0:0:
294,143,79752,6,0,P|301:215|359:260,1,150,2|8,0:0|0:0,0:0:0:0:
450,275,80267,2,0,P|377:282|332:340,1,150,2|0,0:0|0:0,0:0:0:0:
247,373,80781,1,8,0:0:0:0:
191,305,80952,1,0,0:0:0:0:
105,345,81124,6,0,P|162:299|169:227,1,150,2|8,0:0|0:0,0:0:0:0:
107,167,81638,1,0,0:0:0:0:
270,235,81810,2,0,P|307:232|340:216,1,75,2|0,0:0|0:0,0:0:0:0:
387,147,82152,1,8,0:0:0:0:
387,147,82324,1,0,0:0:0:0:
179,109,82495,6,0,P|221:49|293:39,1,150,4|8,0:0|0:0,0:0:0:0:
382,63,83010,1,0,0:0:0:0:
340,216,83181,2,0,P|342:253|358:286,1,75,2|0,0:0|0:0,0:0:0:0:
430,342,83524,1,8,0:0:0:0:
430,342,83695,1,0,0:0:0:0:
501,216,83867,6,0,P|458:156|386:146,1,150,2|8,0:0|0:0,0:0:0:0:
340,216,84381,2,0,P|267:205|225:146,1,150,2|0,0:0|0:0,0:0:0:0:
244,63,84895,1,8,0:0:0:0:
244,63,85067,1,0,0:0:0:0:
140,135,85238,6,0,P|102:197|122:268,1,150,2|8,0:0|0:0,0:0:0:0:
187,325,85752,1,0,0:0:0:0:
340,216,85924,2,0,P|356:182|358:145,1,75,2|0,0:0|0:0,0:0:0:0:
307,73,86267,1,8,0:0:0:0:
397,59,86438,1,0,0:0:0:0:
259,160,86610,6,0,L|195:217,1,75,8|0,0:0|0:0,0:0:0:0:
122,268,86952,1,8,0:0:0:0:
288,300,87124,1,8,0:0:0:0:
288,300,87210,1,8,0:0:0:0:
288,300,87295,1,8,0:0:0:0:
122,268,87467,1,8,0:3:0:0:
187,325,87638,1,8,0:3:0:0:
197,249,87810,1,4,0:3:0:0:
113,345,87981,5,4,0:0:0:0:
256,192,88152,12,0,92095,0:0:0:0:
