osu file format v14

[General]
AudioFilename: audio.mp3
AudioLeadIn: 0
PreviewTime: 33124
Countdown: 0
SampleSet: Soft
StackLeniency: 0.7
Mode: 0
LetterboxInBreaks: 0
WidescreenStoryboard: 0

[Editor]
Bookmarks: 11181,22152,33124,44095,55067,66038,77010
DistanceSpacing: 1
BeatDivisor: 2
GridSize: 8
TimelineZoom: 1

[Metadata]
Title:Non stop road (TV size)
TitleUnicode:Non stop road(TV size)
Artist:sphere
ArtistUnicode:スフィア
Creator:- G I D Z -
Version:Easy
Source:夏色キセキ
Tags:Natsuiro Kiseki tv size anime opening Rizia gidz 寿 美菜子 Minako Kotobuki 高垣彩陽 Ayahi Takagaki 戸松 遥 Haruka Tomatsu 豊崎愛生 Aki Toyosaki
BeatmapID:1157989
BeatmapSetID:546703

[Difficulty]
HPDrainRate:2
CircleSize:3
OverallDifficulty:2
ApproachRate:2
SliderMultiplier:0.8
SliderTickRate:1

[Events]
//Background and Video events
0,0,"BG.jpg",0,0
//Break Periods
2,68981,69964
//Storyboard Layer 0 (Background)
//Storyboard Layer 1 (Fail)
//Storyboard Layer 2 (Pass)
//Storyboard Layer 3 (Foreground)
//Storyboard Sound Samples

[TimingPoints]
210,342.857142857143,4,2,1,50,1,0
33124,-100,4,2,1,70,0,1
66038,-100,4,2,1,50,0,0
71524,-100,4,2,1,70,0,1
87981,-100,4,2,1,70,0,0
92095,-100,4,2,1,5,0,0

[Colours]
Combo1 : 133,208,85
Combo2 : 72,107,156
Combo3 : 237,184,97

[HitObjects]
85,323,210,6,0,P|68:246|89:163,1,160,2|0,0:0|0:0,0:0:0:0:
127,99,1238,1,0,0:0:0:0:
194,55,1581,2,0,P|271:38|354:59,1,160,2|0,0:0|0:0,0:0:0:0:
440,187,2952,6,0,P|458:264|441:341,1,160,2|0,0:0|0:0,0:0:0:0:
365,367,3981,1,0,0:0:0:0:
295,328,4324,2,0,P|218:309|141:326,1,160,2|0,0:0|0:0,0:0:0:0:
30,209,5695,6,0,B|-5:157|39:147|-1:85,2,120,6|2|2,0:0|0:0|0:0,0:0:0:0:
96,163,7067,2,0,B|148:128|158:172|215:135,2,120,6|2|2,0:0|0:0|0:0,0:0:0:0:
140,229,8438,2,0,B|175:281|131:291|165:343,2,120,6|2|2,0:0|0:0|0:0,0:0:0:0:
73,273,9810,5,4,0:0:0:0:
265,217,10667,2,0,L|263:165,1,40,0|8,0:0|0:0,0:0:0:0:
289,101,11181,6,0,P|211:117|134:99,1,160,4|0,0:0|0:0,0:0:0:0:
67,54,12210,1,0,0:0:0:0:
39,129,12552,2,0,P|49:207|93:273,1,160,2|0,0:0|0:0,0:0:0:0:
170,295,13581,1,0,0:0:0:0:
237,251,13924,6,0,P|314:234|397:255,1,160,2|0,0:0|0:0,0:0:0:0:
452,303,14952,1,0,0:0:0:0:
483,229,15295,2,0,P|475:150|429:78,1,160,2|0,0:0|0:0,0:0:0:0:
359,51,16324,1,0,0:0:0:0:
305,110,16667,6,0,B|270:162|314:172|274:234,2,120,4|0|0,0:0|0:0|0:0,0:0:0:0:
238,65,18038,2,0,B|186:100|176:56|114:96,2,120,2|0|0,0:0|0:0|0:0,0:0:0:0:
311,32,19410,6,0,P|389:43|454:88,1,160,2|0,0:0|0:0,0:0:0:0:
479,164,20438,1,0,0:0:0:0:
461,242,20781,2,0,P|393:283|314:291,1,160,2|8,0:0|0:3,0:0:0:0:
239,262,21810,1,4,0:3:0:0:
185,202,22152,6,0,L|78:63,1,160,4|8,0:0|0:0,0:0:0:0:
152,28,23181,1,0,0:0:0:0:
203,89,23524,2,4,L|300:215,1,160,2|4,0:0|0:3,0:3:0:0:
342,283,24552,1,8,0:0:0:0:
262,292,24895,6,0,L|86:293,2,160,0|10|2,0:0|0:0|0:0,0:0:0:0:
342,283,26610,1,8,0:3:0:0:
394,222,26952,1,8,0:3:0:0:
393,141,27295,1,12,0:3:0:0:
324,100,27638,6,0,L|149:101,1,160,4|0,0:0|0:0,0:0:0:0:
83,101,28667,1,8,0:0:0:0:
86,180,29010,2,0,L|245:179,1,160,0|4,0:0|0:3,0:0:0:0:
325,183,30038,1,8,0:0:0:0:
397,216,30381,6,0,P|410:254|405:301,1,80,4|8,0:0|0:0,0:0:0:0:
327,301,31067,2,0,P|287:298|249:311,1,80,0|8,0:0|0:0,0:0:0:0:
187,361,31752,2,0,P|172:324|173:284,1,80,0|8,0:0|0:0,0:0:0:0:
211,213,32438,1,8,0:0:0:0:
167,145,32781,1,8,0:0:0:0:
213,80,33124,6,0,P|290:63|373:84,1,160,4|0,0:0|0:0,0:0:0:0:
427,135,34152,1,8,0:0:0:0:
390,206,34495,2,0,B|355:258|399:268|359:330,2,120,2|0|8,0:0|0:0|0:0,0:0:0:0:
470,209,35867,2,0,B|505:261|461:271|495:323,2,120,2|0|8,0:0|0:0|0:0,0:0:0:0:
431,137,37238,2,0,B|396:85|440:75|400:13,2,120,2|0|8,0:0|0:0|0:0,0:0:0:0:
390,206,38610,6,0,P|313:223|230:202,1,160,4|0,0:0|0:0,0:0:0:0:
182,144,39638,1,8,0:0:0:0:
107,173,39981,2,0,P|88:250|105:327,1,160,2|0,0:0|0:0,0:0:0:0:
180,356,41010,1,8,0:0:0:0:
252,322,41352,6,0,P|329:304|406:323,2,160,2|0|0,0:0|0:0|0:0,0:0:0:0:
180,356,43067,1,8,0:0:0:0:
101,340,43410,2,0,P|92:299|98:253,1,80,10|8,0:0|0:0,0:0:0:0:
167,224,44095,6,0,P|175:144|148:70,1,160,4|0,0:0|0:0,0:0:0:0:
212,21,45124,1,8,0:0:0:0:
273,72,45467,2,0,P|350:91|427:74,1,160,2|0,0:0|0:0,0:0:0:0:
484,17,46495,1,8,0:0:0:0:
506,93,46838,6,0,B|471:145|515:155|481:207,2,120,2|0|8,0:0|0:0|0:0,0:0:0:0:
427,73,48210,2,0,B|375:38|365:82|313:48,2,120,2|0|8,0:0|0:0|0:0,0:0:0:0:
382,139,49581,6,0,P|363:216|380:293,1,160,4|0,0:0|0:0,0:0:0:0:
435,351,50610,1,8,0:0:0:0:
485,289,50952,2,0,P|502:211|483:134,1,160,2|0,0:0|0:0,0:0:0:0:
426,77,51981,1,8,0:0:0:0:
352,109,52324,6,0,P|274:126|197:107,1,160,2|0,0:0|0:0,0:0:0:0:
126,70,53352,1,8,0:0:0:0:
51,100,53695,2,0,P|45:139|52:178,1,80,2|8,0:0|0:0,0:0:0:0:
129,201,54381,2,0,P|134:240|127:279,1,80,8|8,0:0|0:0,0:0:0:0:
101,356,55067,6,0,P|178:374|255:357,1,160,4|0,0:0|0:0,0:0:0:0:
302,292,56095,1,8,0:0:0:0:
248,233,56438,2,0,P|231:155|250:78,1,160,2|0,0:0|0:0,0:0:0:0:
316,34,57467,1,8,0:0:0:0:
379,82,57810,6,0,P|396:160|377:237,1,160,2|0,0:0|0:0,0:0:0:0:
314,286,58838,1,8,0:0:0:0:
235,269,59181,2,0,P|227:308|233:347,2,80,4|8|0,0:0|0:0|0:0,0:0:0:0:
278,201,60210,1,8,0:0:0:0:
210,159,60552,6,0,P|132:176|55:157,1,160,4|0,0:0|0:0,0:0:0:0:
12,89,61581,1,8,0:0:0:0:
62,27,61924,2,0,P|140:10|217:29,1,160,2|0,0:0|0:0,0:0:0:0:
264,92,62952,1,8,0:0:0:0:
337,122,63295,6,0,B|350:179|350:179|338:244,2,120,4|4|8,0:0|0:0|0:0,0:0:0:0:
328,42,64667,2,0,B|388:30|388:30|445:43,2,120,4|4|4,0:0|0:0|0:3,0:0:0:0:
264,92,66038,5,4,0:0:0:0:
458,346,67410,1,4,0:0:0:0:
177,191,68781,1,8,0:0:0:0:
442,198,71524,6,0,P|460:120|443:43,1,160,4|0,0:0|0:0,0:0:0:0:
365,59,72552,1,8,0:0:0:0:
317,123,72895,2,0,P|239:140|162:121,1,160,2|0,0:0|0:0,0:0:0:0:
101,68,73924,1,8,0:0:0:0:
50,130,74267,6,0,P|31:207|48:284,1,160,2|0,0:0|0:0,0:0:0:0:
109,335,75295,1,8,0:0:0:0:
180,299,75638,2,2,P|219:294|258:301,1,80,8|10,0:0|0:0,0:0:0:0:
325,345,76324,2,0,P|364:350|403:343,1,80,8|8,0:0|0:0,0:0:0:0:
455,281,77010,6,0,P|437:203|456:126,1,160,4|0,0:0|0:0,0:0:0:0:
497,57,78038,1,8,0:0:0:0:
416,57,78381,2,0,B|364:22|354:66|302:32,2,120,2|0|8,0:0|0:0|0:0,0:0:0:0:
456,126,79752,2,0,B|491:178|447:188|481:240,2,120,2|0|8,0:0|0:0|0:0,0:0:0:0:
375,127,81124,2,0,B|323:162|313:118|261:152,2,120,2|0|8,0:0|0:0|0:0,0:0:0:0:
416,57,82495,6,0,P|339:38|261:55,1,160,4|0,0:0|0:0,0:0:0:0:
198,104,83524,1,8,0:0:0:0:
261,151,83867,2,0,P|279:227|262:305,1,160,2|0,0:0|0:0,0:0:0:0:
200,356,84895,1,8,0:0:0:0:
133,310,85238,6,0,P|115:232|134:155,1,160,2|0,0:0|0:0,0:0:0:0:
195,104,86267,1,8,0:0:0:0:
261,151,86610,2,0,P|337:169|415:152,2,160,8|8|4,0:0|0:0|0:0,0:0:0:0:
256,192,88152,12,0,92095,0:0:0:0:
