osu file format v14

[General]
AudioFilename: audio.mp3
AudioLeadIn: 0
PreviewTime: 33359
Countdown: 0
SampleSet: Soft
StackLeniency: 0.7
Mode: 0
LetterboxInBreaks: 0
WidescreenStoryboard: 0

[Editor]
Bookmarks: 66273
DistanceSpacing: 1
BeatDivisor: 4
GridSize: 4
TimelineZoom: 2.1

[Metadata]
Title:Non stop road (TV Size)
TitleUnicode:Non stop road (TV Size)
Artist:sphere
ArtistUnicode:sphere
Creator:DavidEd
Version:Insane
Source:夏色キセキ
Tags:a summer colored miracle natsurio kiseki opening Haruka Tomatsu Minako Kotobuki Ayahi Takagaki Aki Toyosaki BoberofDarkness Hi_Hello
BeatmapID:1125127
BeatmapSetID:530827

[Difficulty]
HPDrainRate:6
CircleSize:4
OverallDifficulty:7
ApproachRate:9
SliderMultiplier:1.6
SliderTickRate:1

[Events]
//Background and Video events
0,0,"bg.jpg",0,0
Video,-80,"video.avi"
//Break Periods
//Storyboard Layer 0 (Background)
//Storyboard Layer 1 (Fail)
//Storyboard Layer 2 (Pass)
//Storyboard Layer 3 (Foreground)
//Storyboard Sound Samples

[TimingPoints]
445,342.857142857143,4,2,2,40,1,0
445,-133.333333333333,4,2,2,40,0,0
5930,-133.333333333333,4,2,1,60,0,0
11416,-133.333333333333,4,2,2,50,0,0
16216,-133.333333333333,4,2,4,50,0,0
16902,-133.333333333333,4,2,2,50,0,0
21359,-133.333333333333,4,2,4,50,0,0
21530,-133.333333333333,4,3,1,50,0,0
22387,-133.333333333333,4,2,1,50,0,0
24273,-133.333333333333,4,3,1,50,0,0
24616,-133.333333333333,4,2,1,50,0,0
26845,-133.333333333333,4,2,4,50,0,0
27016,-133.333333333333,4,3,1,50,0,0
27530,-133.333333333333,4,2,1,50,0,0
28902,-133.333333333333,4,2,4,50,0,0
29245,-133.333333333333,4,2,1,50,0,0
30273,-133.333333333333,4,2,4,50,0,0
30616,-111.111111111111,4,2,1,60,0,0
33359,-90.9090909090909,4,2,1,70,0,1
33702,-90.9090909090909,4,2,4,70,0,1
38845,-90.9090909090909,4,2,1,70,0,1
39187,-90.9090909090909,4,2,4,70,0,1
44330,-90.9090909090909,4,2,1,70,0,1
44673,-90.9090909090909,4,2,4,70,0,1
49816,-90.9090909090909,4,2,1,70,0,1
50159,-90.9090909090909,4,2,4,70,0,1
55302,-100,4,2,1,60,0,0
65673,-100,4,2,1,5,0,0
65759,-100,4,3,1,60,0,0
66273,-133.333333333333,4,2,1,60,0,0
67187,-133.333333333333,4,3,1,60,0,0
67645,-133.333333333333,4,2,1,60,0,0
68159,-133.333333333333,4,3,1,60,0,0
69016,-133.333333333333,4,2,1,60,0,0
71759,-90.9090909090909,4,2,1,70,0,1
72102,-90.9090909090909,4,2,4,70,0,1
75873,-90.9090909090909,4,2,1,70,0,1
77930,-90.9090909090909,4,2,4,70,0,1
82730,-90.9090909090909,4,2,1,70,0,1
83073,-90.9090909090909,4,2,4,70,0,1
86845,-90.9090909090909,4,2,1,70,0,1
87702,-90.9090909090909,4,3,1,70,0,1
88216,-100,4,2,1,60,0,0
90959,-100,4,2,1,50,0,0
91302,-100,4,2,1,40,0,0
91645,-100,4,2,1,30,0,0
91987,-100,4,2,1,20,0,0
92330,-100,4,2,1,10,0,0

[Colours]
Combo1 : 255,179,255
Combo2 : 255,255,106
Combo3 : 253,162,100
Combo4 : 0,174,87

[HitObjects]
164,109,445,6,0,P|222:121|288:108,1,120.000004577637,2|0,0:0|0:0,0:0:0:0:
375,77,959,1,2,0:0:0:0:
336,201,1130,1,8,0:0:0:0:
336,201,1302,2,0,P|331:255|347:319,1,120.000004577637,0|2,0:0|0:0,0:0:0:0:
453,212,1816,6,0,P|395:196|335:201,1,120.000004577637
218,274,2330,2,0,P|160:289|100:284,1,120.000004577637
21,226,2845,1,0,0:0:0:0:
218,274,3187,6,0,P|276:289|336:284,1,120.000004577637,2|2,0:0|0:0,0:0:0:0:
426,254,3702,1,0,0:0:0:0:
335,147,3873,1,8,0:0:0:0:
423,125,4045,2,0,P|389:75|319:58,1,120.000004577637,0|2,0:0|0:0,0:0:0:0:
223,120,4559,6,0,P|167:147|96:125,1,120.000004577637,0|2,0:0|0:0,0:0:0:0:
157,57,5073,1,0,0:0:0:0:
192,288,5587,1,0,0:0:0:0:
320,192,5930,6,0,B|403:154|403:236|493:188,2,180.000006866455,6|0|0,0:0|0:0|0:0,0:0:0:0:
192,288,7302,6,0,B|109:326|109:244|19:292,2,180.000006866455,6|0|0,0:0|0:0|0:0,0:0:0:0:
167,135,8673,6,0,B|120:56|73:123|28:33,2,180.000006866455,6|0|0,0:0|0:0|0:0,0:0:0:0:
191,287,10045,6,0,P|222:326|243:204,1,300.000011444092,6|2,0:0|0:0,0:0:0:0:
245,204,11073,1,8,0:0:0:0:
230,33,11416,6,0,L|235:98,1,60.0000022888184,14|0,0:0|0:0,0:0:0:0:
313,150,11759,1,10,0:0:0:0:
390,94,11930,1,0,0:0:0:0:
477,200,12102,1,10,0:0:0:0:
477,200,12273,2,0,P|499:255|492:329,1,120.000004577637
367,333,12787,6,0,P|344:277|351:203,1,120.000004577637,10|10,0:0|0:0,0:0:0:0:
390,94,13302,2,0,L|324:88,1,60.0000022888184,0|10,0:0|0:0,0:0:0:0:
227,74,13645,1,0,0:0:0:0:
266,166,13816,1,10,0:0:0:0:
195,238,13987,1,0,0:0:0:0:
51,205,14159,6,0,P|39:175|36:143,1,60.0000022888184,10|0,0:0|0:0,0:0:0:0:
51,55,14502,1,10,0:0:0:0:
144,28,14673,1,0,0:0:0:0:
132,154,14845,1,10,0:0:0:0:
132,154,15016,2,0,P|162:166|194:169,1,60.0000022888184,0|10,0:0|0:0,0:0:0:0:
283,159,15359,1,0,0:0:0:0:
250,309,15530,6,0,P|207:346|130:350,1,120.000004577637,10|10,0:0|0:0,0:0:0:0:
163,250,16045,1,0,0:0:0:0:
163,250,16130,1,0,0:0:0:0:
163,250,16216,1,6,0:0:0:0:
250,309,16387,1,0,0:0:0:0:
250,309,16473,1,0,0:0:0:0:
250,309,16559,2,0,L|326:309,1,60.0000022888184,6|0,0:0|0:0,0:0:0:0:
452,240,16902,6,0,P|475:190|465:127,1,120.000004577637,14|10,0:0|0:0,0:0:0:0:
350,47,17416,2,0,P|309:52|287:63,1,60.0000022888184,0|10,0:0|0:0,0:0:0:0:
225,130,17759,1,0,0:0:0:0:
131,98,17930,2,0,P|94:79|77:61,1,60.0000022888184,10|0,0:0|0:0,0:0:0:0:
225,130,18273,6,0,P|238:193|226:259,1,120.000004577637,10|10,0:0|0:0,0:0:0:0:
117,332,18787,2,0,P|74:334|41:320,1,60.0000022888184,0|10,0:0|0:0,0:0:0:0:
92,247,19130,1,0,0:0:0:0:
207,332,19302,2,0,P|250:334|283:320,1,60.0000022888184,10|0,0:0|0:0,0:0:0:0:
392,266,19645,6,0,B|441:252|441:252|524:263,1,120.000004577637,10|10,0:0|0:0,0:0:0:0:
489,166,20159,1,0,0:0:0:0:
489,166,20330,2,0,L|421:157,1,60.0000022888184,10|0,0:0|0:0,0:0:0:0:
365,85,20673,1,10,0:0:0:0:
333,173,20845,1,0,0:0:0:0:
192,221,21016,6,0,B|143:235|143:235|60:224,1,120.000004577637,2|12,0:0|0:0,0:0:0:0:
127,93,21530,1,8,0:0:0:0:
127,93,21616,1,4,0:0:0:0:
127,93,21702,1,4,0:0:0:0:
187,19,21873,1,8,0:0:0:0:
282,37,22045,1,4,0:0:0:0:
308,129,22216,1,4,0:0:0:0:
192,221,22387,6,0,P|175:280|195:335,1,120.000004577637,6|2,0:0|0:0,0:0:0:0:
313,339,22902,1,0,0:0:0:0:
313,339,23073,2,0,P|331:282|315:225,1,120.000004577637,8|2,0:0|0:0,0:0:0:0:
200,56,23759,6,0,P|256:74|313:58,1,120.000004577637,2|2,0:0|0:0,0:0:0:0:
391,18,24273,1,8,0:0:0:0:
467,134,24445,2,0,P|431:153|387:149,1,60.0000022888184,4|2,0:0|0:0,0:0:0:0:
313,57,24787,1,8,0:0:0:0:
333,193,24959,1,0,0:0:0:0:
333,193,25045,1,0,0:0:0:0:
333,193,25130,6,0,P|293:236|225:253,1,120.000004577637,2|2,0:0|0:0,0:0:0:0:
139,236,25645,1,0,0:0:0:0:
139,236,25816,2,0,P|147:298|195:343,1,120.000004577637,8|2,0:0|0:0,0:0:0:0:
420,215,26502,6,0,P|412:153|364:108,1,120.000004577637,2|6,0:0|0:0,0:0:0:0:
285,64,27016,1,8,0:0:0:0:
196,170,27187,1,4,0:0:0:0:
294,165,27359,1,4,0:0:0:0:
187,69,27530,2,0,P|156:62|124:62,1,60.0000022888184,8|2,0:0|0:0,0:0:0:0:
36,161,27873,6,0,P|42:223|83:283,1,120.000004577637,6|2,0:0|0:0,0:0:0:0:
145,323,28387,1,0,0:0:0:0:
145,323,28559,2,0,L|220:318,1,60.0000022888184,2|0,0:0|0:0,0:0:0:0:
310,265,28902,2,0,P|322:303|320:340,1,60.0000022888184,12|0,0:0|0:0,0:0:0:0:
168,233,29245,6,0,P|158:189|169:102,1,120.000004577637,2|2,0:0|0:0,0:0:0:0:
222,43,29759,1,0,0:0:0:0:
222,43,29930,2,0,P|256:35|297:35,1,60.0000022888184,2|0,0:0|0:0,0:0:0:0:
388,85,30273,2,0,P|422:93|463:93,1,60.0000022888184,12|0,0:0|0:0,0:0:0:0:
499,214,30616,6,0,P|484:280|424:333,1,143.999995605469,6|8,0:0|0:0,0:0:0:0:
337,360,31130,1,2,0:0:0:0:
188,325,31302,2,0,P|116:319|42:349,1,143.999995605469,2|8,0:0|0:0,0:0:0:0:
10,261,31816,1,2,0:0:0:0:
111,148,31987,6,0,P|182:141|249:166,1,143.999995605469,2|8,0:0|0:0,0:0:0:0:
329,224,32502,1,2,0:0:0:0:
408,104,32673,2,0,L|403:32,1,71.9999978027344,8|2,0:0|0:0,0:0:0:0:
243,94,33016,1,8,0:0:0:0:
244,111,33101,1,8,0:0:0:0:
245,129,33187,1,8,0:0:0:0:
246,147,33273,1,8,0:0:0:0:
247,165,33359,6,0,P|240:227|188:307,1,132.00000402832,6|0,0:0|0:0,0:0:0:0:
170,312,33702,2,0,P|127:327|76:322,1,88.000002685547,12|0,0:0|0:0,0:0:0:0:
63,190,34045,2,0,P|106:175|157:180,1,88.000002685547,6|2,0:0|0:0,0:0:0:0:
274,243,34387,2,0,P|317:258|368:253,1,88.000002685547,12|0,0:0|0:0,0:0:0:0:
474,120,34730,6,0,P|453:68|383:41,1,132.00000402832,6|0,0:0|0:0,0:0:0:0:
345,58,35073,2,0,P|305:77|255:77,1,88.000002685547,12|0,0:0|0:0,0:0:0:0:
124,46,35416,1,6,0:0:0:0:
163,180,35587,1,2,0:0:0:0:
25,149,35759,2,0,P|29:113|51:66,1,88.000002685547,12|0,0:0|0:0,0:0:0:0:
235,148,36102,6,0,P|255:208|259:285,1,132.00000402832,6|0,0:0|0:0,0:0:0:0:
255,320,36445,2,0,P|300:312|352:320,1,88.000002685547,12|0,0:0|0:0,0:0:0:0:
476,276,36787,1,6,0:0:0:0:
345,220,36959,1,2,0:0:0:0:
451,127,37130,2,0,P|467:85|468:26,1,88.000002685547,12|0,0:0|0:0,0:0:0:0:
281,41,37473,6,0,P|247:120|244:217,1,176.000005371094,6|12,0:0|0:0,0:0:0:0:
181,336,37987,1,0,0:0:0:0:
181,336,38073,1,8,0:0:0:0:
181,336,38159,2,0,P|136:329|89:335,1,88.000002685547,6|2,0:0|0:0,0:0:0:0:
27,214,38502,2,0,P|69:219|113:211,1,88.000002685547,12|0,0:0|0:0,0:0:0:0:
286,118,38845,6,0,P|333:95|425:102,1,132.00000402832,6|0,0:0|0:0,0:0:0:0:
449,117,39187,2,0,P|466:160|467:206,1,88.000002685547,12|0,0:0|0:0,0:0:0:0:
384,331,39530,1,6,0:0:0:0:
374,179,39702,1,2,0:0:0:0:
476,296,39873,1,12,0:0:0:0:
328,261,40045,1,0,0:0:0:0:
467,201,40216,6,0,P|465:157|449:117,1,88.000002685547,6|0,0:0|0:0,0:0:0:0:
368,18,40559,1,12,0:0:0:0:
276,101,40730,2,0,B|217:134|144:115|144:115|126:124|111:145,1,176.000005371094,0|2,0:0|0:0,0:0:0:0:
48,257,41245,2,0,P|44:298|61:346,1,88.000002685547,12|0,0:0|0:0,0:0:0:0:
224,296,41587,6,0,P|285:279|356:287,1,132.00000402832,6|0,0:0|0:0,0:0:0:0:
392,304,41930,2,0,P|438:316|482:310,1,88.000002685547,12|0,0:0|0:0,0:0:0:0:
442,175,42273,2,0,P|426:142|382:104,1,88.000002685547,6|2,0:0|0:0,0:0:0:0:
255,52,42616,1,12,0:0:0:0:
271,186,42787,1,0,0:0:0:0:
128,290,42959,6,0,P|149:256|196:221,1,88.000002685547,2|2,0:0|0:0,0:0:0:0:
255,52,43302,2,0,P|234:86|187:121,1,88.000002685547,12|2,0:0|0:0,0:0:0:0:
20,139,43645,2,0,P|59:140|113:163,1,88.000002685547,12|2,0:0|0:0,0:0:0:0:
262,273,43987,1,8,0:0:0:0:
281,282,44072,1,8,0:0:0:0:
302,289,44158,1,8,0:0:0:0:
324,291,44244,1,8,0:0:0:0:
346,291,44330,6,0,P|417:263|457:201,1,132.00000402832,6|0,0:0|0:0,0:0:0:0:
467,179,44673,2,0,P|472:136|462:89,1,88.000002685547,12|0,0:0|0:0,0:0:0:0:
320,56,45016,2,0,P|293:90|278:136,1,88.000002685547,6|2,0:0|0:0,0:0:0:0:
262,273,45359,2,0,P|247:314|220:349,1,88.000002685547,12|0,0:0|0:0,0:0:0:0:
42,261,45702,6,0,P|60:198|112:140,1,132.00000402832,6|0,0:0|0:0,0:0:0:0:
145,139,46045,2,0,P|194:151|251:145,1,88.000002685547,12|0,0:0|0:0,0:0:0:0:
365,109,46387,1,6,0:0:0:0:
326,244,46559,1,2,0:0:0:0:
444,319,46730,2,0,P|464:267|461:208,1,88.000002685547,12|0,0:0|0:0,0:0:0:0:
267,155,47073,6,0,P|244:201|233:297,1,132.00000402832,6|0,0:0|0:0,0:0:0:0:
212,319,47416,2,0,P|173:331|106:326,1,88.000002685547,12|0,0:0|0:0,0:0:0:0:
17,239,47759,1,6,0:0:0:0:
139,169,47930,1,2,0:0:0:0:
43,65,48102,2,0,P|9:110|0:158,1,88.000002685547,12|0,0:0|0:0,0:0:0:0:
193,236,48445,6,0,P|234:177|251:68,1,176.000005371094,6|12,0:0|0:0,0:0:0:0:
396,76,48959,1,0,0:0:0:0:
396,76,49045,1,8,0:0:0:0:
396,76,49130,2,0,P|405:124|438:165,1,88.000002685547,6|2,0:0|0:0,0:0:0:0:
463,305,49473,2,0,P|423:326|359:324,1,88.000002685547,12|0,0:0|0:0,0:0:0:0:
193,236,49816,6,0,P|105:231|23:259,1,176.000005371094,6|12,0:0|0:0,0:0:0:0:
22,259,50502,1,4,0:0:0:0:
93,138,50673,1,2,0:0:0:0:
3,28,50845,1,12,0:0:0:0:
93,138,51016,1,0,0:0:0:0:
257,28,51187,6,0,P|324:21|398:41,1,132.00000402832,6|0,0:0|0:0,0:0:0:0:
419,64,51530,2,0,P|431:112|429:159,1,88.000002685547,12|0,0:0|0:0,0:0:0:0:
421,293,51873,2,0,P|466:309|523:306,1,88.000002685547,6|2,0:0|0:0,0:0:0:0:
361,217,52216,2,0,P|317:218|276:233,1,88.000002685547,12|0,0:0|0:0,0:0:0:0:
104,320,52559,6,0,P|36:308|36:208,1,176.000005371094,6|12,0:0|0:0,0:0:0:0:
29,214,53245,1,6,0:0:0:0:
178,166,53416,1,0,0:0:0:0:
29,117,53587,1,12,0:0:0:0:
122,244,53759,1,0,0:0:0:0:
122,87,53930,6,0,P|166:69|218:76,1,88.000002685547,2|2,0:0|0:0,0:0:0:0:
363,91,54273,2,0,P|321:104|289:134,1,88.000002685547,12|2,0:0|0:0,0:0:0:0:
240,240,54616,1,12,0:0:0:0:
389,332,54787,1,8,0:0:0:0:
389,317,54872,1,8,0:0:0:0:
390,302,54958,1,8,0:0:0:0:
391,288,55044,1,8,0:0:0:0:
392,273,55129,1,8,0:0:0:0:
393,258,55215,1,8,0:0:0:0:
394,244,55301,5,6,0:0:0:0:
442,111,55473,2,0,P|369:140|278:129,1,160
181,28,55987,2,0,P|207:70|210:112,1,80,2|2,0:0|0:0,0:0:0:0:
204,225,56330,1,8,0:0:0:0:
31,173,56502,2,0,P|5:131|2:89,1,80,0|2,0:0|0:0,0:0:0:0:
229,147,56845,5,0,0:0:0:0:
137,273,57016,1,8,0:0:0:0:
285,225,57187,1,0,0:0:0:0:
137,177,57359,2,0,P|102:184|51:231,1,80,2|2,0:0|0:0,0:0:0:0:
229,303,57702,1,8,0:0:0:0:
313,146,57873,2,0,P|302:105|259:70,1,80,0|2,0:0|0:0,0:0:0:0:
204,225,58216,5,0,0:0:0:0:
314,314,58387,2,0,P|371:331|429:314,1,120,8|0,0:0|0:0,0:0:0:0:
461,292,58730,1,2,0:0:0:0:
379,192,58902,1,2,0:0:0:0:
457,91,59073,1,8,0:0:0:0:
379,192,59245,1,0,0:0:0:0:
211,53,59416,6,0,P|172:65|132:92,1,80,6|2,0:0|0:0,0:0:0:0:
47,211,59759,1,8,0:0:0:0:
195,163,59930,1,6,0:0:0:0:
47,115,60102,1,0,0:0:0:0:
139,241,60273,1,2,0:0:0:0:
139,85,60445,1,8,0:0:0:0:
301,167,60616,1,8,0:0:0:0:
301,167,60702,1,8,0:0:0:0:
301,167,60787,5,6,0:0:0:0:
257,286,60959,2,0,P|336:286|407:324,1,160
491,226,61473,2,0,P|466:197|447:155,1,80,2|2,0:0|0:0,0:0:0:0:
415,44,61816,1,8,0:0:0:0:
301,167,61987,2,0,P|264:183|225:190,1,80,0|2,0:0|0:0,0:0:0:0:
71,168,62330,5,0,0:0:0:0:
183,277,62502,1,8,0:0:0:0:
155,123,62673,1,0,0:0:0:0:
88,263,62845,2,0,P|119:349|181:373,1,160,2|8,0:0|0:0,0:0:0:0:
370,344,63359,1,8,0:0:0:0:
370,344,63445,1,8,0:0:0:0:
370,344,63530,6,0,P|400:317|419:263,1,80,6|2,0:0|0:0,0:0:0:0:
446,162,63873,1,8,0:0:0:0:
256,220,64045,2,0,P|176:226|92:187,1,160,6|2,0:0|0:0,0:0:0:0:
201,58,64559,1,8,0:0:0:0:
220,56,64644,1,8,0:0:0:0:
240,55,64730,1,8,0:0:0:0:
260,54,64816,1,8,0:0:0:0:
280,53,64902,6,0,L|359:57,1,80,6|2,0:0|0:0,0:0:0:0:
461,133,65245,1,8,0:0:0:0:
350,299,65416,2,0,P|324:246|318:175,1,120,6|0,0:0|0:0,0:0:0:0:
321,146,65759,1,8,0:0:0:0:
220,56,65930,1,4,0:0:0:0:
186,179,66102,1,4,0:0:0:0:
254,328,66273,6,0,P|201:308|117:320,1,120.000004577637,6|0,0:0|0:0,0:0:0:0:
8,339,66787,1,8,0:0:0:0:
8,339,66873,1,8,0:0:0:0:
8,339,66959,1,8,0:0:0:0:
38,168,67187,6,0,P|40:125|26:75,1,80.0000030517579,8|4,0:0|0:0,0:0:0:0:
25,250,67645,5,6,0:0:0:0:
251,323,67987,1,0,0:0:0:0:
251,323,68159,2,0,P|292:312|380:326,1,120.000004577637,8|8,0:0|0:0,0:0:0:0:
452,229,68673,2,0,P|420:232|378:224,1,60.0000022888184,4|4,0:0|0:0,0:0:0:0:
214,165,69016,5,8,0:0:0:0:
214,165,69187,2,0,L|139:168,1,60.0000022888184,8|0,0:0|0:0,0:0:0:0:
270,94,69530,2,0,P|299:138|287:216,1,120.000004577637
218,258,70045,2,0,L|143:261,1,60.0000022888184
52,145,70387,5,0,0:0:0:0:
214,165,70559,1,8,0:0:0:0:
214,165,70730,1,8,0:0:0:0:
296,26,70902,1,8,0:0:0:0:
435,141,71073,1,8,0:0:0:0:
294,211,71245,1,8,0:0:0:0:
369,72,71416,1,8,0:0:0:0:
388,226,71587,1,8,0:0:0:0:
283,111,71759,6,0,P|236:96|152:100,1,132.00000402832,6|0,0:0|0:0,0:0:0:0:
116,120,72102,2,0,L|64:192,1,88.000002685547,12|0,0:0|0:0,0:0:0:0:
168,288,72445,1,6,0:0:0:0:
299,187,72616,1,2,0:0:0:0:
168,288,72787,1,12,0:0:0:0:
340,284,72959,1,0,0:0:0:0:
193,190,73130,6,0,P|175:132|193:51,1,132.00000402832,6|0,0:0|0:0,0:0:0:0:
218,32,73473,2,0,P|259:20|320:25,1,88.000002685547,12|0,0:0|0:0,0:0:0:0:
439,59,73816,1,6,0:0:0:0:
361,175,73987,1,2,0:0:0:0:
482,247,74159,2,0,P|491:292|479:342,1,88.000002685547,12|0,0:0|0:0,0:0:0:0:
263,330,74502,6,0,P|237:246|255:161,1,176.000005371094,6|12,0:0|0:0,0:0:0:0:
320,46,75016,1,0,0:0:0:0:
320,46,75187,2,0,P|272:63|214:64,1,88.000002685547,6|2,0:0|0:0,0:0:0:0:
95,46,75530,1,12,0:0:0:0:
143,178,75702,1,2,0:0:0:0:
49,338,75873,6,0,P|56:296|92:245,1,88.000002685547,12|2,0:0|0:0,0:0:0:0:
310,219,76216,2,0,P|270:233|207:228,1,88.000002685547,12|2,0:0|0:0,0:0:0:0:
82,106,76559,1,12,0:0:0:0:
259,38,76730,1,8,0:0:0:0:
287,32,76815,1,8,0:0:0:0:
317,32,76901,1,8,0:0:0:0:
345,37,76987,1,8,0:0:0:0:
373,47,77072,1,8,0:0:0:0:
398,61,77158,1,8,0:0:0:0:
421,80,77245,6,0,P|434:141|433:247,1,132.00000402832,6|0,0:0|0:0,0:0:0:0:
425,252,77587,2,0,P|385:266|322:261,1,88.000002685547,12|0,0:0|0:0,0:0:0:0:
200,202,77930,2,0,P|156:201|114:215,1,88.000002685547,6|2,0:0|0:0,0:0:0:0:
138,348,78273,2,0,P|181:348|223:334,1,88.000002685547,12|0,0:0|0:0,0:0:0:0:
340,185,78616,6,0,P|342:127|312:55,1,132.00000402832,6|0,0:0|0:0,0:0:0:0:
278,34,78959,2,0,P|228:31|174:48,1,88.000002685547,12|0,0:0|0:0,0:0:0:0:
70,112,79302,1,6,0:0:0:0:
191,182,79473,1,2,0:0:0:0:
92,283,79645,2,0,P|63:243|53:197,1,88.000002685547,12|0,0:0|0:0,0:0:0:0:
243,112,79987,6,0,P|277:152|312:240,1,132.00000402832,6|0,0:0|0:0,0:0:0:0:
328,263,80330,2,0,P|368:288|423:296,1,88.000002685547,12|0,0:0|0:0,0:0:0:0:
506,195,80673,1,6,0:0:0:0:
372,148,80845,1,2,0:0:0:0:
456,35,81016,2,0,P|489:67|509:123,1,88.000002685547,12|0,0:0|0:0,0:0:0:0:
308,224,81359,6,0,P|232:251|116:243,1,176.000005371094,6|12,0:0|0:0,0:0:0:0:
47,140,81873,1,0,0:0:0:0:
47,140,81959,1,8,0:0:0:0:
47,140,82045,2,0,P|98:114|150:111,1,88.000002685547,6|2,0:0|0:0,0:0:0:0:
277,129,82387,2,0,P|320:120|357:98,1,88.000002685547,12|2,0:0|0:0,0:0:0:0:
481,220,82730,6,0,P|417:232|360:277,1,132.00000402832,6|0,0:0|0:0,0:0:0:0:
338,307,83073,2,0,P|296:331|251:336,1,88.000002685547,12|0,0:0|0:0,0:0:0:0:
77,295,83416,1,6,0:0:0:0:
242,252,83587,1,2,0:0:0:0:
84,188,83759,1,12,0:0:0:0:
176,334,83930,1,0,0:0:0:0:
185,163,84102,6,0,P|214:108|269:63,1,132.00000402832,6|0,0:0|0:0,0:0:0:0:
309,52,84445,2,0,P|354:53|411:73,1,88.000002685547,12|0,0:0|0:0,0:0:0:0:
485,172,84787,2,0,P|442:184|398:184,1,88.000002685547,6|2,0:0|0:0,0:0:0:0:
258,168,85130,2,0,P|246:221|251:280,1,88.000002685547,12|0,0:0|0:0,0:0:0:0:
104,332,85473,6,0,P|101:271|79:192,1,132.00000402832,6|0,0:0|0:0,0:0:0:0:
59,165,85816,2,0,P|44:119|43:64,1,88.000002685547,12|0,0:0|0:0,0:0:0:0:
217,38,86159,1,6,0:0:0:0:
307,183,86330,1,2,0:0:0:0:
149,118,86502,1,12,0:0:0:0:
314,77,86673,1,2,0:0:0:0:
206,211,86845,6,0,P|186:252|178:318,1,88.000002685547,12|2,0:0|0:0,0:0:0:0:
378,340,87187,2,0,P|398:299|406:233,1,88.000002685547,12|2,0:0|0:0,0:0:0:0:
403,213,87445,1,8,0:0:0:0:
403,213,87530,1,8,0:0:0:0:
314,77,87702,1,8,0:0:0:0:
472,123,87873,2,0,P|429:131|374:120,1,88.000002685547,4|4,0:0|0:0,0:0:0:0:
211,51,88216,5,6,0:0:0:0:
256,192,88302,12,0,92330,0:0:0:0:
