osu file format v14

[General]
AudioFilename: audio.mp3
AudioLeadIn: 0
PreviewTime: 33359
Countdown: 0
SampleSet: Soft
StackLeniency: 0.7
Mode: 0
LetterboxInBreaks: 0
WidescreenStoryboard: 0

[Editor]
Bookmarks: 66273
DistanceSpacing: 1.4
BeatDivisor: 4
GridSize: 4
TimelineZoom: 2.3

[Metadata]
Title:Non stop road (TV Size)
TitleUnicode:Non stop road (TV Size)
Artist:sphere
ArtistUnicode:sphere
Creator:DavidEd
Version:Hard
Source:夏色キセキ
Tags:a summer colored miracle natsurio kiseki opening Haruka Tomatsu Minako Kotobuki Ayahi Takagaki Aki Toyosaki BoberofDarkness Hi_Hello
BeatmapID:1125126
BeatmapSetID:530827

[Difficulty]
HPDrainRate:5
CircleSize:4
OverallDifficulty:6
ApproachRate:8
SliderMultiplier:1.4
SliderTickRate:1

[Events]
//Background and Video events
0,0,"bg.jpg",0,0
Video,-80,"video.avi"
//Break Periods
//Storyboard Layer 0 (Background)
//Storyboard Layer 1 (Fail)
//Storyboard Layer 2 (Pass)
//Storyboard Layer 3 (Foreground)
//Storyboard Sound Samples

[TimingPoints]
445,342.857142857143,4,2,2,40,1,0
445,-133.333333333333,4,2,2,40,0,0
5930,-133.333333333333,4,2,1,60,0,0
11416,-100,4,2,2,50,0,0
16559,-100,4,2,3,50,0,0
16902,-100,4,2,2,50,0,0
21359,-100,4,2,3,50,0,0
21530,-100,4,3,1,50,0,0
22387,-100,4,2,1,50,0,0
24273,-100,4,3,1,50,0,0
24616,-100,4,2,1,50,0,0
26845,-100,4,2,3,50,0,0
27016,-100,4,3,1,50,0,0
27530,-100,4,2,1,50,0,0
28902,-100,4,2,3,50,0,0
30616,-100,4,2,1,60,0,0
33359,-100,4,2,1,70,0,1
33702,-100,4,2,4,70,0,1
38845,-100,4,2,1,70,0,1
39187,-100,4,2,4,70,0,1
43645,-100,4,2,1,70,0,1
44673,-100,4,2,4,70,0,1
49816,-100,4,2,1,70,0,1
50159,-100,4,2,4,70,0,1
55302,-100,4,2,1,60,0,0
65759,-100,4,3,1,60,0,0
66273,-100,4,2,1,60,0,0
67302,-100,4,3,1,60,0,0
67645,-100,4,2,1,60,0,0
68159,-100,4,3,1,60,0,0
69016,-100,4,2,1,60,0,0
71759,-100,4,2,1,70,0,1
72102,-100,4,2,4,70,0,1
75873,-100,4,2,1,70,0,1
77930,-100,4,2,4,70,0,1
82730,-100,4,2,1,70,0,1
83073,-100,4,2,4,70,0,1
86845,-100,4,2,1,70,0,1
87702,-100,4,3,1,70,0,1
88216,-100,4,2,1,60,0,0
90959,-100,4,2,1,50,0,0
91302,-100,4,2,1,40,0,0
91645,-100,4,2,1,30,0,0
91987,-100,4,2,1,20,0,0
92330,-100,4,2,1,10,0,0

[Colours]
Combo1 : 255,179,255
Combo2 : 255,255,106
Combo3 : 253,162,100
Combo4 : 0,174,87

[HitObjects]
88,147,445,6,0,P|145:134|202:147,1,105.000004005432,2|0,0:0|0:0,0:0:0:0:
265,180,959,1,2,0:0:0:0:
324,120,1130,1,8,0:0:0:0:
324,120,1302,2,0,B|349:100|349:100|433:90,1,105.000004005432,0|2,0:0|0:0,0:0:0:0:
393,192,1816,2,0,P|391:244|407:298,1,105.000004005432,0|2,0:0|0:0,0:0:0:0:
331,335,2330,1,0,0:0:0:0:
331,335,2502,2,0,P|299:293|252:262,1,105.000004005432,8|0,0:0|0:0,0:0:0:0:
87,263,3187,6,0,P|43:233|11:192,1,105.000004005432,2|2,0:0|0:0,0:0:0:0:
1,108,3702,1,0,0:0:0:0:
72,63,3873,1,8,0:0:0:0:
143,108,4045,2,0,B|183:121|183:121|262:115,1,105.000004005432,0|2,0:0|0:0,0:0:0:0:
350,107,4559,2,0,P|384:116|445:170,1,105.000004005432,0|2,0:0|0:0,0:0:0:0:
473,235,5073,1,0,0:0:0:0:
256,363,5587,1,0,0:0:0:0:
159,225,5930,6,0,B|80:196|79:261|-1:226,2,157.500006008148,6|0|0,0:0|0:0|0:0,0:0:0:0:
314,291,7302,6,0,B|393:320|394:255|474:290,2,157.500006008148,6|0|0,0:0|0:0|0:0,0:0:0:0:
281,126,8673,6,0,B|327:62|361:117|415:53,2,157.500006008148,6|0|0,0:0|0:0|0:0,0:0:0:0:
207,277,10045,6,0,P|106:339|47:230,1,262.500010013581,6|2,0:0|0:0,0:0:0:0:
44,238,11073,1,8,0:0:0:0:
171,53,11416,6,0,P|236:33|306:56,1,140,14|10,0:0|0:0,0:0:0:0:
379,115,11930,1,0,0:0:0:0:
326,197,12102,1,10,0:0:0:0:
326,197,12273,2,0,B|307:242|307:242|311:284|311:284|290:336,1,140
166,329,12787,2,0,B|147:284|147:284|151:241|151:241|132:196,1,140,10|10,0:0|0:0,0:0:0:0:
24,129,13302,2,0,P|78:83|153:72,1,140
229,119,13816,1,10,0:0:0:0:
311,66,13987,1,0,0:0:0:0:
424,122,14159,6,0,P|460:183|457:257,1,140,10|10,0:0|0:0,0:0:0:0:
414,338,14673,1,0,0:0:0:0:
322,301,14845,1,10,0:0:0:0:
322,301,15016,2,0,B|277:284|277:284|175:295,1,140
60,308,15530,2,0,P|29:246|48:170,1,140,10|10,0:0|0:0,0:0:0:0:
168,164,16045,2,0,B|213:181|213:181|315:170,1,140
383,113,16559,2,0,P|400:158|398:192,1,70,6|0,0:0|0:0,0:0:0:0:
307,93,16902,6,0,B|262:76|262:76|170:85,1,140,14|10,0:0|0:0,0:0:0:0:
44,96,17416,2,0,P|18:157|56:222,1,140
142,252,17930,2,0,P|184:269|224:308,1,70,10|0,0:0|0:0,0:0:0:0:
317,338,18273,2,0,P|365:344|446:284,1,140,10|10,0:0|0:0,0:0:0:0:
463,201,18787,2,0,P|440:136|382:100,1,140
257,124,19302,2,0,P|228:144|195:155,1,70,10|0,0:0|0:0,0:0:0:0:
71,132,19645,6,0,P|99:70|166:35,1,140,10|10,0:0|0:0,0:0:0:0:
258,36,20159,1,0,0:0:0:0:
258,36,20330,2,0,L|335:40,1,70,10|0,0:0|0:0,0:0:0:0:
383,120,20673,2,0,P|341:138|313:167,1,70,10|0,0:0|0:0,0:0:0:0:
257,262,21016,2,0,P|213:313|132:328,1,140,2|12,0:0|0:0,0:0:0:0:
47,315,21530,2,0,L|30:366,2,35,8|4|4,0:0|0:0|0:0,0:0:0:0:
107,237,21873,1,8,0:0:0:0:
28,178,22045,1,4,0:0:0:0:
85,98,22216,1,4,0:0:0:0:
187,171,22387,6,0,B|256:201|256:138|346:183,1,140,6|2,0:0|0:0,0:0:0:0:
412,215,22902,1,0,0:0:0:0:
350,324,23073,2,0,P|294:356|208:341,1,140,8|0,0:0|0:0,0:0:0:0:
29,183,23759,2,0,P|40:246|107:302,1,140,2|2,0:0|0:0,0:0:0:0:
182,257,24273,1,8,0:0:0:0:
227,170,24445,2,0,L|219:89,1,70,4|2,0:0|0:0,0:0:0:0:
313,129,24787,1,8,0:0:0:0:
454,337,25130,6,0,P|384:318|299:332,1,140,2|2,0:0|0:0,0:0:0:0:
222,353,25645,1,0,0:0:0:0:
102,313,25816,2,0,P|64:255|58:177,1,140,8|2,0:0|0:0,0:0:0:0:
279,67,26502,2,0,P|334:108|366:179,1,140,2|6,0:0|0:0,0:0:0:0:
435,239,27016,2,0,L|484:248,2,35,8|4|4,0:0|0:0|0:0,0:0:0:0:
366,309,27359,1,4,0:0:0:0:
295,240,27530,1,8,0:0:0:0:
138,42,27873,6,0,P|82:83|50:154,1,140,6|2,0:0|0:0,0:0:0:0:
41,243,28387,1,0,0:0:0:0:
136,325,28559,2,0,P|199:352|277:344,1,140,2|12,0:0|0:0,0:0:0:0:
469,192,29245,2,0,B|401:156|401:219|334:190,1,140,2|2,0:0|0:0,0:0:0:0:
254,133,29759,1,0,0:0:0:0:
197,212,29930,1,2,0:0:0:0:
197,212,30102,1,0,0:0:0:0:
277,266,30273,2,0,L|357:276,1,70,12|0,0:0|0:0,0:0:0:0:
241,344,30616,6,0,B|173:351|173:351|97:324,1,140,6|8,0:0|0:0,0:0:0:0:
41,251,31130,1,2,0:0:0:0:
41,251,31302,2,0,B|34:183|34:183|61:106,1,140,2|8,0:0|0:0,0:0:0:0:
141,62,31816,1,2,0:0:0:0:
141,62,31987,2,0,B|209:55|209:55|285:82,1,140,2|8,0:0|0:0,0:0:0:0:
370,108,32502,1,2,0:0:0:0:
287,203,32673,2,0,P|277:252|278:288,1,70,8|2,0:0|0:0,0:0:0:0:
178,351,33016,2,0,L|128:354,3,35,8|8|8|8,0:0|0:0|0:0|0:0,0:0:0:0:
107,354,33359,6,0,P|57:319|30:246,1,140,6|12,0:0|0:0,0:0:0:0:
47,136,33873,1,0,0:0:0:0:
155,166,34045,2,0,P|196:165|245:143,1,70,6|2,0:0|0:0,0:0:0:0:
313,89,34387,2,0,P|346:79|381:79,1,70,12|0,0:0|0:0,0:0:0:0:
500,176,34730,2,0,B|512:226|512:226|501:317,1,140,6|12,0:0|0:0,0:0:0:0:
360,312,35245,2,0,B|349:224|349:224|361:174,1,140,0|2,0:0|0:0,0:0:0:0:
381,79,35759,2,0,P|346:78|313:89,1,70,12|0,0:0|0:0,0:0:0:0:
222,196,36102,6,0,P|177:243|96:257,1,140,6|12,0:0|0:0,0:0:0:0:
39,134,36616,2,0,P|84:87|165:73,1,140,0|2,0:0|0:0,0:0:0:0:
264,98,37130,2,0,P|299:117|347:124,1,70,12|0,0:0|0:0,0:0:0:0:
452,188,37473,2,0,P|483:231|487:320,1,140,6|12,0:0|0:0,0:0:0:0:
354,360,37987,2,0,P|323:317|319:228,1,140,0|2,0:0|0:0,0:0:0:0:
328,123,38502,2,0,P|331:88|322:42,1,70,12|0,0:0|0:0,0:0:0:0:
185,50,38845,6,0,P|173:96|190:199,1,140,6|12,0:0|0:0,0:0:0:0:
342,345,39530,1,6,0:0:0:0:
409,255,39702,1,2,0:0:0:0:
322,184,39873,1,12,0:0:0:0:
255,274,40045,1,0,0:0:0:0:
116,259,40216,2,0,P|73:235|29:153,1,140,6|12,0:0|0:0,0:0:0:0:
120,50,40730,2,0,B|193:20|193:75|261:50,1,140,0|2,0:0|0:0,0:0:0:0:
367,70,41245,2,0,P|386:105|391:140,1,70,12|0,0:0|0:0,0:0:0:0:
288,229,41587,6,0,P|247:262|213:348,1,140,6|12,0:0|0:0,0:0:0:0:
438,344,42273,2,0,P|466:319|480:284,1,70,6|2,0:0|0:0,0:0:0:0:
495,178,42616,1,12,0:0:0:0:
390,134,42787,1,0,0:0:0:0:
288,229,42959,2,0,P|226:250|147:237,1,140,6|12,0:0|0:0,0:0:0:0:
50,193,43473,1,2,0:0:0:0:
115,68,43645,2,0,P|152:57|195:58,1,70,12|2,0:0|0:0,0:0:0:0:
321,78,43987,2,0,L|367:89,3,35,8|8|8|8,0:0|0:0|0:0|0:0,0:0:0:0:
388,95,44330,6,0,P|430:128|463:216,1,140,6|12,0:0|0:0,0:0:0:0:
422,312,44845,1,0,0:0:0:0:
322,261,45016,2,0,P|278:254|241:261,1,70,6|2,0:0|0:0,0:0:0:0:
153,308,45359,2,0,P|118:314|84:311,1,70,12|0,0:0|0:0,0:0:0:0:
21,186,45702,2,0,B|94:156|94:211|162:186,1,140,6|12,0:0|0:0,0:0:0:0:
273,109,46216,2,0,P|331:74|408:77,1,140,0|2,0:0|0:0,0:0:0:0:
489,145,46730,2,0,P|497:181|488:223,1,70,12|0,0:0|0:0,0:0:0:0:
384,304,47073,6,0,P|328:283|244:296,1,140,6|12,0:0|0:0,0:0:0:0:
111,318,47587,2,0,P|56:269|62:196,1,140,0|2,0:0|0:0,0:0:0:0:
146,137,48102,2,0,P|179:118|207:85,1,70,12|0,0:0|0:0,0:0:0:0:
333,49,48445,2,0,P|356:97|438:144,1,140,6|12,0:0|0:0,0:0:0:0:
454,280,48959,2,0,P|428:320|324:335,1,140,0|2,0:0|0:0,0:0:0:0:
231,326,49473,2,0,P|208:291|200:249,1,70,12|0,0:0|0:0,0:0:0:0:
187,124,49816,6,0,P|134:69|61:59,1,140,6|12,0:0|0:0,0:0:0:0:
38,279,50502,1,6,0:0:0:0:
124,349,50673,1,2,0:0:0:0:
200,264,50845,1,12,0:0:0:0:
113,192,51016,1,0,0:0:0:0:
206,88,51187,2,0,P|273:58|341:63,1,140,6|12,0:0|0:0,0:0:0:0:
457,138,51702,2,0,P|487:205|482:273,1,140,0|2,0:0|0:0,0:0:0:0:
393,338,52216,2,0,P|356:345|315:340,1,70,12|0,0:0|0:0,0:0:0:0:
186,313,52559,6,0,P|125:303|34:343,1,140,6|12,0:0|0:0,0:0:0:0:
57,103,53245,1,6,0:0:0:0:
150,41,53416,1,2,0:0:0:0:
216,130,53587,1,12,0:0:0:0:
124,195,53759,1,0,0:0:0:0:
240,272,53930,2,0,L|324:269,1,70,6|2,0:0|0:0,0:0:0:0:
396,198,54273,2,0,L|480:195,1,70,12|2,0:0|0:0,0:0:0:0:
421,62,54616,1,12,0:0:0:0:
332,130,54787,1,2,0:0:0:0:
243,60,54959,2,0,L|181:53,3,35,8|8|8|8,0:0|0:0|0:0|0:0,0:0:0:0:
173,51,55302,5,6,0:0:0:0:
67,92,55473,2,0,P|54:136|79:234,1,140
163,266,55987,2,0,P|200:260|237:265,1,70,2|2,0:0|0:0,0:0:0:0:
313,319,56330,1,8,0:0:0:0:
392,264,56502,1,0,0:0:0:0:
336,64,56845,5,0,0:0:0:0:
336,64,57016,2,0,P|300:76|251:74,1,70,8|0,0:0|0:0,0:0:0:0:
176,41,57359,2,0,P|141:42|108:54,1,70,2|2,0:0|0:0,0:0:0:0:
48,132,57702,1,8,0:0:0:0:
112,204,57873,1,0,0:0:0:0:
334,150,58216,5,0,0:0:0:0:
334,150,58387,2,0,P|398:147|464:203,1,140,8|2,0:0|0:0,0:0:0:0:
465,288,58902,1,2,0:0:0:0:
377,331,59073,1,8,0:0:0:0:
298,271,59245,1,0,0:0:0:0:
334,150,59416,2,0,P|344:119|381:77,2,70,6|2|8,0:0|0:0|0:0,0:0:0:0:
242,185,59930,1,6,0:0:0:0:
200,273,60102,2,0,P|170:296|133:306,1,70
42,287,60445,2,0,P|19:257|9:220,1,70,8|0,0:0|0:0,0:0:0:0:
7,100,60787,5,6,0:0:0:0:
92,51,60959,2,0,P|157:37|236:60,1,140
308,109,61473,2,0,P|346:125|397:125,1,70,2|2,0:0|0:0,0:0:0:0:
472,118,61816,1,8,0:0:0:0:
430,236,61987,1,0,0:0:0:0:
264,340,62330,5,0,0:0:0:0:
264,340,62502,2,0,P|227:329|179:327,1,70,8|0,0:0|0:0,0:0:0:0:
98,340,62845,2,0,P|43:312|20:240,1,140,2|8,0:0|0:0,0:0:0:0:
44,145,63359,1,2,0:0:0:0:
165,177,63530,6,0,P|217:187|315:149,1,140,6|8,0:0|0:0,0:0:0:0:
409,99,64045,2,0,B|431:137|431:137|438:237,1,140,6|2,0:0|0:0,0:0:0:0:
356,329,64559,2,0,L|316:333,3,35,8|8|8|8,0:0|0:0|0:0|0:0,0:0:0:0:
289,318,64902,2,0,B|243:302|243:302|142:314,1,140,6|8,0:0|0:0,0:0:0:0:
45,244,65416,2,0,P|34:182|70:93,1,140,6|8,0:0|0:0,0:0:0:0:
135,50,65930,1,4,0:0:0:0:
213,108,66102,1,4,0:0:0:0:
323,48,66273,5,6,0:0:0:0:
452,194,66616,1,2,0:0:0:0:
413,283,66787,1,8,0:0:0:0:
413,283,66959,2,0,P|358:324|279:322,1,140,8|8,0:0|0:0,0:0:0:0:
90,168,67645,2,0,P|105:234|167:284,1,140,6|0,0:0|0:0,0:0:0:0:
253,258,68159,2,0,B|295:191|241:181|277:119,1,140,8|8,0:0|0:0,0:0:0:0:
352,63,68673,2,0,P|399:54|436:58,1,70,4|4,0:0|0:0,0:0:0:0:
403,180,69016,5,8,0:0:0:0:
403,180,69187,2,0,L|409:259,1,70,8|0,0:0|0:0,0:0:0:0:
307,325,69530,2,0,P|238:347|164:324,1,140
98,267,70045,2,0,P|106:224|104:186,1,70
83,74,70387,5,0,0:0:0:0:
166,125,70559,1,8,0:0:0:0:
166,125,70730,2,0,L|241:119,1,70,8|8,0:0|0:0,0:0:0:0:
303,48,71073,2,0,L|372:53,1,70,8|8,0:0|0:0,0:0:0:0:
457,102,71416,1,8,0:0:0:0:
413,189,71587,1,8,0:0:0:0:
475,314,71759,6,0,P|419:346|331:332,1,140,6|12,0:0|0:0,0:0:0:0:
167,202,72445,1,6,0:0:0:0:
127,306,72616,1,2,0:0:0:0:
230,347,72787,1,12,0:0:0:0:
270,243,72958,1,0,0:0:0:0:
247,104,73130,2,0,P|194:59|116:55,1,140,6|12,0:0|0:0,0:0:0:0:
19,144,73645,2,0,P|13:212|48:272,1,140,0|2,0:0|0:0,0:0:0:0:
159,286,74159,2,0,P|199:278|250:287,1,70,12|0,0:0|0:0,0:0:0:0:
358,331,74502,6,0,P|409:324|465:258,1,140,6|12,0:0|0:0,0:0:0:0:
402,44,75187,2,0,P|367:43|323:57,1,70,6|2,0:0|0:0,0:0:0:0:
255,132,75530,1,12,0:0:0:0:
338,207,75702,1,2,0:0:0:0:
258,322,75873,2,0,L|173:327,1,70,12|2,0:0|0:0,0:0:0:0:
114,241,76216,2,0,L|29:246,1,70,12|2,0:0|0:0,0:0:0:0:
66,106,76559,1,12,0:0:0:0:
159,166,76730,1,2,0:0:0:0:
225,75,76902,2,0,L|274:72,3,35,8|8|8|8,0:0|0:0|0:0|0:0,0:0:0:0:
294,68,77245,6,0,P|366:76|427:118,1,140,6|12,0:0|0:0,0:0:0:0:
476,209,77759,1,0,0:0:0:0:
387,277,77930,2,0,P|356:303|339:350,1,70,6|2,0:0|0:0,0:0:0:0:
230,331,78273,2,0,P|213:300|185:279,1,70,12|0,0:0|0:0,0:0:0:0:
60,216,78616,2,0,P|19:160|21:88,1,140,6|12,0:0|0:0,0:0:0:0:
146,30,79130,2,0,P|203:68|226:136,1,140,0|2,0:0|0:0,0:0:0:0:
279,232,79645,2,0,P|314:247|374:241,1,70,12|0,0:0|0:0,0:0:0:0:
464,174,79987,6,0,P|473:113|425:37,1,140,6|12,0:0|0:0,0:0:0:0:
300,84,80502,2,0,P|243:114|151:102,1,140,0|2,0:0|0:0,0:0:0:0:
69,162,81016,2,0,P|57:199|60:238,1,70,12|0,0:0|0:0,0:0:0:0:
150,335,81359,2,0,B|212:358|212:303|285:333,1,140,6|12,0:0|0:0,0:0:0:0:
425,342,81873,2,0,P|468:291|465:217,1,140,0|2,0:0|0:0,0:0:0:0:
367,166,82387,2,0,P|336:160|304:139,1,70,12|0,0:0|0:0,0:0:0:0:
189,57,82730,6,0,P|114:55|59:93,1,140,6|12,0:0|0:0,0:0:0:0:
185,277,83416,1,6,0:0:0:0:
79,312,83587,1,2,0:0:0:0:
44,206,83759,1,12,0:0:0:0:
152,172,83930,1,0,0:0:0:0:
266,253,84102,2,0,P|331:284|413:273,1,140,6|12,0:0|0:0,0:0:0:0:
469,158,84616,2,0,P|439:92|369:48,1,140,0|2,0:0|0:0,0:0:0:0:
276,81,85130,2,0,P|237:98|191:100,1,70,12|0,0:0|0:0,0:0:0:0:
74,138,85473,6,0,P|44:198|59:271,1,140,6|12,0:0|0:0,0:0:0:0:
266,347,86159,1,6,0:0:0:0:
377,333,86330,1,2,0:0:0:0:
358,222,86502,1,12,0:0:0:0:
247,236,86673,1,2,0:0:0:0:
170,118,86845,6,0,P|170:71|190:30,2,70,12|2|12,0:0|0:0|0:0,0:0:0:0:
137,254,87359,2,0,L|110:289,2,35,2|8|8,0:0|0:0|0:0,0:0:0:0:
247,236,87702,1,8,0:0:0:0:
358,222,87873,1,4,0:0:0:0:
377,333,88044,1,4,0:0:0:0:
266,347,88216,5,6,0:0:0:0:
256,192,88302,12,0,92330,0:0:0:0:
