osu file format v14

[General]
AudioFilename: audio.mp3
AudioLeadIn: 0
PreviewTime: 33359
Countdown: 0
SampleSet: Soft
StackLeniency: 0.7
Mode: 0
LetterboxInBreaks: 0
WidescreenStoryboard: 0

[Editor]
Bookmarks: 66273
DistanceSpacing: 1.1
BeatDivisor: 4
GridSize: 32
TimelineZoom: 1

[Metadata]
Title:Non stop road (TV Size)
TitleUnicode:Non stop road (TV Size)
Artist:sphere
ArtistUnicode:sphere
Creator:DavidEd
Version:Easy
Source:夏色キセキ
Tags:a summer colored miracle natsurio kiseki opening Haruka Tomatsu Minako Kotobuki Ayahi Takagaki Aki Toyosaki BoberofDarkness Hi_Hello
BeatmapID:1125124
BeatmapSetID:530827

[Difficulty]
HPDrainRate:2
CircleSize:3
OverallDifficulty:2
ApproachRate:3
SliderMultiplier:0.8
SliderTickRate:1

[Events]
//Background and Video events
0,0,"bg.jpg",0,0
Video,-80,"video.avi"
//Break Periods
//Storyboard Layer 0 (Background)
//Storyboard Layer 1 (Fail)
//Storyboard Layer 2 (Pass)
//Storyboard Layer 3 (Foreground)
//Storyboard Sound Samples

[TimingPoints]
445,342.857142857143,4,2,2,40,1,0
2159,-100,4,2,7,40,0,0
2245,-100,4,2,2,40,0,0
4902,-100,4,2,7,40,0,0
4987,-100,4,2,2,40,0,0
5930,-100,4,2,1,60,0,0
11416,-100,4,2,2,50,0,0
11759,-100,4,2,6,50,0,0
11845,-100,4,2,2,50,0,0
13130,-100,4,2,6,50,0,0
13216,-100,4,2,2,50,0,0
14502,-100,4,2,6,50,0,0
14587,-100,4,2,2,50,0,0
15873,-100,4,2,6,50,0,0
15959,-100,4,2,2,50,0,0
16559,-100,4,2,3,50,0,0
16902,-100,4,2,2,50,0,0
17245,-100,4,2,6,50,0,0
17330,-100,4,2,2,50,0,0
18616,-100,4,2,6,50,0,0
18702,-100,4,2,2,50,0,0
19987,-100,4,2,6,50,0,0
20073,-100,4,2,2,50,0,0
21359,-100,4,2,3,50,0,0
21702,-100,4,3,1,50,0,0
22387,-100,4,2,1,50,0,0
22730,-100,4,2,7,50,0,0
22816,-100,4,2,1,50,0,0
24102,-100,4,2,7,50,0,0
24187,-100,4,2,1,50,0,0
24445,-100,4,3,1,50,0,0
24787,-100,4,2,1,50,0,0
25473,-100,4,2,7,50,0,0
25559,-100,4,2,1,50,0,0
26845,-100,4,2,7,50,0,0
26930,-100,4,2,1,50,0,0
27187,-100,4,3,1,50,0,0
27530,-100,4,2,1,50,0,0
28216,-100,4,2,7,50,0,0
28302,-100,4,2,1,50,0,0
29587,-100,4,2,7,50,0,0
29673,-100,4,2,1,50,0,0
30273,-100,4,2,3,50,0,0
30616,-100,4,2,1,60,0,0
30959,-100,4,2,9,60,0,0
31045,-100,4,2,1,60,0,0
32330,-100,4,2,9,60,0,0
32416,-100,4,2,1,60,0,0
33359,-100,4,2,1,70,0,1
33702,-100,4,2,10,70,0,1
33787,-100,4,2,4,70,0,1
35073,-100,4,2,10,70,0,1
35159,-100,4,2,4,70,0,1
36445,-100,4,2,10,70,0,1
36530,-100,4,2,4,70,0,1
37816,-100,4,2,10,70,0,1
37902,-100,4,2,4,70,0,1
38845,-100,4,2,1,70,0,1
39187,-100,4,2,10,70,0,1
39273,-100,4,2,4,70,0,1
40559,-100,4,2,10,70,0,1
40645,-100,4,2,4,70,0,1
41930,-100,4,2,10,70,0,1
42016,-100,4,2,4,70,0,1
43302,-100,4,2,10,70,0,1
43387,-100,4,2,4,70,0,1
43645,-100,4,2,1,70,0,1
44673,-100,4,2,10,70,0,1
44759,-100,4,2,4,70,0,1
46045,-100,4,2,10,70,0,1
46130,-100,4,2,4,70,0,1
47416,-100,4,2,10,70,0,1
47502,-100,4,2,4,70,0,1
48787,-100,4,2,10,70,0,1
48873,-100,4,2,4,70,0,1
49816,-100,4,2,1,70,0,1
50159,-100,4,2,10,70,0,1
50245,-100,4,2,4,70,0,1
51530,-100,4,2,10,70,0,1
51616,-100,4,2,4,70,0,1
52902,-100,4,2,10,70,0,1
52987,-100,4,2,4,70,0,1
55302,-100,4,2,1,60,0,0
55645,-100,4,2,9,60,0,0
55730,-100,4,2,1,60,0,0
57016,-100,4,2,9,60,0,0
57102,-100,4,2,1,60,0,0
58387,-100,4,2,9,60,0,0
58473,-100,4,2,1,60,0,0
61130,-100,4,2,9,60,0,0
61216,-100,4,2,1,60,0,0
62502,-100,4,2,9,60,0,0
62587,-100,4,2,1,60,0,0
63873,-100,4,2,9,60,0,0
63959,-100,4,2,1,60,0,0
65245,-100,4,2,9,60,0,0
65416,-100,4,2,1,60,0,0
67302,-100,4,3,1,60,0,0
67645,-100,4,2,1,60,0,0
68159,-100,4,3,1,60,0,0
68245,-100,4,2,1,60,0,0
71759,-100,4,2,1,70,0,1
72102,-100,4,2,10,70,0,1
72187,-100,4,2,4,70,0,1
73473,-100,4,2,10,70,0,1
73559,-100,4,2,4,70,0,1
74845,-100,4,2,10,70,0,1
74930,-100,4,2,4,70,0,1
75873,-100,4,2,1,70,0,1
76216,-100,4,2,11,70,0,1
76302,-100,4,2,1,70,0,1
77587,-100,4,2,10,70,0,1
77673,-100,4,2,4,70,0,1
78959,-100,4,2,10,70,0,1
79045,-100,4,2,4,70,0,1
80330,-100,4,2,10,70,0,1
80416,-100,4,2,4,70,0,1
81702,-100,4,2,10,70,0,1
81787,-100,4,2,4,70,0,1
82730,-100,4,2,1,70,0,1
83073,-100,4,2,10,70,0,1
83159,-100,4,2,4,70,0,1
84445,-100,4,2,10,70,0,1
84530,-100,4,2,4,70,0,1
85816,-100,4,2,10,70,0,1
85902,-100,4,2,4,70,0,1
86845,-100,4,2,1,70,0,1
87530,-100,4,3,1,70,0,1
88216,-100,4,2,1,60,0,0
90959,-100,4,2,1,50,0,0
91302,-100,4,2,1,40,0,0
91645,-100,4,2,1,30,0,0
91987,-100,4,2,1,20,0,0
92330,-100,4,2,1,10,0,0

[Colours]
Combo1 : 255,179,255
Combo2 : 255,255,106
Combo3 : 253,162,100
Combo4 : 0,174,87

[HitObjects]
66,69,445,6,0,P|80:108|194:140,1,160,2|8,0:0|0:0,0:0:0:0:
256,95,1473,1,0,0:0:0:0:
332,51,1816,2,0,P|408:60|449:126,1,160,2|8,0:0|0:0,0:0:0:0:
411,297,3187,2,0,B|337:336|339:262|255:297,1,160,2|8,0:0|0:0,0:0:0:0:
179,335,4216,1,0,0:0:0:0:
101,293,4559,2,0,P|67:227|90:143,1,160,2|8,0:0|0:0,0:0:0:0:
140,77,5587,1,0,0:0:0:0:
217,118,5930,6,0,B|265:136|265:136|343:128,2,120,6|0|0,0:0|0:0|0:0,0:0:0:0:
140,77,7302,2,0,B|92:59|92:59|23:66,2,120,6|0|0,0:0|0:0|0:0,0:0:0:0:
143,164,8673,2,0,B|125:212|125:212|132:280,2,120,6|0|0,0:0|0:0|0:0,0:0:0:0:
218,118,10045,1,6,0:0:0:0:
470,193,11073,1,8,0:0:0:0:
429,271,11416,6,0,P|369:322|280:323,1,160,6|10,0:0|0:0,0:0:0:0:
126,262,12787,2,0,P|90:191|104:114,1,160,10|10,0:0|0:0,0:0:0:0:
160,45,13816,1,10,0:0:0:0:
236,88,14159,2,0,B|280:106|280:106|344:98|344:98|396:116,1,160,10|10,0:0|0:0,0:0:0:0:
454,277,15530,2,0,P|428:310|307:315,1,160,10|10,0:0|0:0,0:0:0:0:
257,256,16559,1,6,0:0:0:0:
194,321,16902,6,0,P|116:328|58:277,1,160,6|10,0:0|0:0,0:0:0:0:
36,191,17930,1,10,0:0:0:0:
58,106,18273,2,0,P|116:55|194:62,1,160,0|10,0:0|0:0,0:0:0:0:
257,124,19302,1,10,0:0:0:0:
317,62,19645,2,0,P|395:55|453:106,1,160,10|10,0:0|0:0,0:0:0:0:
456,282,21016,2,0,P|418:297|369:294,1,80,2|12,0:0|0:0,0:0:0:0:
303,250,21702,2,0,P|265:235|216:238,1,80,8|4,0:0|0:0,0:0:0:0:
141,257,22387,6,0,P|66:236|30:163,1,160,6|8,0:0|0:0,0:0:0:0:
146,34,23759,2,0,P|221:55|257:128,1,160,2|4,0:0|0:0,0:0:0:0:
236,209,24787,1,8,0:0:0:0:
291,277,25130,2,0,P|360:313|441:293,1,160,2|8,0:0|0:0,0:0:0:0:
460,120,26502,2,0,P|390:83|313:101,1,160,2|4,0:0|0:0,0:0:0:0:
256,168,27530,1,8,0:0:0:0:
198,101,27873,6,0,P|121:83|52:120,1,160,6|2,0:0|0:0,0:0:0:0:
53,295,29245,2,0,P|122:331|198:313,1,160,2|2,0:0|0:0,0:0:0:0:
256,247,30273,1,12,0:0:0:0:
314,315,30616,2,0,P|390:331|459:295,1,160,6|2,0:0|0:0,0:0:0:0:
484,120,31987,2,0,B|408:86|408:155|322:120,1,160,2|8,0:0|0:0,0:0:0:0:
256,72,33016,1,8,0:0:0:0:
172,98,33359,6,0,P|106:145|82:225,1,160,6|6,0:0|0:0,0:0:0:0:
226,318,34730,2,0,P|292:271|316:191,1,160,6|6,0:0|0:0,0:0:0:0:
299,111,35759,1,12,0:0:0:0:
362,50,36102,2,0,P|436:65|464:141,1,160,6|6,0:0|0:0,0:0:0:0:
412,305,37473,2,0,B|336:339|336:270|250:305,1,160,6|6,0:0|0:0,0:0:0:0:
179,344,38502,1,12,0:0:0:0:
102,301,38845,6,0,P|60:235|74:152,1,160,6|6,0:0|0:0,0:0:0:0:
208,47,40216,2,0,B|256:47|256:47|304:79|304:79|368:79,1,160,6|6,0:0|0:0,0:0:0:0:
428,132,41245,1,12,0:0:0:0:
444,218,41587,2,0,P|411:291|331:312,1,160,6|6,0:0|0:0,0:0:0:0:
256,282,42616,1,12,0:0:0:0:
172,313,42959,2,0,P|98:289|68:218,1,160,6|12,0:0|0:0,0:0:0:0:
180,82,44330,6,0,B|256:47|256:117|334:84,1,160,6|6,0:0|0:0,0:0:0:0:
453,212,45702,2,0,P|406:274|326:282,1,160,6|6,0:0|0:0,0:0:0:0:
256,232,46730,1,12,0:0:0:0:
261,144,47073,2,0,P|214:82|134:74,1,160,6|6,0:0|0:0,0:0:0:0:
52,228,48445,2,0,P|99:290|179:298,1,160,6|6,0:0|0:0,0:0:0:0:
256,262,49473,1,12,0:0:0:0:
335,298,49816,6,0,P|412:290|460:228,1,160,6|6,0:0|0:0,0:0:0:0:
332,106,51187,2,0,B|277:106|277:106|229:74|229:74|181:74,1,160,6|6,0:0|0:0,0:0:0:0:
96,97,52216,1,12,0:0:0:0:
71,181,52559,2,0,P|116:247|190:252,1,160,6|6,0:0|0:0,0:0:0:0:
359,201,53930,2,0,P|399:195|443:201,1,80,6|12,0:0|0:0,0:0:0:0:
441,288,54616,2,0,P|401:293|361:289,1,80,8|8,0:0|0:0,0:0:0:0:
283,247,55302,6,0,B|263:223|263:191|263:191|263:159|263:159|263:115|231:86,1,160,6|2,0:0|0:0,0:0:0:0:
68,63,56673,2,0,P|47:140|77:216,1,160,2|2,0:0|0:0,0:0:0:0:
213,320,58045,2,0,P|292:327|362:284,1,160,2|2,0:0|0:0,0:0:0:0:
460,143,59416,2,0,P|420:120|384:115,1,80,6|8,0:0|0:0,0:0:0:0:
299,127,60102,2,0,P|259:128|221:114,1,80,6|8,0:0|0:0,0:0:0:0:
141,79,60787,6,0,P|67:114|56:201,1,160,6|2,0:0|0:0,0:0:0:0:
179,305,62159,2,0,P|254:329|333:301,1,160,2|2,0:0|0:0,0:0:0:0:
384,236,63187,1,8,0:0:0:0:
362,150,63530,2,0,P|358:97|385:30,2,120,6|6|8,0:0|0:0|0:0,0:0:0:0:
384,236,64902,2,0,P|324:231|279:182,1,120,6|6,0:0|0:0,0:0:0:0:
87,89,66273,6,0,P|48:160|64:235,1,160,6|8,0:0|0:0,0:0:0:0:
124,298,67302,1,8,0:0:0:0:
210,279,67645,2,0,B|259:273|259:273|341:297,2,120,6|8|0,0:0|0:0|0:0,0:0:0:0:
124,298,69016,2,0,B|75:304|75:304|-7:280,2,120,8|0|0,0:0|0:0|0:0,0:0:0:0:
152,214,70387,2,0,B|146:165|146:165|170:83,2,120,0|0|8,0:0|0:0|0:0,0:0:0:0:
211,279,71759,6,0,P|289:307|360:276,1,160,6|6,0:0|0:0,0:0:0:0:
458,135,73130,2,0,P|409:73|331:57,1,160,2|6,0:0|0:0,0:0:0:0:
255,99,74159,1,12,0:0:0:0:
179,56,74502,2,0,P|102:73|54:135,1,160,6|6,0:0|0:0,0:0:0:0:
57,310,75873,2,0,P|129:340|204:308,1,160,12|12,0:0|0:0,0:0:0:0:
257,242,76902,1,8,0:0:0:0:
310,310,77245,6,0,P|382:340|455:310,1,160,6|6,0:0|0:0,0:0:0:0:
484,136,78616,2,0,B|406:103|406:173|330:138,1,160,6|6,0:0|0:0,0:0:0:0:
256,89,79645,1,12,0:0:0:0:
182,138,79987,2,0,B|106:173|106:103|28:136,1,160,6|6,0:0|0:0,0:0:0:0:
34,312,81359,2,0,P|106:343|188:319,1,160,6|6,0:0|0:0,0:0:0:0:
256,275,82387,1,12,0:0:0:0:
329,323,82730,6,0,P|405:343|478:312,1,160,6|6,0:0|0:0,0:0:0:0:
475,136,84102,2,0,B|420:136|420:136|372:104|372:104|324:104,1,160,6|6,0:0|0:0,0:0:0:0:
256,160,85130,1,12,0:0:0:0:
187,104,85473,2,0,B|139:104|139:104|91:136|91:136|37:136,1,160,6|6,0:0|0:0,0:0:0:0:
68,309,86845,2,0,P|106:321|153:316,1,80,12|12,0:0|0:0,0:0:0:0:
222,276,87530,2,0,P|260:264|307:269,1,80,8|4,0:0|0:0,0:0:0:0:
385,288,88216,5,6,0:0:0:0:
256,192,88387,12,0,92330,0:0:0:0:
