osu file format v14

[General]
AudioFilename: Jounetsu CONTINUE.mp3
AudioLeadIn: 0
PreviewTime: 42387
Countdown: 0
SampleSet: Soft
StackLeniency: 0.7
Mode: 0
LetterboxInBreaks: 0
WidescreenStoryboard: 0

[Editor]
DistanceSpacing: 0.9
BeatDivisor: 4
GridSize: 4
TimelineZoom: 3.399999

[Metadata]
Title:Jounetsu CONTINUE (TV Size)
TitleUnicode:情熱CONTINUE (TV Size)
Artist:sphere
ArtistUnicode:スフィア
Creator:kunka
Version:Normal
Source:夜ノヤッターマン
Tags:anime japanese ed ending pop jpop j-pop j_pop Kotobuki Minako 寿美菜子 Takagaki Ayahi 高垣彩陽 Tomatsu Haruka 戸松遥 Toyosaki Aki 豊崎愛生 ISM yoru no yattarman yatterman night Momochikun Irohas MugiwaraSekai HabiHolic kunkakunkakunkakunka
BeatmapID:2698865
BeatmapSetID:1301182

[Difficulty]
HPDrainRate:4
CircleSize:3.5
OverallDifficulty:5
ApproachRate:5.5
SliderMultiplier:1.1
SliderTickRate:1

[Events]
//Background and Video events
0,0,"BG.jpg",0,0
Video,-125,"Jounetsu CONTINUE.mp4"
//Break Periods
2,11678,15201
//Storyboard Layer 0 (Background)
//Storyboard Layer 1 (Fail)
//Storyboard Layer 2 (Pass)
//Storyboard Layer 3 (Foreground)
//Storyboard Layer 4 (Overlay)
//Storyboard Sound Samples

[TimingPoints]
569,303.030303030303,4,2,1,50,1,0
1781,-111.111111111111,4,2,1,65,0,0
6629,-95.2380952380952,4,2,1,75,0,0
8447,-95.2380952380952,4,2,1,85,0,0
9053,-95.2380952380952,4,2,1,75,0,0
11478,-111.111111111111,4,2,1,50,0,0
21175,-100,4,2,1,60,0,0
30872,-111.111111111111,4,2,1,50,0,0
35114,-111.111111111111,4,2,1,65,0,0
35720,-125,4,2,1,60,0,0
38144,-111.111111111111,4,2,1,65,0,0
38750,-111.111111111111,4,2,1,70,0,0
39356,-105.263157894737,4,2,1,75,0,0
39962,-105.263157894737,4,2,1,80,0,0
40568,-100,4,2,1,85,0,0
41175,-100,4,2,1,90,0,0
41478,-90.9090909090909,4,2,1,95,0,0
41781,-95.2380952380952,4,2,1,80,0,1
47538,-95.2380952380952,4,2,1,90,0,1
47841,-95.2380952380952,4,2,1,80,0,1
48750,-95.2380952380952,4,2,1,90,0,1
49053,-95.2380952380952,4,2,1,80,0,1
57235,-95.2380952380952,4,2,1,90,0,1
57538,-95.2380952380952,4,2,1,80,0,1
58447,-95.2380952380952,4,2,1,90,0,1
58750,-95.2380952380952,4,2,1,80,0,1
61175,-100,4,2,1,70,0,1
70872,-111.111111111111,4,2,1,80,0,1
71326,-111.111111111111,4,2,1,70,0,1
71781,-111.111111111111,4,2,1,60,0,1
72084,338.983050847458,4,2,1,70,1,1
72761,342.857142857143,4,2,1,60,1,1
72761,-105.263157894737,4,2,1,60,0,1
73446,402.684563758389,4,2,2,50,1,0
76656,408.163265306122,4,2,2,50,1,0
78238,405.405405405405,4,2,2,50,1,0
79847,408.163265306122,4,2,2,50,1,0
81442,405.405405405405,4,2,2,50,1,0
84310,500,4,2,2,40,1,0
84795,500,4,2,2,40,1,0
85795,576.923076923077,4,2,2,30,1,0
86948,681.818181818182,4,2,2,30,1,0
87970,-100,4,2,2,10,0,0

[Colours]
Combo1 : 255,128,64
Combo2 : 128,255,128
Combo3 : 128,255,255
Combo4 : 255,128,128
Combo5 : 255,255,128
Combo6 : 255,128,255

[HitObjects]
257,270,1781,6,0,P|165:294|83:242,1,197.99999395752,4|2,0:0|0:0,0:0:0:0:
112,66,2993,2,0,P|203:41|285:93,1,197.99999395752,2|2,0:0|0:0,0:0:0:0:
357,258,4205,6,0,P|307:268|247:295,2,98.9999969787599,2|2|2,0:0|0:0|0:0,0:0:0:0:
438,222,5114,2,0,L|433:172,1,49.4999984893799,2|2,0:0|0:0,0:0:0:0:
447,130,5417,2,0,P|501:65|421:44,1,197.99999395752,2|2,0:0|0:0,0:0:0:0:
224,110,6629,6,0,L|109:94,1,115.49999647522,4|0,1:0|3:0,0:0:0:0:
70,128,7084,2,0,L|86:243,1,115.49999647522,4|0,1:0|0:0,0:0:0:0:
96,293,7538,1,4,1:0:0:0:
250,273,7993,2,0,L|241:330,2,57.7499982376099,8|8|8,0:0|0:0|0:0,0:0:0:0:
276,228,8447,2,0,P|322:207|384:221,1,115.49999647522,4|4,1:0|1:0,0:0:0:0:
486,206,9053,6,0,L|470:91,1,115.49999647522,4|2,1:0|0:0,0:0:0:0:
427,61,9508,2,0,L|312:77,1,115.49999647522,4|0,1:0|0:0,0:0:0:0:
261,86,9962,1,4,1:0:0:0:
256,192,10038,12,4,11478,1:0:0:0:
395,74,16326,5,4,1:0:0:0:
395,74,16478,2,0,B|370:115|370:115|391:162,1,98.9999969787599,2|2,1:0|0:0,0:0:0:0:
408,202,16932,2,0,P|414:249|384:293,1,98.9999969787599,2|2,0:0|0:0,0:0:0:0:
355,322,17387,1,2,0:0:0:0:
269,298,17690,2,0,L|219:306,1,49.4999984893799,2|2,0:0|0:0,0:0:0:0:
184,224,18144,2,0,P|226:200|274:209,1,98.9999969787599,2|2,0:0|0:0,0:0:0:0:
357,179,18750,6,0,L|376:77,1,98.9999969787599,2|2,0:0|0:0,0:0:0:0:
353,42,19205,1,2,0:0:0:0:
353,42,19356,2,0,B|312:20|312:20|259:25,1,98.9999969787599,2|2,0:0|0:0,0:0:0:0:
215,32,19811,1,2,0:0:0:0:
154,97,20114,2,0,L|163:145,1,49.4999984893799,2|2,0:0|0:0,0:0:0:0:
242,185,20569,1,4,1:0:0:0:
242,185,20720,1,2,1:0:0:0:
168,312,21175,6,0,P|114:328|59:317,1,110,4|2,1:0|1:0,0:0:0:0:
9,234,21781,2,0,P|11:179|20:124,1,110,2|2,1:0|1:0,0:0:0:0:
54,88,22235,1,2,0:0:0:0:
54,88,22387,2,0,P|108:90|163:99,1,110,2|2,1:0|1:0,0:0:0:0:
240,160,22993,2,0,P|267:155|294:154,1,55,2|2,1:0|0:0,0:0:0:0:
344,154,23296,1,2,1:0:0:0:
338,55,23599,6,0,P|284:35|231:48,1,110,2|2,1:0|1:0,0:0:0:0:
190,69,24053,1,2,0:0:0:0:
92,52,24356,1,2,0:0:0:0:
17,116,24659,1,2,0:0:0:0:
17,116,24811,2,0,L|33:226,1,110,2|2,1:0|1:0,0:0:0:0:
98,298,25417,2,0,B|122:281|122:281|205:296,1,110,2|2,1:0|1:0,0:0:0:0:
247,313,25872,1,2,0:0:0:0:
247,313,26023,6,0,B|293:282|293:282|347:299,1,110,4|2,1:0|1:0,0:0:0:0:
429,247,26629,2,0,L|420:193,1,55,2|2,1:0|0:0,0:0:0:0:
441,148,26932,1,2,1:0:0:0:
441,148,27084,1,2,0:0:0:0:
413,52,27387,1,2,0:0:0:0:
413,52,27538,2,0,P|362:28|308:40,1,110,2|2,1:0|1:0,0:0:0:0:
227,90,28144,1,2,1:0:0:0:
269,180,28447,6,0,L|260:234,1,55,2|2,1:0|0:0,0:0:0:0:
281,279,28750,2,0,L|272:333,1,55,2|2,1:0|0:0,0:0:0:0:
230,359,29053,2,0,P|175:349|119:348,1,110,2|2,1:0|1:0,0:0:0:0:
71,354,29508,1,2,0:0:0:0:
10,275,29811,1,10,0:0:0:0:
10,275,29962,1,10,1:0:0:0:
33,178,30265,2,0,L|16:118,1,55,10|10,1:0|0:0,0:0:0:0:
39,79,30569,1,2,1:0:0:0:
107,21,30872,6,0,P|154:12|198:34,1,98.9999969787599,4|2,0:0|0:0,0:0:0:0:
264,93,31478,2,0,L|361:76,2,98.9999969787599,10|2|2,0:0|1:0|1:0,0:0:0:0:
206,160,32387,1,2,1:0:0:0:
229,245,32690,2,0,P|207:288|216:336,2,98.9999969787599,10|2|4,0:0|1:0|1:0,0:0:0:0:
291,182,33599,5,2,0:0:0:0:
370,141,33902,2,0,L|467:157,2,98.9999969787599,10|2|2,0:0|1:0|1:0,0:0:0:0:
321,66,34811,1,2,1:0:0:0:
242,23,35114,2,0,L|193:31,1,49.4999984893799,10|10,0:0|0:0,0:0:0:0:
159,60,35417,2,0,L|110:51,1,49.4999984893799,10|10,0:0|0:0,0:0:0:0:
76,71,35720,6,0,P|62:112|74:160,1,88,4|10,1:0|0:0,0:0:0:0:
135,200,36326,2,0,P|176:207|222:189,1,88,2|10,0:0|0:0,0:0:0:0:
290,158,36932,2,0,P|331:151|377:168,1,88,2|10,1:0|0:0,0:0:0:0:
442,206,37538,1,2,0:0:0:0:
358,363,38144,6,0,P|312:370|262:351,1,98.9999969787599,4|8,1:0|0:0,0:0:0:0:
184,311,38750,2,0,P|135:303|89:320,1,98.9999969787599,2|8,1:0|0:0,0:0:0:0:
9,270,39356,2,0,L|18:215,1,52.2499986047745,2|8,1:0|0:0,0:0:0:0:
53,187,39659,2,0,L|44:132,1,52.2499986047745,0|10,1:0|0:0,0:0:0:0:
256,192,39962,12,12,41781,1:0:0:0:
477,175,42387,6,0,P|491:232|470:290,1,115.49999647522,10|10,1:0|1:0,0:0:0:0:
392,349,42993,2,0,L|277:327,1,115.49999647522,10|10,1:0|1:0,0:0:0:0:
226,326,43447,1,0,0:0:0:0:
226,326,43599,2,0,P|173:357|118:350,1,115.49999647522,10|10,1:0|1:0,0:0:0:0:
43,282,44205,1,10,1:0:0:0:
18,181,44508,1,10,1:0:0:0:
47,81,44811,6,0,P|100:50|155:57,1,115.49999647522,10|10,1:0|1:0,0:0:0:0:
237,114,45417,2,0,B|297:107|271:62|333:59,1,115.49999647522,10|10,1:0|1:0,0:0:0:0:
384,54,45872,1,0,0:0:0:0:
384,54,46023,2,0,P|440:49|488:79,1,115.49999647522,10|10,1:0|1:0,0:0:0:0:
475,182,46629,5,12,1:0:0:0:
499,282,46932,1,10,1:0:0:0:
408,332,47235,1,10,1:0:0:0:
319,278,47538,2,0,B|262:262|262:262|209:285,1,115.49999647522,12|10,1:0|1:0,0:0:0:0:
106,274,48144,1,10,1:0:0:0:
40,193,48447,1,10,1:0:0:0:
83,98,48750,1,12,1:0:0:0:
83,98,49053,6,0,P|137:90|189:120,1,115.49999647522,10|10,1:0|1:0,0:0:0:0:
232,146,49508,2,0,P|286:154|338:124,1,115.49999647522,10|2,0:0|0:0,0:0:0:0:
441,125,50114,2,0,B|467:158|467:158|454:232,1,115.49999647522,4|10,1:0|1:0,0:0:0:0:
440,280,50568,1,10,1:0:0:0:
348,329,50872,2,0,L|286:318,1,57.7499982376099,10|8,1:0|0:0,0:0:0:0:
252,283,51175,2,0,L|193:283,1,57.7499982376099,10|8,1:0|0:0,0:0:0:0:
153,317,51478,2,0,P|99:332|45:306,1,115.49999647522,12|10,1:0|1:0,0:0:0:0:
6,212,52084,6,0,P|10:155|26:97,1,115.49999647522,10|10,1:0|1:0,0:0:0:0:
97,23,52690,2,0,P|153:27|212:43,1,115.49999647522,10|10,1:0|1:0,0:0:0:0:
249,76,53144,1,0,0:0:0:0:
249,76,53296,2,0,P|234:131|229:189,1,115.49999647522,10|10,1:0|1:0,0:0:0:0:
224,292,53902,1,10,1:0:0:0:
298,364,54205,1,10,1:0:0:0:
398,337,54508,6,0,P|451:357|511:341,1,115.49999647522,10|10,1:0|1:0,0:0:0:0:
510,239,55114,2,0,P|457:219|397:235,1,115.49999647522,10|10,1:0|1:0,0:0:0:0:
358,261,55568,1,10,0:0:0:0:
358,261,55720,2,0,L|346:143,1,115.49999647522,10|10,1:0|1:0,0:0:0:0:
286,61,56326,5,12,1:0:0:0:
187,92,56629,1,10,1:0:0:0:
87,61,56932,1,10,1:0:0:0:
12,133,57235,2,0,L|23:247,1,115.49999647522,12|10,1:0|1:0,0:0:0:0:
72,339,57841,1,10,1:0:0:0:
172,364,58144,1,10,1:0:0:0:
257,304,58447,1,12,1:0:0:0:
257,304,58750,6,0,P|261:247|229:200,1,115.49999647522,10|10,1:0|1:0,0:0:0:0:
191,164,59205,2,0,P|186:107|218:60,1,115.49999647522,10|2,0:0|0:0,0:0:0:0:
309,12,59811,2,0,B|342:38|342:38|416:25,1,115.49999647522,4|10,1:0|1:0,0:0:0:0:
460,48,60265,1,10,1:0:0:0:
501,145,60568,2,0,L|489:205,1,57.7499982376099,10|8,1:0|0:0,0:0:0:0:
450,237,60872,2,0,L|393:225,1,57.7499982376099,10|8,1:0|0:0,0:0:0:0:
352,254,61175,6,0,P|299:265|247:244,2,110,4|10|10,1:0|0:0|0:0,0:0:0:0:
308,166,62084,1,10,0:0:0:0:
264,77,62387,2,0,P|317:66|368:86,2,110,10|10|10,0:0|0:0|0:0,0:0:0:0:
163,59,63296,1,10,0:0:0:0:
81,115,63599,6,0,P|69:174|78:227,1,110,10|10,0:0|0:0,0:0:0:0:
111,257,64053,1,2,1:0:0:0:
111,257,64205,2,0,P|165:249|218:261,1,110,10|10,0:0|0:0,0:0:0:0:
264,279,64659,1,2,1:0:0:0:
362,268,64962,2,0,P|352:294|349:322,2,55,2|10|2,0:0|0:0|1:0,0:0:0:0:
395,231,65417,2,0,L|384:176,1,55,10|0,0:0|1:0,0:0:0:0:
343,147,65720,2,0,L|354:92,1,55,10|2,0:0|0:0,0:0:0:0:
329,49,66023,6,0,P|284:18|230:17,2,110,4|10|10,1:0|0:0|0:0,0:0:0:0:
254,114,66932,1,10,0:0:0:0:
179,180,67235,2,0,P|223:210|277:211,2,110,10|10|10,0:0|0:0|0:0,0:0:0:0:
93,129,68144,1,10,0:0:0:0:
20,196,68447,6,0,B|-4:227|-4:227|7:298,1,110,10|10,0:0|0:0,0:0:0:0:
44,329,68902,1,2,1:0:0:0:
44,329,69053,2,0,P|99:323|155:342,1,110,10|10,0:0|0:0,0:0:0:0:
193,364,69508,1,2,1:0:0:0:
275,309,69811,2,0,P|284:334|288:361,2,55,2|10|2,1:0|0:0|1:0,0:0:0:0:
254,264,70265,2,0,P|248:209|267:153,1,110,10|10,1:0|1:0,0:0:0:0:
295,74,70872,6,0,B|367:34|367:110|435:74,2,148.49999546814,4|2|2,1:0|0:0|0:0,0:0:0:0:
209,94,72084,2,0,L|97:80,1,110,4|8,1:0|0:0,0:0:0:0:
35,147,72761,2,0,L|48:253,1,104.499997209549,2|0,1:0|1:0,0:0:0:0:
100,326,73446,6,0,P|203:347|265:264,1,220,4|8,0:0|0:0,0:0:0:0:
251,166,74654,1,8,0:0:0:0:
284,73,75056,2,0,P|329:45|385:54,1,110,10|8,0:0|0:0,0:0:0:0:
425,79,75660,2,0,P|426:132|409:191,1,110,2|8,0:0|0:0,0:0:0:0:
395,233,76264,1,10,0:0:0:0:
300,224,76656,6,0,P|285:274|302:331,2,110,4|8|10,0:1|0:0|0:1,0:0:0:0:
357,143,77880,2,0,L|344:90,1,55,10|2,0:0|0:0,0:0:0:0:
332,53,78238,2,0,P|274:45|226:70,1,110,2|8,0:1|0:0,0:0:0:0:
188,95,78846,2,0,P|130:103|82:78,1,110,2|8,0:0|0:0,0:0:0:0:
44,52,79454,1,10,0:0:0:0:
4,138,79847,6,0,P|-6:191|9:243,1,110,4|8,0:0|0:0,0:0:0:0:
52,332,80663,2,0,L|162:316,1,110,10|8,0:0|0:0,0:0:0:0:
157,225,81442,2,0,L|267:208,1,110,2|8,0:0|0:0,0:0:0:0:
262,109,82252,2,0,P|309:90|367:103,1,110,2|2,0:1|0:0,0:0:0:0:
436,170,83063,6,0,L|419:280,2,110,10|8|8,0:0|0:0|0:0,0:0:0:0:
502,114,84310,2,0,L|494:59,1,55,10|2,0:0|0:0,0:0:0:0:
459,30,84795,2,0,P|403:15|355:38,1,110,2|8,0:1|0:0,0:0:0:0:
300,100,85795,2,0,B|281:168|228:184|165:209|146:148|186:102|220:142,1,220,10|2,0:0|0:0,0:0:0:0:
