osu file format v14

[General]
AudioFilename: Jounetsu CONTINUE.mp3
AudioLeadIn: 0
PreviewTime: 42387
Countdown: 0
SampleSet: Soft
StackLeniency: 0.7
Mode: 0
LetterboxInBreaks: 0
WidescreenStoryboard: 0

[Editor]
DistanceSpacing: 1.1
BeatDivisor: 4
GridSize: 4
TimelineZoom: 3.399999

[Metadata]
Title:Jounetsu CONTINUE (TV Size)
TitleUnicode:情熱CONTINUE (TV Size)
Artist:sphere
ArtistUnicode:スフィア
Creator:kunka
Version:Easy
Source:夜ノヤッターマン
Tags:anime japanese ed ending pop jpop j-pop j_pop Kotobuki Minako 寿美菜子 Takagaki Ayahi 高垣彩陽 Tomatsu Haruka 戸松遥 Toyosaki Aki 豊崎愛生 ISM yoru no yattarman yatterman night Momochikun Irohas MugiwaraSekai HabiHolic kunkakunkakunkakunka
BeatmapID:2702515
BeatmapSetID:1301182

[Difficulty]
HPDrainRate:3
CircleSize:3
OverallDifficulty:4
ApproachRate:4
SliderMultiplier:0.9
SliderTickRate:1

[Events]
//Background and Video events
0,0,"BG.jpg",0,0
Video,-125,"Jounetsu CONTINUE.mp4"
//Break Periods
2,11678,15006
2,16677,19249
//Storyboard Layer 0 (Background)
//Storyboard Layer 1 (Fail)
//Storyboard Layer 2 (Pass)
//Storyboard Layer 3 (Foreground)
//Storyboard Layer 4 (Overlay)
//Storyboard Sound Samples

[TimingPoints]
569,303.030303030303,4,2,1,50,1,0
1781,-111.111111111111,4,2,1,65,0,0
6629,-111.111111111111,4,2,1,75,0,0
8447,-111.111111111111,4,2,1,85,0,0
9053,-111.111111111111,4,2,1,75,0,0
11478,-111.111111111111,4,2,1,50,0,0
21175,-111.111111111111,4,2,1,60,0,0
30872,-111.111111111111,4,2,1,50,0,0
35114,-111.111111111111,4,2,1,65,0,0
35720,-111.111111111111,4,2,1,60,0,0
38144,-111.111111111111,4,2,1,65,0,0
38750,-111.111111111111,4,2,1,70,0,0
39356,-111.111111111111,4,2,1,75,0,0
39962,-111.111111111111,4,2,1,80,0,0
40568,-111.111111111111,4,2,1,85,0,0
41175,-111.111111111111,4,2,1,90,0,0
41478,-111.111111111111,4,2,1,95,0,0
41781,-111.111111111111,4,2,1,80,0,1
47538,-111.111111111111,4,2,1,90,0,1
47841,-111.111111111111,4,2,1,80,0,1
48750,-111.111111111111,4,2,1,90,0,1
49053,-111.111111111111,4,2,1,80,0,1
57235,-111.111111111111,4,2,1,90,0,1
57538,-111.111111111111,4,2,1,80,0,1
58447,-111.111111111111,4,2,1,90,0,1
58750,-111.111111111111,4,2,1,80,0,1
61175,-111.111111111111,4,2,1,70,0,1
70872,-111.111111111111,4,2,1,80,0,1
71326,-111.111111111111,4,2,1,70,0,1
71781,-111.111111111111,4,2,1,60,0,1
72084,338.983050847458,4,2,1,70,1,1
72761,342.857142857143,4,2,1,60,1,1
73446,402.684563758389,4,2,2,50,1,0
76656,408.163265306122,4,2,2,50,1,0
78238,405.405405405405,4,2,2,50,1,0
79847,408.163265306122,4,2,2,50,1,0
81442,405.405405405405,4,2,2,50,1,0
84310,500,4,2,2,40,1,0
84795,500,4,2,2,40,1,0
85795,576.923076923077,4,2,2,30,1,0
86948,681.818181818182,4,2,2,30,1,0
87970,-111.111111111111,4,2,2,10,0,0

[Colours]
Combo1 : 255,128,64
Combo2 : 128,255,128
Combo3 : 128,255,255
Combo4 : 255,128,128
Combo5 : 255,255,128
Combo6 : 255,128,255

[HitObjects]
61,315,1781,6,0,P|61:243|137:240,1,161.999995056153,4|2,0:0|0:0,0:0:0:0:
312,212,2993,2,0,P|385:209|386:136,1,161.999995056153,2|2,0:0|0:0,0:0:0:0:
242,31,4205,6,0,B|162:-1|162:67|86:31,2,161.999995056153,2|2|2,0:0|0:0|0:0,0:0:0:0:
387,136,6023,1,2,0:0:0:0:
255,256,6629,6,0,B|232:290|232:290|247:371,2,121.499996292114,4|4|4,1:0|1:0|1:0,0:0:0:0:
420,46,8447,2,0,P|430:85|434:127,1,80.9999975280763,4|4,1:0|1:0,0:0:0:0:
400,208,9053,6,0,B|366:231|366:231|285:216,1,121.499996292114,4|4,1:0|1:0,0:0:0:0:
256,192,9962,12,4,11478,1:0:0:0:
106,61,16326,6,0,L|96:104,1,40.4999987640381,4|2,1:0|1:0,0:0:0:0:
184,112,20569,6,0,L|194:155,1,40.4999987640381,4|2,1:0|1:0,0:0:0:0:
269,261,21175,6,0,P|308:253|346:264,2,80.9999975280763,4|2|2,1:0|1:0|1:0,0:0:0:0:
187,297,22084,1,2,1:0:0:0:
103,265,22387,2,0,L|116:184,2,80.9999975280763,2|2|2,1:0|1:0|1:0,0:0:0:0:
117,352,23296,1,2,1:0:0:0:
187,297,23599,6,0,P|243:286|306:312,1,121.499996292114,2|2,1:0|0:0,0:0:0:0:
374,360,24356,1,2,0:0:0:0:
454,322,24659,2,0,B|471:285|471:285|453:203,1,121.499996292114,2|2,0:0|1:0,0:0:0:0:
375,163,25417,2,0,L|393:84,1,80.9999975280763,2|2,1:0|1:0,0:0:0:0:
336,15,26023,6,0,B|298:7|298:7|232:59|232:59|192:60,1,161.999995056153,4|2,1:0|1:0,0:0:0:0:
103,62,26932,1,2,1:0:0:0:
34,226,27538,2,0,P|21:263|29:302,2,80.9999975280763,2|2|2,1:0|1:0|1:0,0:0:0:0:
107,176,28447,6,0,B|144:168|144:168|210:220|210:220|250:221,1,161.999995056153,2|2,1:0|1:0,0:0:0:0:
340,223,29356,1,2,1:0:0:0:
453,86,29962,2,0,P|424:58|385:49,2,80.9999975280763,10|10|2,1:0|1:0|1:0,0:0:0:0:
482,170,30872,6,0,B|450:250|518:250|482:326,1,161.999995056153,4|10,0:0|0:0,0:0:0:0:
304,315,32084,2,0,P|224:314|157:365,1,161.999995056153,2|10,1:0|0:0,0:0:0:0:
10,263,33296,6,0,P|9:183|60:116,1,161.999995056153,4|10,1:0|0:0,0:0:0:0:
209,29,34508,2,0,P|290:35|372:54,1,161.999995056153,2|10,1:0|0:0,0:0:0:0:
450,89,35417,1,10,0:0:0:0:
470,175,35720,6,0,P|461:229|380:205,1,161.999995056153,4|2,1:0|0:0,0:0:0:0:
246,86,36932,2,0,P|184:49|155:115,1,161.999995056153,2|2,1:0|0:0,0:0:0:0:
250,266,38144,5,4,1:0:0:0:
96,355,38750,1,2,1:0:0:0:
11,196,39356,2,0,P|18:155|40:117,1,80.9999975280763,2|0,1:0|1:0,0:0:0:0:
87,47,39962,6,0,B|113:24|139:2|252:43|252:80|254:112|255:149|256:181|369:222|387:197|411:169,1,404.999987640381,10|4,1:0|0:0,0:0:0:0:
474,106,41781,1,12,1:0:0:0:
507,281,42387,6,0,P|464:285|425:302,1,80.9999975280763,10|10,1:0|1:0,0:0:0:0:
353,345,42993,2,0,B|306:332|273:348|273:348|248:317|198:303,1,161.999995056153,10|10,1:0|1:0,0:0:0:0:
122,276,43902,1,10,1:0:0:0:
36,302,44205,1,10,1:0:0:0:
36,123,44811,6,0,P|79:127|118:144,1,80.9999975280763,10|10,1:0|1:0,0:0:0:0:
191,184,45417,2,0,P|271:196|331:137,1,161.999995056153,10|10,1:0|1:0,0:0:0:0:
376,70,46326,1,10,1:0:0:0:
317,2,46629,5,12,1:0:0:0:
228,11,46932,2,0,P|186:15|149:25,1,80.9999975280763,10|10,1:0|1:0,0:0:0:0:
66,59,47538,1,12,1:0:0:0:
172,201,48144,2,0,P|211:190|251:186,1,80.9999975280763,10|10,1:0|1:0,0:0:0:0:
340,184,48750,1,12,1:0:0:0:
412,236,49053,6,0,P|426:293|398:346,1,121.499996292114,10|10,1:0|0:0,0:0:0:0:
309,345,49811,1,2,0:0:0:0:
220,338,50114,2,0,B|187:355|172:375|172:375|148:365|113:366,1,121.499996292114,4|10,1:0|1:0,0:0:0:0:
35,322,50872,2,0,P|36:282|45:241,1,80.9999975280763,10|10,1:0|1:0,0:0:0:0:
68,156,51478,1,12,1:0:0:0:
226,237,52084,6,0,P|266:238|305:246,1,80.9999975280763,10|10,1:0|1:0,0:0:0:0:
391,271,52690,2,0,P|442:211|429:134,1,161.999995056153,10|10,1:0|1:0,0:0:0:0:
373,65,53599,1,10,1:0:0:0:
286,86,53902,1,10,1:0:0:0:
111,48,54508,6,0,P|102:87|101:127,1,80.9999975280763,10|10,1:0|1:0,0:0:0:0:
128,212,55114,2,0,B|170:223|194:254|194:254|228:238|274:251,1,161.999995056153,10|10,1:0|1:0,0:0:0:0:
354,290,56023,1,10,1:0:0:0:
436,257,56326,5,12,1:0:0:0:
465,172,56629,2,0,P|463:131|455:92,1,80.9999975280763,10|10,1:0|1:0,0:0:0:0:
422,9,57235,1,12,1:0:0:0:
249,55,57841,2,0,P|250:95|258:134,1,80.9999975280763,10|10,1:0|1:0,0:0:0:0:
292,218,58447,1,12,1:0:0:0:
255,299,58750,6,0,P|193:292|138:324,1,121.499996292114,10|10,1:0|0:0,0:0:0:0:
55,341,59508,1,2,0:0:0:0:
7,265,59811,2,0,L|26:142,1,121.499996292114,4|10,1:0|1:0,0:0:0:0:
84,77,60568,2,0,P|124:78|163:86,1,80.9999975280763,10|10,1:0|1:0,0:0:0:0:
237,137,61175,6,0,B|313:173|313:105|393:137,1,161.999995056153,4|10,1:0|0:0,0:0:0:0:
461,193,62084,1,10,0:0:0:0:
445,280,62387,2,0,P|385:325|311:292,1,161.999995056153,10|10,0:0|0:0,0:0:0:0:
282,209,63296,1,10,0:0:0:0:
307,123,63599,6,0,L|333:44,2,80.9999975280763,10|10|10,0:0|0:0|0:0,0:0:0:0:
146,200,64811,2,0,L|171:276,1,80.9999975280763,10|10,0:0|0:0,0:0:0:0:
250,318,65417,2,0,L|326:292,1,80.9999975280763,10|10,0:0|0:0,0:0:0:0:
369,214,66023,6,0,P|408:210|449:228,2,80.9999975280763,4|10|10,1:0|0:0|0:0,0:0:0:0:
280,218,66932,1,10,0:0:0:0:
195,247,67235,2,0,L|204:86,1,161.999995056153,10|10,0:0|0:0,0:0:0:0:
283,44,68144,1,10,0:0:0:0:
371,53,68447,6,0,P|438:26|482:93,1,161.999995056153,10|10,0:0|0:0,0:0:0:0:
383,238,69659,2,0,P|375:278|373:321,1,80.9999975280763,8|10,0:0|0:0,0:0:0:0:
284,311,70265,2,0,P|285:270|293:231,1,80.9999975280763,10|10,1:0|1:0,0:0:0:0:
254,150,70872,6,0,P|200:122|140:134,2,121.499996292114,4|2|2,1:0|0:0|0:0,0:0:0:0:
342,159,72084,1,4,1:0:0:0:
497,41,72761,1,2,1:0:0:0:
507,209,73446,6,0,P|456:270|366:247,1,180,4|8,0:0|0:0,0:0:0:0:
298,177,74654,1,8,0:0:0:0:
247,92,75056,2,0,P|164:68|107:131,1,180,10|8,0:0|0:0,0:0:0:0:
165,314,76656,6,0,P|118:319|81:341,2,90,4|8|10,0:1|0:0|0:1,0:0:0:0:
255,354,77880,1,10,0:0:0:0:
339,330,78238,2,0,B|371:274|339:202|339:202|355:154,1,180,2|8,0:1|0:0,0:0:0:0:
397,68,79454,1,10,0:0:0:0:
320,11,79847,5,4,0:0:0:0:
124,43,80663,1,10,0:0:0:0:
293,129,81442,1,2,0:0:0:0:
99,171,82252,1,2,0:1:0:0:
276,261,83063,2,0,P|240:336|151:327,1,180,10|8,0:0|0:0,0:0:0:0:
81,263,84310,5,10,0:0:0:0:
87,166,84795,2,0,P|92:123|112:82,1,90,2|8,0:1|0:0,0:0:0:0:
194,23,85795,2,0,B|284:-6|269:76|367:53,1,180,10|2,0:0|0:0,0:0:0:0:
