osu file format v14

[General]
AudioFilename: audio.mp3
AudioLeadIn: 0
PreviewTime: 54370
Countdown: 0
SampleSet: Soft
StackLeniency: 0.4
Mode: 2
LetterboxInBreaks: 0
WidescreenStoryboard: 1

[Editor]
Bookmarks: 54450
DistanceSpacing: 1.3
BeatDivisor: 3
GridSize: 8
TimelineZoom: 2.699999

[Metadata]
Title:HIGH POWERED (TV Size)
TitleUnicode:HIGH POWERED (TV Size)
Artist:sphere
ArtistUnicode:スフィア
Creator:Secre
Version:SUPER HYPER ULTRA ULTIMATE DELUXE
Source:侵略!? イカ娘
Tags:chickenbible bastian jorkseljund nokashi Shinryaku!? Ika Musume Squid Girl The Invader Comes From the Bottom of the Sea! opening season two 2 japanese anime pop j-pop jpop short version
BeatmapID:2910258
BeatmapSetID:1411668

[Difficulty]
HPDrainRate:5
CircleSize:4
OverallDifficulty:9.2
ApproachRate:9.2
SliderMultiplier:1.85
SliderTickRate:2

[Events]
//Background and Video events
0,0,"guras home.jpg",0,0
//Break Periods
//Storyboard Layer 0 (Background)
//Storyboard Layer 1 (Fail)
//Storyboard Layer 2 (Pass)
//Storyboard Layer 3 (Foreground)
//Storyboard Layer 4 (Overlay)
//Storyboard Sound Samples

[TimingPoints]
547,320.855614973262,4,2,1,40,1,0
547,-100,4,2,1,40,0,0
5680,-100,4,2,1,50,0,0
15948,-100,4,2,1,60,0,0
20440,-100,4,2,1,50,0,0
21081,-100,4,2,1,40,0,0
31669,-100,4,2,1,50,0,0
51883,-100,4,2,1,50,0,0
54450,-100,4,2,1,70,0,1
70172,-100,4,2,1,70,0,1
71456,-100,4,2,1,70,0,1
74985,-100,4,2,1,70,0,1
84290,-100,4,2,1,70,0,1
85252,-100,4,2,1,40,0,0
89103,-100,4,2,1,20,0,0

[Colours]
Combo1 : 255,87,87
Combo2 : 0,238,238
Combo3 : 238,238,0
Combo4 : 55,155,255

[HitObjects]
370,215,547,6,0,L|375:92,1,92.5,4|0,0:0|0:0,0:0:0:0:
224,110,867,1,0,3:0:0:0:
376,103,1028,1,0,0:0:0:0:
129,221,1188,2,0,L|126:116,1,92.5,0|0,3:0|0:0,0:0:0:0:
224,110,1509,1,0,3:0:0:0:
389,215,1669,6,0,L|388:106,1,92.5,0|0,0:0|3:0,0:0:0:0:
296,117,1990,1,0,0:0:0:0:
151,205,2151,2,0,L|152:98,1,92.5,0|0,3:0|0:0,0:0:0:0:
296,117,2472,2,0,L|299:9,1,92.5,0|0,3:0|0:0,0:0:0:0:
152,109,2792,2,0,L|147:6,1,92.5,0|0,3:0|0:0,0:0:0:0:
407,224,3113,6,0,L|408:118,1,92.5,0|0,3:0|0:0,0:0:0:0:
244,106,3434,2,0,L|120:109,1,92.5,0|0,3:0|0:0,0:0:0:0:
321,211,3755,2,0,L|420:213,2,92.5,0|0|0,3:0|0:0|3:0,0:0:0:0:
60,273,4236,6,0,L|58:160,1,92.5,4|0,0:0|3:0,0:0:0:0:
204,168,4557,2,0,L|203:63,1,92.5,4|0,0:0|3:0,0:0:0:0:
111,73,4878,1,4,0:0:0:0:
354,164,5038,2,0,L|360:69,1,92.5,0|0,3:0|3:0,0:0:0:0:
111,73,5359,2,0,L|103:-29,1,92.5,0|0,3:0|3:0,0:0:0:0:
343,102,5680,6,0,L|447:100,1,92.5,4|0,0:0|3:0,0:0:0:0:
273,166,6001,2,0,L|271:57,1,92.5,8|0,0:0|3:0,0:0:0:0:
431,61,6322,1,0,3:0:0:0:
270,79,6482,2,0,L|151:78,1,92.5,0|8,3:0|0:0,0:0:0:0:
424,232,6803,6,0,L|425:107,1,92.5,0|0,3:0|3:0,0:0:0:0:
176,137,7124,1,0,3:0:0:0:
317,132,7284,1,8,0:0:0:0:
176,137,7445,1,0,3:0:0:0:
317,132,7605,2,0,L|321:22,1,92.5,0|0,3:0|3:0,0:0:0:0:
176,137,7926,2,0,L|169:34,1,92.5,8|0,0:0|3:0,0:0:0:0:
225,30,8167,1,0,3:0:0:0:
445,184,8247,6,0,L|451:82,1,92.5,4|0,0:0|3:0,0:0:0:0:
291,136,8568,2,0,L|285:37,1,92.5,8|0,0:0|3:0,0:0:0:0:
443,46,8889,1,0,3:0:0:0:
290,132,9049,2,0,L|189:134,1,92.5,0|8,3:0|0:0,0:0:0:0:
438,281,9370,6,0,L|439:146,1,92.5,0|4,3:0|3:0,0:0:0:0:
190,156,9691,1,4,3:0:0:0:
336,107,9851,1,4,3:0:0:0:
482,87,10012,1,4,3:0:0:0:
190,156,10172,2,0,L|84:152,1,92.5,4|4,3:0|3:0,0:0:0:0:
146,224,10413,1,0,0:0:0:0:
346,193,10493,2,0,L|396:191,1,46.25,4|0,3:0|3:0,0:0:0:0:
191,98,10653,2,0,L|129:95,1,46.25,0|0,3:0|3:0,0:0:0:0:
372,119,10814,6,0,L|374:19,1,92.5,4|0,0:0|3:0,0:0:0:0:
150,54,11135,2,0,L|31:53,1,92.5,8|0,0:0|3:0,0:0:0:0:
209,202,11456,2,0,L|212:93,1,92.5,8|8,3:0|3:0,0:0:0:0:
363,127,11776,2,0,L|366:23,1,92.5,8|0,0:0|3:0,0:0:0:0:
126,64,12097,6,0,L|18:62,2,92.5,8|0|8,3:0|3:0|0:0,0:0:0:0:
386,224,12579,1,0,3:0:0:0:
388,177,12659,1,0,3:0:0:0:
391,131,12739,1,8,3:0:0:0:
107,173,12899,1,8,3:0:0:0:
249,144,13060,1,8,0:0:0:0:
391,131,13220,1,0,3:0:0:0:
107,173,13381,6,0,L|102:58,1,92.5,8|0,3:0|3:0,0:0:0:0:
388,79,13702,1,8,0:0:0:0:
107,173,13862,2,0,L|220:170,1,92.5,0|8,3:0|3:0,0:0:0:0:
443,157,14183,1,8,3:0:0:0:
188,149,14343,1,8,0:0:0:0:
443,157,14504,6,0,L|447:47,1,92.5,0|8,3:0|3:0,0:0:0:0:
176,246,14825,1,0,3:0:0:0:
318,250,14985,1,8,0:0:0:0:
176,246,15145,1,0,3:0:0:0:
447,251,15306,2,0,L|453:115,1,92.5,8|8,3:0|3:0,0:0:0:0:
391,147,15546,1,0,3:0:0:0:
195,100,15627,2,0,L|126:99,1,46.25,8|0,0:0|3:0,0:0:0:0:
350,64,15787,2,0,L|407:64,1,46.25,0|0,3:0|0:0,0:0:0:0:
160,188,15948,6,0,L|54:185,2,92.5,4|0|8,0:0|3:0|0:0,0:0:0:0:
447,217,16429,1,0,3:0:0:0:
446,170,16509,1,0,3:0:0:0:
446,124,16589,1,8,3:0:0:0:
161,175,16750,1,8,3:0:0:0:
304,144,16910,1,8,0:0:0:0:
446,124,17071,1,0,3:0:0:0:
161,175,17231,6,0,L|162:69,1,92.5,8|0,3:0|3:0,0:0:0:0:
301,67,17552,1,8,0:0:0:0:
67,190,17712,1,0,3:0:0:0:
65,143,17792,1,0,3:0:0:0:
64,97,17872,1,8,3:0:0:0:
349,148,18033,1,8,3:0:0:0:
206,117,18193,1,8,0:0:0:0:
64,97,18354,1,0,3:0:0:0:
332,229,18514,6,0,L|338:121,1,92.5,8|0,3:0|3:0,0:0:0:0:
61,153,18835,2,0,L|52:36,1,92.5,8|0,0:0|3:0,0:0:0:0:
110,51,19076,1,0,3:0:0:0:
293,151,19156,2,0,L|371:153,1,46.25,8|0,3:0|3:0,0:0:0:0:
179,99,19317,2,0,L|169:25,1,46.25,0|0,3:0|3:0,0:0:0:0:
332,64,19477,1,8,3:0:0:0:
107,237,19637,5,4,0:0:0:0:
67,217,19717,1,0,0:0:0:0:
68,173,19797,1,8,0:0:0:0:
108,154,19877,1,0,0:0:0:0:
285,176,19958,2,0,L|360:173,1,46.25,8|0,0:0|0:0,0:0:0:0:
173,91,20119,2,0,L|102:91,1,46.25,8|0,3:0|0:0,0:0:0:0:
332,64,20279,2,0,L|385:61,1,46.25
159,146,20440,6,0,L|127:147,1,23.125,0|0,3:0|0:0,0:0:0:0:
244,106,20600,2,0,L|277:108,1,23.125,0|0,3:0|0:0,0:0:0:0:
52,244,20760,2,0,P|6:215|56:169,1,138.75,8|0,3:0|0:0,0:0:0:0:
245,219,21081,6,0,L|250:20,1,185,4|0,0:0|3:0,0:0:0:0:
155,47,21563,1,0,0:0:0:0:
293,180,21723,2,0,P|357:150|286:95,1,185,0|0,3:0|3:0,0:0:0:0:
147,154,22204,6,0,L|144:55,1,92.5,0|0,0:0|3:0,0:0:0:0:
285,115,22525,2,0,L|286:13,1,92.5,0|0,0:0|3:0,0:0:0:0:
38,224,22846,2,0,L|36:114,1,92.5,0|0,0:0|3:0,0:0:0:0:
177,133,23167,2,0,L|79:130,2,92.5,0|0|0,0:0|3:0|0:0,0:0:0:0:
432,219,23648,6,0,L|436:113,1,92.5,2|0,3:0|0:0,0:0:0:0:
261,112,23969,2,0,L|160:114,1,92.5,0|0,3:0|0:0,0:0:0:0:
406,261,24290,2,0,P|450:229|376:138,1,185,0|0,3:0|3:0,0:0:0:0:
246,166,24771,6,0,L|241:68,1,92.5,0|0,0:0|3:0,0:0:0:0:
382,77,25092,1,0,0:0:0:0:
241,73,25252,1,0,3:0:0:0:
98,77,25413,2,0,L|153:77,1,46.25,8|8,0:0|0:0,0:0:0:0:
339,287,25573,1,8,3:0:0:0:
432,254,25733,1,8,3:0:0:0:
339,287,25893,1,8,3:0:0:0:
179,179,26055,1,8,3:0:0:0:
425,182,26215,6,0,L|429:72,1,92.5,4|0,0:0|0:0,0:0:0:0:
270,88,26536,2,0,L|165:85,1,92.5,0|0,3:0|0:0,0:0:0:0:
417,279,26857,2,0,P|473:241|406:158,1,185,0|0,3:0|3:0,0:0:0:0:
270,202,27338,6,0,L|268:97,1,92.5,0|0,0:0|3:0,0:0:0:0:
415,124,27659,2,0,L|418:14,1,92.5,0|0,0:0|3:0,0:0:0:0:
168,203,27980,2,0,L|164:79,1,92.5,0|0,0:0|3:0,0:0:0:0:
309,107,28301,1,0,3:0:0:0:
165,110,28461,1,0,3:0:0:0:
22,112,28621,1,0,0:0:0:0:
308,198,28782,6,0,L|307:80,1,92.5,2|0,3:0|3:0,0:0:0:0:
165,110,29103,1,0,3:0:0:0:
307,105,29263,1,0,0:0:0:0:
65,189,29424,1,0,3:0:0:0:
210,190,29584,1,0,3:0:0:0:
138,182,29664,1,0,3:0:0:0:
65,189,29744,1,0,3:0:0:0:
346,245,29905,6,0,L|349:127,1,92.5,8|0,0:0|3:0,0:0:0:0:
207,145,30226,1,0,3:0:0:0:
348,152,30386,1,0,3:0:0:0:
487,152,30546,1,8,0:0:0:0:
169,284,30707,1,8,3:0:0:0:
146,279,30747,1,0,0:0:0:0:
129,264,30787,1,0,0:0:0:0:
122,242,30827,1,0,0:0:0:0:
128,220,30867,1,8,3:0:0:0:
144,205,30907,1,0,0:0:0:0:
166,199,30947,1,0,0:0:0:0:
353,189,31028,1,8,3:0:0:0:
115,184,31188,6,0,P|56:153|139:88,1,185,4|0,0:0|3:0,0:0:0:0:
353,189,31669,2,0,L|352:86,1,92.5,8|0,0:0|0:0,0:0:0:0:
123,193,31990,2,0,L|225:190,2,92.5,0|0|8,3:0|3:0|0:0,0:0:0:0:
387,215,32472,6,0,L|388:96,1,92.5,0|0,3:0|3:0,0:0:0:0:
232,89,32792,2,0,L|131:89,1,92.5,0|8,3:0|0:0,0:0:0:0:
426,211,33113,2,0,L|426:94,1,92.5,0|0,3:0|3:0,0:0:0:0:
139,162,33434,1,0,3:0:0:0:
282,137,33595,1,8,0:0:0:0:
426,118,33755,1,0,3:0:0:0:
139,162,33915,6,0,L|38:162,1,92.5,0|0,3:0|3:0,0:0:0:0:
298,242,34236,2,0,L|406:242,1,92.5,8|0,0:0|3:0,0:0:0:0:
139,257,34557,1,0,3:0:0:0:
279,174,34718,1,0,3:0:0:0:
420,160,34878,1,8,0:0:0:0:
134,210,35038,6,0,L|129:107,1,92.5,0|0,3:0|3:0,0:0:0:0:
350,109,35359,1,8,0:0:0:0:
129,117,35520,1,8,0:0:0:0:
350,109,35680,1,8,0:0:0:0:
129,117,35841,1,0,3:0:0:0:
125,70,35921,1,0,3:0:0:0:
121,24,36001,1,0,3:0:0:0:
350,109,36161,1,4,3:0:0:0:
202,153,36322,2,0,L|256:154,1,46.25,0|0,3:0|3:0,0:0:0:0:
435,222,36482,6,0,L|441:99,1,92.5,4|0,0:0|3:0,0:0:0:0:
276,101,36803,2,0,L|178:98,1,92.5,8|0,0:0|3:0,0:0:0:0:
339,194,37124,2,0,L|342:88,1,92.5,0|0,3:0|3:0,0:0:0:0:
104,98,37445,1,8,0:0:0:0:
344,136,37605,6,0,L|446:131,1,92.5,0|0,3:0|3:0,0:0:0:0:
277,81,37926,2,0,L|177:82,1,92.5,0|8,3:0|0:0,0:0:0:0:
344,137,38247,2,0,L|348:21,1,92.5,0|0,3:0|3:0,0:0:0:0:
58,133,38568,1,0,3:0:0:0:
198,131,38728,1,4,0:0:0:0:
58,133,38889,1,0,3:0:0:0:
335,219,39049,6,0,L|341:109,1,92.5,4|0,0:0|3:0,0:0:0:0:
58,133,39370,2,0,L|47:13,1,92.5,8|0,0:0|3:0,0:0:0:0:
307,93,39691,1,0,3:0:0:0:
237,92,39771,1,0,3:0:0:0:
167,94,39851,1,0,3:0:0:0:
307,93,40012,1,8,0:0:0:0:
83,248,40172,6,0,P|49:216|126:125,1,185,4|8,0:0|0:0,0:0:0:0:
355,187,40653,2,0,L|359:83,1,92.5,8|8,0:0|0:0,0:0:0:0:
295,84,40894,1,0,3:0:0:0:
120,216,40974,5,0,3:0:0:0:
79,202,41054,1,0,3:0:0:0:
78,158,41134,1,0,3:0:0:0:
119,145,41214,1,0,3:0:0:0:
283,163,41295,2,0,L|340:164,1,46.25,4|0,3:0|3:0,0:0:0:0:
122,72,41456,2,0,L|46:73,1,46.25,0|0,3:0|3:0,0:0:0:0:
250,224,41616,5,8,3:0:0:0:
479,226,41776,1,8,3:0:0:0:
225,149,42097,1,0,3:0:0:0:
465,155,42258,2,0,L|466:29,1,92.5,8|8,3:0|3:0,0:0:0:0:
208,82,42579,2,0,L|130:81,1,46.25,0|0,3:0|3:0,0:0:0:0:
334,180,42739,2,0,L|400:182,1,46.25,0|0,3:0|3:0,0:0:0:0:
128,139,42899,6,0,L|16:138,2,92.5,0|0|0,3:0|3:0|3:0,0:0:0:0:
375,262,43381,2,0,P|435:235|355:174,1,185,4|0,0:0|3:0,0:0:0:0:
239,142,43862,1,8,0:0:0:0:
378,162,44022,1,0,3:0:0:0:
135,263,44183,6,0,P|81:228|155:163,1,185,0|8,3:0|0:0,0:0:0:0:
288,192,44664,2,0,L|290:77,1,92.5,0|0,3:0|3:0,0:0:0:0:
138,127,44985,1,0,3:0:0:0:
136,80,45065,1,8,0:0:0:0:
135,34,45145,1,8,0:0:0:0:
371,214,45306,6,0,L|171:213,1,185,4|0,0:0|3:0,0:0:0:0:
448,236,45787,2,0,L|448:125,1,92.5,8|0,0:0|0:0,0:0:0:0:
163,151,46108,2,0,L|154:49,1,92.5,4|0,0:0|0:0,0:0:0:0:
426,71,46429,1,4,0:0:0:0:
120,243,46589,6,0,P|66:198|146:125,1,185,0|0,3:0|0:0,0:0:0:0:
272,124,47071,1,8,0:0:0:0:
123,121,47231,1,0,3:0:0:0:
389,233,47391,2,0,L|393:115,1,92.5,0|0,3:0|3:0,0:0:0:0:
166,136,47712,1,8,0:0:0:0:
235,121,47792,1,8,0:0:0:0:
306,109,47873,1,0,3:0:0:0:
79,226,48033,6,0,L|182:227,1,92.5,4|0,0:0|3:0,0:0:0:0:
442,122,48354,1,0,3:0:0:0:
171,226,48514,2,0,L|163:107,1,92.5,4|0,0:0|0:0,0:0:0:0:
305,122,48835,1,0,3:0:0:0:
164,133,48996,1,8,0:0:0:0:
25,127,49156,2,0,L|74:127,1,46.25,8|8,0:0|0:0,0:0:0:0:
284,221,49317,6,0,L|379:216,1,92.5,4|0,0:0|3:0,0:0:0:0:
221,133,49637,2,0,L|121:133,1,92.5,0|0,3:0|3:0,0:0:0:0:
365,276,49958,2,0,P|418:248|342:168,1,185,0|8,3:0|0:0,0:0:0:0:
215,154,50440,1,0,3:0:0:0:
452,197,50600,6,0,L|457:76,1,92.5,4|0,0:0|3:0,0:0:0:0:
185,99,50921,1,0,3:0:0:0:
415,159,51081,1,0,3:0:0:0:
417,112,51161,1,0,0:0:0:0:
420,66,51241,1,0,3:0:0:0:
157,229,51402,2,0,L|352:218,1,185,0|0,3:0|3:0,0:0:0:0:
56,271,51883,6,0,L|46:151,1,92.5,4|0,0:0|3:0,0:0:0:0:
286,157,52204,1,8,0:0:0:0:
48,178,52365,1,0,3:0:0:0:
296,227,52525,2,0,L|398:226,1,92.5,8|0,0:0|3:0,0:0:0:0:
142,142,52846,1,8,0:0:0:0:
377,119,53006,1,4,0:0:0:0:
115,254,53167,5,0,3:0:0:0:
76,233,53247,1,0,3:0:0:0:
78,190,53327,1,0,3:0:0:0:
118,173,53407,1,0,3:0:0:0:
305,160,53488,2,0,L|368:158,1,46.25,0|0,3:0|3:0,0:0:0:0:
148,117,53648,1,0,3:0:0:0:
105,108,53728,1,0,3:0:0:0:
101,65,53808,1,0,3:0:0:0:
141,49,53888,1,0,3:0:0:0:
380,283,53969,2,0,P|436:248|352:177,1,185,8|0,0:0|0:0,0:0:0:0:
141,134,54450,6,0,L|39:133,1,92.5,4|0,0:0|3:0,0:0:0:0:
286,220,54771,2,0,L|412:214,1,92.5,8|0,0:0|3:0,0:0:0:0:
140,131,55092,2,0,L|135:7,1,92.5,0|0,3:0|3:0,0:0:0:0:
404,68,55413,1,8,0:0:0:0:
141,131,55573,1,0,3:0:0:0:
404,68,55734,6,0,L|407:-42,1,92.5,0|0,3:0|3:0,0:0:0:0:
174,72,56055,2,0,L|56:76,1,92.5,8|0,0:0|3:0,0:0:0:0:
317,166,56375,1,0,3:0:0:0:
247,157,56456,1,0,3:0:0:0:
178,147,56536,1,0,3:0:0:0:
408,119,56696,1,8,0:0:0:0:
178,147,56857,1,0,3:0:0:0:
408,119,57017,6,0,L|416:9,1,92.5,0|0,3:0|3:0,0:0:0:0:
181,62,57338,2,0,L|73:62,1,92.5,8|0,0:0|3:0,0:0:0:0:
330,206,57659,2,0,L|431:204,1,92.5,0|0,3:0|3:0,0:0:0:0:
158,135,57980,2,0,L|42:137,1,92.5,8|0,0:0|3:0,0:0:0:0:
320,219,58301,6,0,L|114:217,1,185,0|8,3:0|0:0,0:0:0:0:
415,145,58782,1,0,3:0:0:0:
181,107,58942,2,0,L|75:106,1,92.5,0|0,3:0|3:0,0:0:0:0:
137,172,59183,1,0,3:0:0:0:
334,126,59263,2,0,L|386:122,1,46.25,8|0,0:0|3:0,0:0:0:0:
218,39,59424,2,0,L|146:40,1,46.25,0|0,3:0|3:0,0:0:0:0:
402,225,59584,6,0,L|404:112,1,92.5,4|0,0:0|3:0,0:0:0:0:
148,154,59905,1,8,0:0:0:0:
403,132,60065,1,0,3:0:0:0:
148,154,60226,2,0,L|37:155,1,92.5,0|0,3:0|3:0,0:0:0:0:
346,162,60546,1,8,0:0:0:0:
55,154,60707,1,0,3:0:0:0:
361,239,60867,6,0,L|364:124,1,92.5,0|0,3:0|3:0,0:0:0:0:
220,132,61188,2,0,L|218:30,1,92.5,8|0,0:0|3:0,0:0:0:0:
72,141,61509,2,0,L|69:31,1,92.5,0|0,3:0|3:0,0:0:0:0:
347,142,61830,2,0,L|447:136,1,92.5,8|0,0:0|3:0,0:0:0:0:
201,132,62151,5,0,3:0:0:0:
347,142,62311,1,0,3:0:0:0:
201,132,62472,1,8,0:0:0:0:
57,98,62632,1,0,3:0:0:0:
375,190,62792,2,0,L|378:79,1,92.5,0|0,3:0|3:0,0:0:0:0:
57,98,63113,2,0,L|49:0,1,92.5,8|0,0:0|3:0,0:0:0:0:
313,148,63434,6,0,L|200:146,1,92.5,0|0,3:0|3:0,0:0:0:0:
453,103,63755,1,8,0:0:0:0:
198,117,63915,2,0,L|86:117,1,92.5,0|0,3:0|3:0,0:0:0:0:
339,202,64236,2,0,L|414:198,1,46.25,0|0,3:0|3:0,0:0:0:0:
185,84,64397,2,0,L|117:86,1,46.25,8|0,0:0|3:0,0:0:0:0:
380,73,64557,2,0,L|438:73,1,46.25,0|0,3:0|3:0,0:0:0:0:
131,198,64718,6,0,L|124:71,1,92.5,4|0,0:0|3:0,0:0:0:0:
357,104,65038,2,0,L|454:102,1,92.5,8|0,0:0|3:0,0:0:0:0:
203,99,65359,1,0,3:0:0:0:
436,142,65520,1,0,3:0:0:0:
296,82,65680,1,8,0:0:0:0:
153,110,65841,1,0,3:0:0:0:
436,142,66001,6,0,L|436:22,1,92.5,0|0,3:0|3:0,0:0:0:0:
153,110,66322,2,0,L|37:117,1,92.5,8|0,0:0|3:0,0:0:0:0:
321,211,66643,1,0,3:0:0:0:
323,164,66723,1,0,3:0:0:0:
326,118,66803,1,0,3:0:0:0:
79,163,66964,1,8,0:0:0:0:
326,118,67124,1,0,3:0:0:0:
79,163,67284,6,0,L|74:69,1,92.5,0|0,3:0|3:0,0:0:0:0:
326,118,67605,2,0,L|433:116,1,92.5,8|0,0:0|3:0,0:0:0:0:
146,169,67926,2,0,L|142:62,1,92.5,0|0,3:0|3:0,0:0:0:0:
408,68,68247,2,0,L|506:66,1,92.5,8|0,0:0|3:0,0:0:0:0:
208,171,68568,5,0,3:0:0:0:
280,155,68648,1,0,3:0:0:0:
350,147,68728,1,0,3:0:0:0:
208,171,68889,1,8,0:0:0:0:
441,100,69049,1,0,3:0:0:0:
166,90,69210,2,0,L|47:95,1,92.5,0|0,3:0|3:0,0:0:0:0:
122,143,69450,1,0,3:0:0:0:
325,131,69530,2,0,L|377:127,1,46.25,8|0,0:0|3:0,0:0:0:0:
165,47,69691,2,0,L|85:46,1,46.25,0|0,3:0|3:0,0:0:0:0:
370,238,69851,6,0,L|378:121,1,92.5,0|0,3:0|3:0,0:0:0:0:
28,124,70172,2,0,L|21:16,1,92.5,8|0,0:0|3:0,0:0:0:0:
336,60,70493,1,0,3:0:0:0:
88,219,70653,1,0,3:0:0:0:
84,172,70733,1,0,0:0:0:0:
81,126,70813,1,8,0:0:0:0:
349,134,70974,1,0,3:0:0:0:
81,126,71135,6,0,L|75:23,1,92.5,0|0,3:0|3:0,0:0:0:0:
350,71,71456,2,0,L|454:68,1,92.5,8|0,0:0|3:0,0:0:0:0:
146,104,71776,1,0,3:0:0:0:
438,170,71937,1,0,3:0:0:0:
300,159,72097,1,8,0:0:0:0:
438,170,72258,1,0,3:0:0:0:
176,141,72418,6,0,L|44:147,1,92.5,0|0,3:0|3:0,0:0:0:0:
322,262,72739,2,0,L|433:261,1,92.5,8|0,0:0|3:0,0:0:0:0:
148,87,73060,2,0,L|52:88,1,92.5,0|0,3:0|3:0,0:0:0:0:
376,85,73381,2,0,L|473:83,1,92.5,8|0,0:0|3:0,0:0:0:0:
150,198,73702,6,0,L|137:89,1,92.5,0|0,3:0|3:0,0:0:0:0:
377,138,74022,2,0,L|385:13,1,92.5,8|0,0:0|3:0,0:0:0:0:
109,125,74343,2,0,L|175:122,1,46.25,0|0,3:0|3:0,0:0:0:0:
327,133,74504,2,0,L|413:132,1,46.25,0|0,3:0|3:0,0:0:0:0:
203,52,74664,2,0,L|129:53,1,46.25,8|0,0:0|3:0,0:0:0:0:
382,58,74825,2,0,L|440:56,1,46.25,0|0,3:0|3:0,0:0:0:0:
188,247,74985,6,0,L|171:131,1,92.5,4|0,0:0|3:0,0:0:0:0:
326,153,75306,2,0,L|333:51,1,92.5,8|0,0:0|3:0,0:0:0:0:
94,224,75627,1,0,3:0:0:0:
20,176,75787,1,0,3:0:0:0:
23,88,75947,1,8,0:0:0:0:
102,48,76108,1,0,3:0:0:0:
349,191,76268,6,0,L|354:79,1,92.5,0|0,3:0|3:0,0:0:0:0:
205,102,76589,1,8,0:0:0:0:
353,98,76750,1,0,3:0:0:0:
89,180,76910,1,0,3:0:0:0:
87,133,76990,1,0,3:0:0:0:
85,87,77070,1,0,3:0:0:0:
230,85,77231,1,8,0:0:0:0:
85,87,77391,1,0,3:0:0:0:
376,206,77552,6,0,L|384:107,1,92.5,0|0,3:0|3:0,0:0:0:0:
231,111,77873,2,0,L|116:118,1,92.5,8|0,0:0|3:0,0:0:0:0:
373,179,78194,1,0,3:0:0:0:
231,111,78354,2,0,L|231:5,1,92.5,0|8,3:0|0:0,0:0:0:0:
484,182,78675,6,0,L|492:62,1,92.5,0|0,3:0|3:0,0:0:0:0:
201,146,78996,1,0,3:0:0:0:
425,170,79156,2,0,L|437:64,1,92.5,8|0,0:0|3:0,0:0:0:0:
185,62,79477,2,0,L|79:69,1,92.5,0|0,3:0|3:0,0:0:0:0:
344,195,79798,1,8,0:0:0:0:
385,181,79878,1,0,3:0:0:0:
386,137,79958,1,0,3:0:0:0:
346,121,80038,1,0,3:0:0:0:
84,253,80119,6,0,P|26:212|103:142,1,185,0|8,3:0|0:0,0:0:0:0:
179,137,80600,1,0,3:0:0:0:
421,189,80760,2,0,L|423:89,1,92.5,0|0,3:0|3:0,0:0:0:0:
111,116,81081,2,0,L|102:7,1,92.5,8|0,0:0|3:0,0:0:0:0:
416,276,81402,6,0,P|468:240|386:170,1,185,0|8,3:0|0:0,0:0:0:0:
303,163,81883,1,0,3:0:0:0:
61,201,82044,1,0,3:0:0:0:
55,155,82124,1,0,3:0:0:0:
50,109,82204,1,0,3:0:0:0:
321,89,82365,2,0,L|428:89,1,92.5,8|0,0:0|3:0,0:0:0:0:
167,154,82686,6,0,L|160:37,1,92.5,0|0,3:0|3:0,0:0:0:0:
421,119,83006,2,0,L|428:-1,1,92.5,8|0,0:0|3:0,0:0:0:0:
147,90,83327,1,0,3:0:0:0:
386,121,83488,2,0,L|487:120,1,92.5,0|8,3:0|0:0,0:0:0:0:
180,180,83809,5,0,3:0:0:0:
348,153,84129,1,0,3:0:0:0:
92,171,84290,2,0,L|88:62,1,92.5,0|0,3:0|3:0,0:0:0:0:
148,71,84530,1,0,3:0:0:0:
322,102,84611,6,0,L|431:97,1,92.5,0|0,3:0|3:0,0:0:0:0:
194,145,84932,2,0,L|107:147,1,46.25,8|0,0:0|3:0,0:0:0:0:
327,237,85092,2,0,L|391:237,1,46.25,8|0,0:0|3:0,0:0:0:0:
134,274,85252,5,4,0:0:0:0:
55,234,85412,1,0,0:0:0:0:
56,147,85572,1,0,3:0:0:0:
136,110,85733,1,0,0:0:0:0:
271,173,85894,2,0,L|276:64,1,92.5,0|0,3:0|0:0,0:0:0:0:
136,110,86215,2,0,L|132:1,1,92.5,0|0,3:0|0:0,0:0:0:0:
416,148,86536,5,8,3:0:0:0:
278,145,86696,1,8,0:0:0:0:
416,148,86857,1,8,3:0:0:0:
98,299,87017,2,0,P|44:262|131:177,1,185,12|0,0:0|3:0,0:0:0:0:
378,176,87498,5,8,3:0:0:0:
256,192,87659,12,0,89103,0:0:0:0:
