osu file format v14

[General]
AudioFilename: audio.mp3
AudioLeadIn: 0
PreviewTime: 54370
Countdown: 0
SampleSet: Soft
StackLeniency: 0.4
Mode: 2
LetterboxInBreaks: 0
WidescreenStoryboard: 1

[Editor]
Bookmarks: 54450
DistanceSpacing: 1.3
BeatDivisor: 4
GridSize: 8
TimelineZoom: 2.2

[Metadata]
Title:HIGH POWERED (TV Size)
TitleUnicode:HIGH POWERED (TV Size)
Artist:sphere
ArtistUnicode:スフィア
Creator:Secre
Version:CUP
Source:侵略!? イカ娘
Tags:chickenbible bastian jorkseljund nokashi Shinryaku!? Ika Musume Squid Girl The Invader Comes From the Bottom of the Sea! opening season two 2 japanese anime pop j-pop jpop short version
BeatmapID:2931295
BeatmapSetID:1411668

[Difficulty]
HPDrainRate:2
CircleSize:2.5
OverallDifficulty:6
ApproachRate:6
SliderMultiplier:1.41
SliderTickRate:1

[Events]
//Background and Video events
0,0,"guras home.jpg",0,0
//Break Periods
//Storyboard Layer 0 (Background)
//Storyboard Layer 1 (Fail)
//Storyboard Layer 2 (Pass)
//Storyboard Layer 3 (Foreground)
//Storyboard Layer 4 (Overlay)
//Storyboard Sound Samples

[TimingPoints]
547,320.855614973262,4,2,1,40,1,0
547,-100,4,2,1,40,0,0
5680,-100,4,2,1,50,0,0
15948,-100,4,2,1,60,0,0
20440,-100,4,2,1,50,0,0
21081,-100,4,2,1,40,0,0
31669,-100,4,2,1,50,0,0
51883,-100,4,2,1,50,0,0
54450,-100,4,2,1,70,0,1
70172,-100,4,2,1,70,0,1
71456,-100,4,2,1,70,0,1
74985,-100,4,2,1,70,0,1
84290,-100,4,2,1,70,0,1
85252,-100,4,2,1,40,0,0
89103,-100,4,2,1,20,0,0

[Colours]
Combo1 : 255,87,87
Combo2 : 0,238,238
Combo3 : 238,238,0
Combo4 : 55,155,255

[HitObjects]
376,275,547,6,0,L|233:274,2,141,4|0|0,0:0|3:0|3:0,0:0:0:0:
162,242,1669,6,0,L|153:78,1,141
298,146,2311,2,0,L|301:-4,1,141
111,183,3113,6,0,L|278:185,2,141,0|0|0,3:0|3:0|3:0,0:0:0:0:
301,234,4236,6,0,L|302:81,1,141,4|4,0:0|0:0,0:0:0:0:
168,84,4878,1,4,0:0:0:0:
236,90,5038,2,0,L|235:14,1,70.5,0|0,3:0|3:0,0:0:0:0:
168,84,5359,1,0,3:0:0:0:
303,190,5680,6,0,L|453:191,1,141,4|8,0:0|0:0,0:0:0:0:
316,118,6322,2,0,L|315:39,1,70.5,0|0,3:0|3:0,0:0:0:0:
173,126,6803,6,0,L|318:121,1,141,0|0,3:0|3:0,0:0:0:0:
248,194,7284,1,8,0:0:0:0:
104,187,7605,2,0,L|98:20,1,141,0|8,3:0|0:0,0:0:0:0:
242,96,8247,6,0,L|83:100,1,141,4|8,0:0|0:0,0:0:0:0:
243,196,8889,2,0,L|249:113,1,70.5,0|0,3:0|3:0,0:0:0:0:
383,158,9370,6,0,L|224:151,1,141,0|4,3:0|3:0,0:0:0:0:
318,232,9851,1,4,3:0:0:0:
460,207,10172,2,0,L|463:112,1,70.5,4|4,3:0|3:0,0:0:0:0:
388,128,10493,1,4,3:0:0:0:
233,141,10814,6,0,L|76:142,1,141,4|8,0:0|0:0,0:0:0:0:
226,211,11456,2,0,L|234:117,1,70.5,8|8,3:0|3:0,0:0:0:0:
166,127,11776,1,8,0:0:0:0:
305,168,12097,6,0,L|470:168,1,141,8|8,3:0|0:0,0:0:0:0:
307,232,12739,2,0,L|306:149,1,70.5,8|8,3:0|3:0,0:0:0:0:
375,134,13060,1,8,0:0:0:0:
238,189,13381,5,8,3:0:0:0:
176,162,13541,1,0,3:0:0:0:
174,95,13701,1,8,0:0:0:0:
233,64,13862,1,0,3:0:0:0:
363,138,14183,2,0,L|363:60,1,70.5,8|8,3:0|0:0,0:0:0:0:
291,59,14504,6,0,L|125:62,1,141,0|0,3:0|3:0,0:0:0:0:
222,152,14985,1,8,0:0:0:0:
357,143,15306,2,0,L|429:143,2,70.5,8|8|8,3:0|3:0|0:0,0:0:0:0:
212,207,15948,6,0,L|201:111,1,70.5,4|0,0:0|3:0,0:0:0:0:
278,111,16268,1,8,0:0:0:0:
210,108,16429,1,0,3:0:0:0:
64,182,16750,2,0,L|56:100,1,70.5,8|8,3:0|0:0,0:0:0:0:
193,102,17231,6,0,L|193:26,1,70.5,8|0,3:0|3:0,0:0:0:0:
123,29,17552,1,8,0:0:0:0:
189,22,17712,1,0,3:0:0:0:
325,157,18033,2,0,L|332:73,1,70.5,8|8,3:0|0:0,0:0:0:0:
190,164,18514,6,0,L|341:163,1,141,8|8,3:0|0:0,0:0:0:0:
193,164,19156,2,0,L|97:166,2,70.5,8|0|8,3:0|3:0|3:0,0:0:0:0:
266,136,19637,1,4,0:0:0:0:
407,203,19958,6,0,L|412:112,1,70.5,8|8,0:0|3:0,0:0:0:0:
338,110,20279,1,0,0:0:0:0:
265,95,20440,2,0,L|118:92,1,141,0|8,3:0|3:0,0:0:0:0:
278,171,21081,6,0,L|433:167,1,141,4|0,0:0|3:0,0:0:0:0:
277,243,21723,2,0,L|273:83,1,141,0|0,3:0|3:0,0:0:0:0:
347,75,22204,5,0,0:0:0:0:
213,88,22525,1,0,0:0:0:0:
81,98,22846,1,0,0:0:0:0:
220,172,23167,2,0,L|219:94,1,70.5,0|0,0:0|3:0,0:0:0:0:
150,99,23488,1,0,0:0:0:0:
219,92,23648,6,0,L|315:94,1,70.5,2|0,3:0|0:0,0:0:0:0:
219,92,23969,2,0,L|211:11,1,70.5,0|0,3:0|0:0,0:0:0:0:
282,16,24290,1,0,3:0:0:0:
414,63,24611,1,0,3:0:0:0:
346,69,24771,6,0,L|191:70,1,141
279,150,25252,2,0,L|283:61,1,70.5,0|8,3:0|0:0,0:0:0:0:
217,68,25573,1,8,3:0:0:0:
82,76,25894,1,8,3:0:0:0:
232,179,26215,6,0,L|391:175,1,141,4|0,0:0|3:0,0:0:0:0:
232,236,26857,2,0,L|73:227,1,141,0|0,3:0|3:0,0:0:0:0:
161,172,27338,6,0,L|168:27,1,141
31,46,27980,1,0,0:0:0:0:
168,106,28301,2,0,L|173:17,1,70.5,0|0,3:0|3:0,0:0:0:0:
102,37,28621,1,0,0:0:0:0:
170,37,28782,6,0,L|246:33,1,70.5,2|0,3:0|3:0,0:0:0:0:
170,37,29103,2,0,L|92:38,1,70.5,0|0,3:0|0:0,0:0:0:0:
170,37,29424,1,0,3:0:0:0:
311,124,29744,1,0,3:0:0:0:
240,147,29905,6,0,L|234:4,1,141,8|0,0:0|3:0,0:0:0:0:
306,44,30386,2,0,L|307:-34,1,70.5,0|8,3:0|0:0,0:0:0:0:
238,37,30707,1,8,3:0:0:0:
103,105,31028,1,8,3:0:0:0:
174,111,31188,6,0,L|338:114,1,141,4|0,0:0|3:0,0:0:0:0:
244,182,31669,1,8,0:0:0:0:
103,223,31990,2,0,L|255:218,1,141,0|8,3:0|0:0,0:0:0:0:
172,172,32472,6,0,L|163:21,1,141,0|0,3:0|3:0,0:0:0:0:
302,31,33113,1,0,3:0:0:0:
442,99,33434,2,0,L|444:14,1,70.5,0|8,3:0|0:0,0:0:0:0:
373,31,33755,1,0,3:0:0:0:
304,131,33915,6,0,L|301:59,1,70.5,0|0,3:0|3:0,0:0:0:0:
373,31,34236,2,0,L|372:-52,1,70.5,8|0,0:0|3:0,0:0:0:0:
303,24,34557,1,0,3:0:0:0:
161,101,34878,1,8,0:0:0:0:
235,103,35038,6,0,L|385:96,1,141,0|8,3:0|0:0,0:0:0:0:
301,180,35520,2,0,L|301:77,1,70.5,8|8,0:0|0:0,0:0:0:0:
372,90,35841,1,0,3:0:0:0:
224,106,36161,2,0,L|218:31,1,70.5,4|0,3:0|3:0,0:0:0:0:
293,27,36482,6,0,L|442:29,1,141,4|8,0:0|0:0,0:0:0:0:
291,143,37124,2,0,L|132:144,1,141,0|8,3:0|0:0,0:0:0:0:
220,214,37605,5,0,3:0:0:0:
356,219,37926,1,0,3:0:0:0:
491,216,38247,1,0,3:0:0:0:
356,219,38568,2,0,L|356:133,1,70.5,0|4,3:0|0:0,0:0:0:0:
427,122,38889,1,0,3:0:0:0:
356,112,39049,6,0,L|282:115,1,70.5,4|0,0:0|3:0,0:0:0:0:
356,112,39370,2,0,L|429:110,1,70.5,8|0,0:0|3:0,0:0:0:0:
356,112,39691,1,0,3:0:0:0:
212,142,40012,1,8,0:0:0:0:
283,153,40172,6,0,L|437:151,1,141,4|8,0:0|0:0,0:0:0:0:
358,226,40653,1,8,0:0:0:0:
211,168,40974,2,0,L|204:82,1,70.5,0|0,3:0|3:0,0:0:0:0:
281,89,41295,2,0,L|281:0,1,70.5,4|0,3:0|3:0,0:0:0:0:
208,25,41616,6,0,L|124:26,1,70.5,8|8,3:0|3:0,0:0:0:0:
284,167,42097,1,0,3:0:0:0:
343,152,42258,2,0,L|184:152,1,141,8|0,3:0|3:0,0:0:0:0:
215,153,42739,1,0,3:0:0:0:
286,65,42899,6,0,L|437:67,1,141,0|0,3:0|3:0,0:0:0:0:
353,128,43381,1,4,0:0:0:0:
216,122,43702,1,0,3:0:0:0:
216,122,43862,1,8,0:0:0:0:
286,122,44022,1,0,3:0:0:0:
358,135,44183,6,0,L|364:-16,1,141,0|8,3:0|0:0,0:0:0:0:
296,7,44664,1,0,3:0:0:0:
162,45,44985,2,0,L|156:-36,1,70.5,0|8,3:0|0:0,0:0:0:0:
234,64,45306,6,0,L|380:67,1,141,4|0,0:0|3:0,0:0:0:0:
304,153,45787,1,8,0:0:0:0:
447,154,46108,1,4,0:0:0:0:
304,153,46429,1,4,0:0:0:0:
372,165,46589,6,0,L|368:9,1,141,0|0,3:0|0:0,0:0:0:0:
304,153,47071,1,8,0:0:0:0:
175,159,47391,2,0,L|169:69,1,70.5,0|0,3:0|3:0,0:0:0:0:
241,56,47712,1,8,0:0:0:0:
391,167,48033,6,0,L|232:163,1,141,4|0,0:0|3:0,0:0:0:0:
328,238,48514,2,0,L|470:238,1,141,4|0,0:0|3:0,0:0:0:0:
398,177,48996,1,8,0:0:0:0:
263,162,49317,6,0,L|257:75,1,70.5,4|0,0:0|3:0,0:0:0:0:
328,79,49637,2,0,L|328:-7,1,70.5,0|0,3:0|3:0,0:0:0:0:
257,56,49958,2,0,L|91:57,1,141,0|8,3:0|0:0,0:0:0:0:
261,185,50600,6,0,L|418:185,1,141,4|0,0:0|3:0,0:0:0:0:
331,117,51081,1,0,3:0:0:0:
195,154,51402,2,0,L|359:156,1,141,0|0,3:0|3:0,0:0:0:0:
254,86,51883,6,0,L|100:85,1,141,4|8,0:0|0:0,0:0:0:0:
262,203,52525,2,0,L|419:202,1,141,8|8,0:0|0:0,0:0:0:0:
240,262,53167,6,0,L|235:99,1,141,0|0,3:0|3:0,0:0:0:0:
322,111,53648,2,0,L|321:17,1,70.5,0|0,3:0|3:0,0:0:0:0:
243,43,53969,1,8,0:0:0:0:
469,227,54450,6,0,L|472:56,1,141,4|8,0:0|0:0,0:0:0:0:
334,135,55092,1,0,3:0:0:0:
404,132,55252,1,0,3:0:0:0:
474,130,55412,1,8,0:0:0:0:
321,212,55734,6,0,L|160:215,1,141,0|8,3:0|0:0,0:0:0:0:
326,208,56375,2,0,L|335:64,1,141,0|8,3:0|0:0,0:0:0:0:
258,52,56857,1,0,3:0:0:0:
183,79,57017,6,0,L|27:80,1,141,0|8,3:0|0:0,0:0:0:0:
189,160,57659,2,0,L|36:161,1,141,0|8,3:0|0:0,0:0:0:0:
206,228,58301,6,0,L|372:222,1,141,0|8,3:0|0:0,0:0:0:0:
273,155,58782,1,0,3:0:0:0:
194,141,58942,2,0,L|192:62,1,70.5,0|0,3:0|3:0,0:0:0:0:
276,72,59263,2,0,L|275:-12,1,70.5,8|0,0:0|3:0,0:0:0:0:
201,20,59584,6,0,L|41:27,1,141,4|8,0:0|0:0,0:0:0:0:
215,157,60226,2,0,L|390:155,1,141,0|8,3:0|0:0,0:0:0:0:
199,227,60867,6,0,L|364:231,2,141,0|8|0,3:0|0:0|3:0,0:0:0:0:
47,131,61830,6,0,L|41:-21,1,141,8|0,0:0|3:0,0:0:0:0:
181,27,62472,1,8,0:0:0:0:
316,137,62792,2,0,L|170:136,1,141,0|8,3:0|0:0,0:0:0:0:
336,210,63434,6,0,L|336:60,1,141,0|8,3:0|0:0,0:0:0:0:
263,65,63915,1,0,3:0:0:0:
134,124,64236,2,0,L|34:126,2,70.5,0|8|0,3:0|0:0|3:0,0:0:0:0:
213,159,64718,6,0,L|384:159,1,141,4|8,0:0|0:0,0:0:0:0:
213,159,65359,2,0,L|55:163,1,141,0|8,3:0|0:0,0:0:0:0:
147,247,65841,1,0,3:0:0:0:
228,250,66001,6,0,L|235:105,1,141,0|8,3:0|0:0,0:0:0:0:
76,135,66643,2,0,L|69:-19,1,141,0|8,3:0|0:0,0:0:0:0:
150,29,67124,1,0,3:0:0:0:
230,99,67284,6,0,L|404:100,1,141,0|8,3:0|0:0,0:0:0:0:
231,99,67926,2,0,L|75:104,1,141,0|8,3:0|0:0,0:0:0:0:
236,184,68568,6,0,L|78:182,1,141,0|8,3:0|0:0,0:0:0:0:
165,255,69049,1,0,3:0:0:0:
239,192,69210,2,0,L|243:97,1,70.5,0|0,3:0|3:0,0:0:0:0:
166,118,69530,2,0,L|158:25,1,70.5,8|0,0:0|3:0,0:0:0:0:
251,60,69851,6,0,L|414:57,1,141,0|8,3:0|0:0,0:0:0:0:
248,61,70493,1,0,3:0:0:0:
319,132,70653,2,0,L|318:-17,1,141,0|0,3:0|3:0,0:0:0:0:
248,61,71135,5,0,3:0:0:0:
397,155,71456,2,0,L|242:153,1,141,8|0,0:0|3:0,0:0:0:0:
328,105,71937,2,0,L|479:104,1,141,0|0,3:0|3:0,0:0:0:0:
391,199,72418,6,0,L|219:192,1,141,0|8,3:0|0:0,0:0:0:0:
394,192,73060,2,0,L|225:189,1,141,0|8,3:0|0:0,0:0:0:0:
115,208,73702,6,0,L|111:105,1,70.5,0|0,3:0|3:0,0:0:0:0:
191,114,74022,2,0,L|189:21,1,70.5,8|0,0:0|3:0,0:0:0:0:
109,69,74343,2,0,L|107:-71,1,141,0|8,3:0|0:0,0:0:0:0:
262,181,74985,6,0,L|419:182,1,141,4|8,0:0|0:0,0:0:0:0:
250,199,75627,2,0,L|100:201,1,141,0|8,3:0|0:0,0:0:0:0:
261,200,76268,6,0,L|263:113,1,70.5,0|0,3:0|3:0,0:0:0:0:
193,114,76589,1,8,0:0:0:0:
321,154,76910,2,0,L|476:157,1,141,0|8,3:0|0:0,0:0:0:0:
323,152,77552,5,0,3:0:0:0:
166,207,77873,2,0,L|156:40,1,141,8|0,0:0|3:0,0:0:0:0:
233,52,78354,1,0,3:0:0:0:
388,181,78675,6,0,L|226:180,1,141,0|0,3:0|3:0,0:0:0:0:
321,244,79156,1,8,0:0:0:0:
179,144,79477,2,0,L|25:147,1,141,0|8,3:0|0:0,0:0:0:0:
189,227,80119,6,0,L|341:226,1,141,0|8,3:0|0:0,0:0:0:0:
181,207,80760,2,0,L|174:60,1,141,0|8,3:0|0:0,0:0:0:0:
346,78,81402,6,0,L|498:78,1,141,0|8,3:0|0:0,0:0:0:0:
337,186,82044,2,0,L|183:184,1,141,0|8,3:0|0:0,0:0:0:0:
365,233,82686,6,0,L|366:74,1,141,0|8,3:0|0:0,0:0:0:0:
215,99,83327,2,0,L|127:103,1,70.5,0|0,3:0|3:0,0:0:0:0:
281,209,83809,6,0,L|442:207,1,141,0|0,3:0|3:0,0:0:0:0:
348,147,84290,1,0,3:0:0:0:
204,169,84611,2,0,L|347:167,1,141,0|8,3:0|0:0,0:0:0:0:
177,228,85252,6,0,L|172:78,1,141,4|0,0:0|3:0,0:0:0:0:
299,75,85894,2,0,L|131:73,1,141,0|0,3:0|3:0,0:0:0:0:
311,204,86536,6,0,L|391:205,2,70.5,8|8|8,3:0|0:0|3:0,0:0:0:0:
239,211,87017,2,0,P|190:178|250:133,1,141,12|0,0:0|3:0,0:0:0:0:
309,114,87498,5,8,3:0:0:0:
256,192,87819,12,0,89103,0:0:0:0:
