osu file format v14

[General]
AudioFilename: audio.mp3
AudioLeadIn: 0
PreviewTime: 54370
Countdown: 0
SampleSet: Soft
StackLeniency: 0.4
Mode: 0
LetterboxInBreaks: 0
WidescreenStoryboard: 0

[Editor]
Bookmarks: 54450
DistanceSpacing: 1.2
BeatDivisor: 4
GridSize: 8
TimelineZoom: 2.699999

[Metadata]
Title:HIGH POWERED (TV Size)
TitleUnicode:HIGH POWERED (TV Size)
Artist:sphere
ArtistUnicode:スフィア
Creator:Azunyan-
Version:HIGH POWERED INSANE
Source:侵略!? イカ娘
Tags:Shinryaku!? Ika Musume Squid Girl The Invader Comes From the Bottom of the Sea! opening season two 2 japanese anime pop j-pop jpop short version Mayu Sakuma Xexyz
BeatmapID:2367604
BeatmapSetID:1133689

[Difficulty]
HPDrainRate:5
CircleSize:4
OverallDifficulty:7
ApproachRate:8.5
SliderMultiplier:1.6
SliderTickRate:1

[Events]
//Background and Video events
0,0,"cheerleader POG.jpg",0,0
//Break Periods
2,13581,15273
//Storyboard Layer 0 (Background)
//Storyboard Layer 1 (Fail)
//Storyboard Layer 2 (Pass)
//Storyboard Layer 3 (Foreground)
//Storyboard Layer 4 (Overlay)
//Storyboard Sound Samples

[TimingPoints]
547,320.855614973262,4,2,1,40,1,0
547,-166.666666666667,4,2,1,40,0,0
5680,-111.111111111111,4,2,1,50,0,0
15948,-111.111111111111,4,2,1,60,0,0
20440,-285.714285714284,4,2,1,50,0,0
21081,-133.333333333333,4,2,1,40,0,0
31669,-117.647058823529,4,2,1,50,0,0
51883,-105.263157894737,4,2,1,50,0,0
54129,-105.263157894737,4,2,1,5,0,0
54450,-90.9090909090909,4,2,1,70,0,1
70092,-90.9090909090909,4,2,1,5,0,1
70172,-90.9090909090909,4,2,1,70,0,1
71375,-90.9090909090909,4,2,1,5,0,1
71456,-90.9090909090909,4,2,1,70,0,1
74985,-100,4,2,1,70,0,1
84290,-111.111111111111,4,2,1,70,0,1
85252,-111.111111111111,4,2,1,40,0,0

[Colours]
Combo1 : 255,87,87
Combo2 : 0,238,238
Combo3 : 238,238,0
Combo4 : 55,155,255

[HitObjects]
79,102,547,6,0,P|71:139|78:196,1,95.9999970703126,6|0,2:0|3:0,2:2:0:0:
177,250,1028,1,2,2:0:0:0:
177,250,1188,2,0,P|183:196|172:143,1,95.9999970703126,2|0,3:2|3:0,2:2:0:0:
246,83,1669,1,2,2:0:0:0:
246,83,1830,6,0,L|255:18,1,47.9999985351563,2|0,3:2|2:0,2:2:0:0:
322,133,2151,2,0,L|330:70,1,47.9999985351563,2|0,3:2|2:0,2:2:0:0:
398,183,2472,2,0,L|408:108,1,47.9999985351563,2|0,3:2|2:0,2:2:0:0:
474,233,2792,2,0,L|484:158,1,47.9999985351563,2|0,3:2|2:0,2:2:0:0:
510,327,3113,5,2,3:2:0:0:
510,327,3434,2,0,P|447:321|391:292,2,95.9999970703126,2|0|0,3:2|3:0|3:0,2:2:0:0:
267,237,4236,1,2,2:0:0:0:
267,237,4397,2,0,P|330:231|386:202,1,95.9999970703126,2|0,3:2|3:0,2:2:0:0:
342,42,5038,1,0,3:0:0:0:
342,42,5199,1,0,3:0:0:0:
268,88,5359,1,0,3:0:0:0:
268,88,5520,1,0,3:0:0:0:
189,48,5680,6,0,L|20:33,2,143.999995605469,4|8|0,2:0|2:0|3:0,2:2:0:0:
242,150,6482,2,0,L|161:157,1,71.9999978027344,0|8,3:0|2:0,2:2:0:0:
89,289,6803,2,0,P|168:278|245:303,1,143.999995605469,0|0,3:0|3:0,2:2:0:0:
327,357,7284,1,8,2:0:0:0:
327,357,7445,1,0,3:0:0:0:
403,315,7605,2,0,L|418:139,1,143.999995605469,0|8,3:0|2:0,2:2:0:0:
366,59,8087,1,0,3:0:0:0:
366,59,8167,1,0,3:0:0:0:
366,59,8247,6,0,P|285:42|186:62,2,143.999995605469,4|8|0,2:0|2:0|3:0,2:2:0:0:
437,153,9049,2,0,L|427:264,1,71.9999978027344,2|8,3:2|2:0,2:2:0:0:
318,322,9370,2,0,L|310:241,1,71.9999978027344,2|0,3:2|3:0,2:2:0:0:
206,153,9691,1,2,3:2:0:0:
206,153,9851,2,0,P|146:155|112:172,1,71.9999978027344,2|0,3:2|2:0,2:2:0:0:
99,302,10172,1,8,2:0:0:0:
99,302,10252,1,8,2:0:0:0:
99,302,10333,1,8,2:0:0:0:
99,302,10413,1,8,2:0:0:0:
99,302,10493,1,8,3:2:0:0:
99,302,10573,1,8,3:2:0:0:
99,302,10653,1,8,3:2:0:0:
99,302,10734,1,8,3:2:0:0:
99,302,10814,5,8,3:2:0:0:
256,192,10894,12,4,13381,2:0:0:0:
336,72,15948,6,0,L|343:-16,2,71.9999978027344,2|2|8,3:2|2:0|2:0,0:0:0:0:
427,149,16429,2,0,P|415:197|412:304,1,143.999995605469,2|0,3:2|3:0,0:0:0:0:
317,381,16910,2,0,P|270:373|233:371,1,71.9999978027344,10|0,2:0|2:0,2:2:0:0:
152,259,17231,6,0,P|118:265|81:278,2,71.9999978027344,2|2|10,3:2|2:0|2:0,0:0:0:0:
270,356,17712,1,2,3:2:0:0:
270,356,17792,1,0,3:0:0:0:
270,356,17873,1,0,3:0:0:0:
323,225,18033,2,0,P|324:170|318:131,1,71.9999978027344,2|10,3:2|2:0,0:0:0:0:
198,71,18354,1,0,3:0:0:0:
198,71,18434,1,0,3:0:0:0:
198,71,18514,6,0,L|205:-7,2,71.9999978027344,8|0|8,2:0|3:0|2:0,0:0:0:0:
83,166,18996,1,8,3:2:0:0:
79,176,19076,1,8,3:2:0:0:
77,187,19156,1,8,3:2:0:0:
76,198,19236,1,8,3:2:0:0:
76,210,19317,1,8,3:2:0:0:
77,221,19397,1,8,3:2:0:0:
79,232,19477,2,0,L|86:308,1,71.9999978027344,0|2,3:0|3:2,0:0:0:0:
171,373,19798,1,8,2:0:0:0:
183,370,19878,1,8,2:0:0:0:
195,368,19958,1,8,2:0:0:0:
208,366,20038,1,8,2:0:0:0:
220,364,20119,1,8,2:0:0:0:
233,362,20199,1,8,2:0:0:0:
245,360,20279,1,8,2:0:0:0:
258,358,20359,1,8,2:0:0:0:
270,356,20440,2,0,L|312:347,2,27.9999991455078,2|2|2,2:0|2:0|2:0,0:0:0:0:
323,255,21081,6,0,P|373:301|387:382,1,120.000004577637,2|2,3:2|3:2,2:2:0:0:
476,222,21723,2,0,L|489:62,1,120.000004577637,2|0,3:2|3:0,2:2:0:0:
432,6,22204,6,0,P|399:-3|354:3,1,60.0000022888184,2|0,2:0|3:0,2:2:0:0:
300,74,22525,2,0,P|266:76|234:67,1,60.0000022888184,2|0,2:0|3:0,2:2:0:0:
148,15,22846,1,2,2:0:0:0:
74,180,23167,2,0,L|2:173,2,60.0000022888184,2|2|0,2:0|3:2|2:0,2:2:0:0:
155,238,23648,6,0,L|222:232,1,60.0000022888184,2|0,3:2|2:0,2:2:0:0:
137,258,23969,2,0,L|204:252,1,60.0000022888184,2|0,3:2|2:0,2:2:0:0:
320,128,24290,2,0,P|305:187|303:292,1,120.000004577637,2|0,3:2|3:0,2:2:0:0:
415,268,24771,2,0,L|482:262,1,60.0000022888184,2|0,2:0|3:0,2:2:0:0:
442,367,25092,2,0,L|375:362,1,60.0000022888184,2|0,2:0|3:0,2:2:0:0:
264,325,25413,1,8,2:0:0:0:
264,325,25493,1,8,2:0:0:0:
264,325,25573,2,0,L|199:336,1,60.0000022888184,8|0,2:0|2:0,2:2:0:0:
118,235,25894,2,0,L|185:240,1,60.0000022888184,0|0,3:0|3:0,2:2:0:0:
37,318,26215,6,0,P|25:265|20:179,1,120.000004577637,4|0,2:0|3:0,2:2:0:0:
174,8,26857,2,0,P|188:70|194:137,1,120.000004577637,0|8,3:0|3:2,2:2:0:0:
288,190,27338,2,0,P|296:138|314:53,2,120.000004577637,2|2|2,2:0|3:2|2:2,2:2:0:0:
396,269,28140,1,0,3:0:0:0:
396,269,28301,2,0,L|398:187,2,60.0000022888184,2|0|0,2:0|3:0|2:0,2:2:0:0:
351,379,28782,5,2,3:2:0:0:
267,300,28942,1,2,3:2:0:0:
267,300,29103,2,0,L|187:293,1,60.0000022888184,10|0,2:0|3:0,2:2:0:0:
55,220,29424,1,0,3:0:0:0:
120,293,29584,1,2,3:2:0:0:
21,318,29744,1,2,3:2:0:0:
21,318,29905,6,0,P|15:244|-7:167,1,120.000004577637,14|0,2:0|2:0,2:2:0:0:
32,75,30386,2,0,L|99:80,1,60.0000022888184,2|0,3:2|2:0,2:2:0:0:
217,104,30707,1,8,2:0:0:0:
233,102,30787,1,8,2:0:0:0:
250,101,30867,1,8,2:0:0:0:
267,99,30948,1,8,2:0:0:0:
282,98,31028,2,0,L|380:88,1,60.0000022888184,8|4,2:0|2:0,2:2:0:0:
512,250,31509,5,0,3:0:0:0:
467,170,31669,2,0,P|414:175|324:224,2,136.000002593994,10|2|8,2:0|3:2|0:0,2:2:0:0:
395,311,32472,2,0,P|359:301|320:295,1,68.0000012969971,2|0,3:2|3:0,2:2:0:0:
233,343,32792,2,0,P|203:355|164:363,1,68.0000012969971,2|8,3:2|0:0,2:2:0:0:
79,231,33113,2,0,L|230:217,1,136.000002593994,2|0,2:0|3:0,2:2:0:0:
293,126,33595,1,10,2:0:0:0:
334,243,33755,1,2,2:0:0:0:
311,105,33915,6,0,L|317:33,1,68.0000012969971,2|0,3:2|3:0,2:2:0:0:
170,129,34236,2,0,L|163:57,1,68.0000012969971,10|2,2:0|2:0,2:2:0:0:
48,215,34557,2,0,P|39:142|10:56,1,136.000002593994,2|8,3:2|2:0,2:2:0:0:
68,248,35038,2,0,P|47:318|38:392,1,136.000002593994,2|8,2:0|2:0,2:2:0:0:
208,352,35520,2,0,P|171:324|136:311,1,68.0000012969971,10|8,2:0|2:0,2:2:0:0:
187,179,35841,1,0,3:0:0:0:
187,179,35921,1,0,3:0:0:0:
187,179,36001,2,0,P|224:151|259:138,1,68.0000012969971,0|8,3:0|2:0,2:2:0:0:
353,249,36322,1,8,2:0:0:0:
353,249,36402,1,8,2:0:0:0:
353,249,36482,6,0,L|339:400,2,136.000002593994,4|8|0,2:0|2:0|3:0,2:2:0:0:
455,174,37284,2,0,L|447:86,1,68.0000012969971,2|8,3:2|2:0,2:2:0:0:
354,10,37605,6,0,B|286:-14|286:34|219:10,2,136.000002593994,2|2|2,2:0|3:2|3:2,2:2:0:0:
101,125,38568,2,0,L|21:118,2,68.0000012969971,10|8|0,2:0|2:0|3:0,2:2:0:0:
206,190,39049,5,10,2:0:0:0:
76,226,39210,1,2,3:2:0:0:
219,216,39370,2,0,L|306:223,1,68.0000012969971,10|0,2:0|3:0,2:2:0:0:
385,177,39691,1,8,2:0:0:0:
385,177,39771,1,8,2:0:0:0:
385,177,39851,2,0,L|452:171,1,68.0000012969971,8|8,2:0|2:0,2:2:0:0:
512,302,40172,6,0,B|444:326|444:278|377:302,1,136.000002593994,0|8,3:0|2:0,2:2:0:0:
284,334,40653,2,0,L|188:325,1,68.0000012969971,0|8,3:0|2:0,2:2:0:0:
103,365,40974,1,8,3:2:0:0:
97,347,41055,1,8,3:2:0:0:
95,329,41135,1,8,3:2:0:0:
97,311,41215,1,8,3:2:0:0:
101,293,41295,1,0,3:2:0:0:
106,275,41375,1,0,3:2:0:0:
108,257,41456,1,0,3:2:0:0:
108,239,41536,1,0,3:2:0:0:
106,221,41616,6,0,L|98:133,1,68.0000012969971,4|8,2:0|2:0,2:2:0:0:
208,24,42097,1,8,2:0:0:0:
208,24,42258,2,0,L|202:91,1,68.0000012969971,4|0,2:0|3:0,2:2:0:0:
278,173,42579,1,8,2:0:0:0:
292,181,42659,1,8,2:0:0:0:
308,187,42739,1,8,2:0:0:0:
324,190,42819,1,8,2:0:0:0:
341,189,42899,6,0,L|488:175,1,136.000002593994,0|8,3:0|2:0,2:2:0:0:
512,293,43381,2,0,L|377:281,1,136.000002593994,2|0,3:2|3:0,2:2:0:0:
376,280,43862,1,8,2:0:0:0:
247,92,44183,6,0,P|257:135|254:170,1,68.0000012969971,2|0,2:0|2:0,2:2:0:0:
204,250,44504,1,8,2:0:0:0:
204,250,44664,2,0,L|52:236,1,136.000002593994,2|0,2:0|3:0,2:2:0:0:
68,237,45065,1,8,2:0:0:0:
68,237,45145,1,8,2:0:0:0:
4,127,45306,6,0,P|63:112|159:137,1,136.000002593994,4|0,2:0|3:0,2:2:0:0:
241,172,45787,2,0,P|282:180|339:177,1,68.0000012969971,4|0,2:0|2:0,2:2:0:0:
326,28,46108,2,0,P|298:59|272:110,1,68.0000012969971,2|0,3:2|2:0,2:2:0:0:
408,174,46429,1,2,3:2:0:0:
408,174,46589,2,0,P|394:134|363:86,1,68.0000012969971,2|0,3:2|2:0,2:2:0:0:
488,281,47071,1,8,2:0:0:0:
488,281,47231,1,2,2:0:0:0:
410,327,47391,2,0,L|266:314,1,136.000002593994,2|8,3:2|2:0,2:2:0:0:
274,314,47792,1,8,2:0:0:0:
274,314,47873,1,0,3:0:0:0:
220,224,48033,6,0,P|206:161|209:64,1,136.000002593994,10|0,0:0|3:0,2:2:0:0:
89,51,48514,2,0,P|101:117|98:144,1,68.0000012969971,14|0,3:2|2:0,2:2:0:0:
67,203,48835,2,0,L|-4:196,1,68.0000012969971,0|0,3:0|3:0,2:2:0:0:
95,304,49156,1,8,2:0:0:0:
95,304,49236,1,8,2:0:0:0:
95,304,49317,6,0,L|166:297,1,68.0000012969971,6|0,3:2|2:0,2:2:0:0:
250,372,49637,2,0,L|321:365,1,68.0000012969971,2|0,3:2|2:0,2:2:0:0:
223,158,49958,2,0,P|248:224|250:301,1,136.000002593994,2|8,3:2|2:0,2:2:0:0:
107,220,50440,1,2,2:0:0:0:
107,220,50600,6,0,P|111:152|135:90,1,136.000002593994,4|8,3:2|2:0,2:2:0:0:
225,0,51081,2,0,P|262:-1|320:8,1,68.0000012969971,2|0,2:0|3:0,2:2:0:0:
407,101,51402,2,0,P|372:110|311:109,1,68.0000012969971,10|0,3:2|3:0,2:2:0:0:
281,184,51723,1,10,2:0:0:0:
391,239,51883,6,0,L|476:212,1,75.9999979705811,8|0,2:0|3:0,2:2:0:0:
308,384,52204,1,8,2:0:0:0:
308,384,52365,1,0,3:0:0:0:
224,327,52525,2,0,L|126:301,1,75.9999979705811,8|0,2:0|3:0,2:2:0:0:
26,202,52846,2,0,L|110:187,1,75.9999979705811,8|0,2:0|3:0,2:2:0:0:
278,130,53167,5,8,2:0:0:0:
275,116,53247,1,8,2:0:0:0:
273,103,53327,1,8,2:0:0:0:
270,89,53407,1,8,2:0:0:0:
266,77,53488,1,8,2:0:0:0:
261,64,53568,1,8,2:0:0:0:
255,54,53648,1,8,2:0:0:0:
247,42,53728,1,8,2:0:0:0:
240,35,53809,1,8,0:0:0:0:
231,29,53889,1,8,0:0:0:0:
218,25,53969,2,0,P|188:27|163:74,1,75.9999979705811,8|0,2:0|0:0,2:2:0:0:
399,284,54450,6,0,P|424:192|413:85,1,176.000005371094,4|8,2:0|2:0,2:2:0:0:
305,32,54932,1,0,3:0:0:0:
305,32,55012,1,0,3:0:0:0:
305,32,55092,2,0,L|177:21,1,88.000002685547,0|0,3:0|3:0,2:2:0:0:
131,117,55413,1,8,2:0:0:0:
35,44,55573,1,0,3:0:0:0:
35,44,55734,6,0,P|51:136|48:266,1,176.000005371094,4|8,2:0|2:0,2:2:0:0:
92,339,56215,1,0,3:0:0:0:
92,339,56295,1,0,3:0:0:0:
92,339,56375,2,0,L|190:347,1,88.000002685547,2|0,3:2|2:0,2:2:0:0:
299,288,56696,1,10,2:0:0:0:
367,384,56857,1,2,2:0:0:0:
367,384,57017,6,0,L|385:168,1,176.000005371094,4|8,2:0|0:0,2:2:0:0:
505,46,57498,1,0,3:0:0:0:
505,46,57579,1,0,3:0:0:0:
505,46,57659,2,0,L|514:157,1,88.000002685547,0|0,3:0|3:0,2:2:0:0:
352,238,57980,2,0,L|361:130,1,88.000002685547,8|0,2:0|2:0,2:2:0:0:
246,25,58301,5,0,3:0:0:0:
221,9,58381,1,0,3:0:0:0:
194,3,58461,1,0,3:0:0:0:
165,3,58541,1,0,3:0:0:0:
138,7,58621,2,0,L|15:-4,1,88.000002685547,8|0,2:0|2:0,2:2:0:0:
11,147,58942,2,0,L|130:136,1,88.000002685547,2|0,3:2|2:0,2:2:0:0:
250,205,59263,1,8,2:0:0:0:
248,225,59343,1,8,2:0:0:0:
246,245,59424,1,8,2:0:0:0:
244,265,59504,1,8,2:0:0:0:
242,285,59584,6,0,P|193:308|140:319,1,88.000002685547,12|0,2:0|2:0,2:2:0:0:
40,336,59905,1,10,2:0:0:0:
25,220,60065,1,2,3:2:0:0:
25,220,60226,2,0,L|36:92,1,88.000002685547,2|0,2:0|3:0,2:2:0:0:
72,8,60547,1,10,2:0:0:0:
198,57,60707,1,2,3:2:0:0:
198,57,60867,6,0,L|413:38,1,176.000005371094,2|8,3:2|2:0,2:2:0:0:
497,143,61349,1,0,3:0:0:0:
497,143,61429,1,0,3:0:0:0:
497,143,61509,2,0,P|504:200|492:258,1,88.000002685547,0|0,3:0|3:0,2:2:0:0:
386,384,61830,1,8,3:2:0:0:
377,374,61910,1,0,3:0:0:0:
370,360,61990,1,0,3:0:0:0:
365,347,62071,1,0,3:0:0:0:
362,334,62151,6,0,P|352:280|360:227,1,88.000002685547,2|2,3:2|2:0,2:2:0:0:
298,129,62472,1,10,2:0:0:0:
217,221,62632,1,8,2:0:0:0:
217,221,62712,1,8,2:0:0:0:
217,221,62792,2,0,L|97:210,1,88.000002685547,0|0,3:0|3:0,2:2:0:0:
0,118,63113,2,0,L|119:107,1,88.000002685547,10|0,2:0|3:0,2:2:0:0:
236,26,63434,6,0,P|223:97|243:266,1,176.000005371094,2|8,2:0|2:0,2:2:0:0:
324,335,63915,1,2,2:0:0:0:
324,335,64076,2,0,L|467:347,1,88.000002685547,2|0,3:2|3:0,2:2:0:0:
507,222,64397,1,8,3:2:0:0:
482,211,64477,1,8,3:2:0:0:
455,206,64557,1,8,3:2:0:0:
429,207,64637,1,8,3:2:0:0:
403,215,64718,6,0,L|179:195,1,176.000005371094,4|8,2:0|2:0,2:2:0:0:
37,339,65199,2,0,L|261:319,1,176.000005371094,0|0,3:0|3:0,2:2:0:0:
349,282,65680,1,10,2:0:0:0:
470,379,65841,1,2,2:0:0:0:
470,379,66001,6,0,P|450:256|463:166,1,176.000005371094,4|8,2:0|2:0,2:2:0:0:
501,78,66482,1,0,3:0:0:0:
386,111,66643,1,8,2:0:0:0:
386,111,66723,1,8,2:0:0:0:
386,111,66803,2,0,L|274:101,1,88.000002685547,0|8,3:0|2:0,2:2:0:0:
189,92,67124,1,2,2:0:0:0:
79,8,67284,6,0,B|62:69|62:69|89:203,1,176.000005371094,4|8,2:0|2:0,2:2:0:0:
176,310,67766,1,0,3:0:0:0:
176,310,67846,1,0,3:0:0:0:
176,310,67926,2,0,L|303:321,1,88.000002685547,0|0,3:0|3:0,2:2:0:0:
382,180,68247,2,0,L|254:191,1,88.000002685547,10|0,2:0|2:0,2:2:0:0:
77,126,68568,6,0,P|126:91|238:44,1,176.000005371094,4|8,2:0|2:0,2:2:0:0:
382,180,69049,1,0,3:0:0:0:
382,180,69129,1,0,3:0:0:0:
382,180,69210,2,0,L|279:189,1,88.000002685547,0|0,3:0|2:0,2:2:0:0:
492,39,69530,1,8,2:0:0:0:
503,63,69611,1,8,2:0:0:0:
510,89,69691,1,8,2:0:0:0:
512,116,69771,1,8,2:0:0:0:
507,142,69851,6,0,P|512:192|510:306,1,132.00000402832,4|0,2:0|2:0,2:2:0:0:
426,348,70172,2,0,P|424:292|432:212,1,88.000002685547,10|0,2:0|3:0,2:2:0:0:
297,100,70493,2,0,P|297:153|294:202,1,88.000002685547,2|0,2:0|3:0,2:2:0:0:
298,351,70814,1,8,2:0:0:0:
169,299,70974,1,0,3:0:0:0:
169,299,71055,1,0,3:0:0:0:
169,299,71135,6,0,P|83:268|35:257,1,132.00000402832,0|0,3:0|2:0,2:2:0:0:
0,171,71456,1,8,0:0:0:0:
149,43,71616,1,0,3:0:0:0:
149,43,71696,1,8,0:0:0:0:
148,43,71776,2,8,P|146:86|156:129,1,88.000002685547,10|8,2:0|2:0,2:2:0:0:
330,106,72097,2,8,P|332:62|322:19,1,88.000002685547,8|0,2:0|2:0,2:2:0:0:
405,232,72418,6,0,L|516:197,1,88.000002685547,4|0,2:0|2:0,2:2:0:0:
242,152,72739,2,0,L|137:125,1,88.000002685547,8|0,2:0|3:0,2:2:0:0:
80,254,73060,1,2,3:2:0:0:
153,357,73220,1,2,3:2:0:0:
153,357,73381,2,0,L|378:338,1,176.000005371094,10|0,2:0|3:0,2:2:0:0:
447,293,73862,5,8,3:2:0:0:
451,274,73942,1,8,3:2:0:0:
454,255,74022,1,8,3:2:0:0:
455,236,74103,1,8,3:2:0:0:
455,218,74183,1,8,3:2:0:0:
452,199,74263,1,8,3:2:0:0:
447,180,74343,1,8,3:2:0:0:
441,162,74424,1,8,3:2:0:0:
436,144,74504,1,8,3:2:0:0:
432,126,74584,1,8,3:2:0:0:
430,107,74664,1,8,3:2:0:0:
430,88,74744,1,8,3:2:0:0:
432,69,74825,1,8,3:2:0:0:
436,51,74905,1,8,3:2:0:0:
439,30,74985,6,0,P|371:0|256:16,2,160,4|8|0,2:0|2:0|3:0,2:2:0:0:
496,178,75787,1,0,3:0:0:0:
496,178,75948,2,0,P|415:182|331:152,1,160,8|0,2:0|3:0,2:2:0:0:
228,79,76429,1,0,3:0:0:0:
228,79,76509,1,0,3:0:0:0:
228,79,76589,2,0,L|220:-2,1,80,8|0,2:0|2:0,2:2:0:0:
137,227,76910,2,0,L|129:307,1,80,2|0,3:2|3:0,2:2:0:0:
244,107,77231,2,0,L|236:26,1,80,10|0,2:0|2:0,2:2:0:0:
450,0,77552,6,0,P|434:69|431:165,1,160,4|8,2:0|2:0,2:2:0:0:
490,384,78194,1,2,3:2:0:0:
400,298,78354,2,0,P|349:286|241:340,1,160,2|2,3:2|2:0,2:2:0:0:
115,310,78835,5,8,2:0:0:0:
115,310,78915,1,8,2:0:0:0:
115,310,78996,2,0,L|107:229,1,80,0|8,3:0|2:0,2:2:0:0:
17,61,79317,1,2,0:0:0:0:
17,61,79477,2,0,L|9:148,1,80,2|0,3:2|3:0,2:2:0:0:
127,236,79798,1,8,2:0:0:0:
146,240,79878,1,8,2:0:0:0:
166,242,79958,1,8,2:0:0:0:
187,244,80038,1,8,2:0:0:0:
207,244,80119,6,0,L|395:227,1,160,4|8,2:0|2:0,2:2:0:0:
477,51,80600,1,0,3:0:0:0:
477,51,80680,1,0,3:0:0:0:
477,51,80760,2,0,P|422:37|368:46,1,80,0|0,3:0|3:0,2:2:0:0:
463,232,81081,2,0,P|502:191|521:140,1,80,8|0,2:0|2:0,2:2:0:0:
313,129,81402,6,0,P|328:183|363:225,1,80,4|0,2:0|2:0,2:2:0:0:
431,355,81723,2,0,L|512:348,1,80,8|0,2:0|3:0,2:2:0:0:
317,278,82044,2,0,L|235:271,1,80,0|0,3:0|3:0,2:2:0:0:
101,343,82365,1,8,2:0:0:0:
101,343,82445,1,8,2:0:0:0:
101,343,82525,1,8,2:0:0:0:
101,343,82605,1,8,2:0:0:0:
101,343,82686,6,0,P|87:298|92:242,1,80,4|0,2:0|2:0,2:2:0:0:
196,160,83006,2,0,L|283:167,1,80,8|0,2:0|2:0,2:2:0:0:
445,110,83327,1,2,3:2:0:0:
370,13,83488,2,0,P|331:-1|269:6,1,80,2|8,3:2|2:0,2:2:0:0:
204,76,83809,5,8,3:2:0:0:
448,246,84129,1,2,3:2:0:0:
448,246,84290,2,0,P|417:250|376:241,1,71.9999978027344,2|0,2:0|3:0,2:2:0:0:
267,283,84611,2,0,P|218:301|179:302,1,71.9999978027344,2|0,3:2|3:0,2:2:0:0:
96,233,84932,1,8,2:0:0:0:
94,212,85012,1,8,2:0:0:0:
92,192,85092,1,8,2:0:0:0:
90,172,85172,1,8,2:0:0:0:
88,152,85252,5,8,3:2:0:0:
315,19,85573,1,8,3:2:0:0:
448,246,85894,1,8,3:2:0:0:
221,379,86215,1,8,3:2:0:0:
268,199,86536,6,0,L|275:111,2,71.9999978027344,2|8|2,3:2|2:0|3:2,2:2:0:0:
287,230,86937,1,8,2:0:0:0:
287,230,87017,1,8,2:0:0:0:
426,52,87338,1,8,3:0:0:0:
426,52,87418,1,8,3:0:0:0:
426,52,87498,1,8,3:0:0:0:
