osu file format v14

[General]
AudioFilename: audio.mp3
AudioLeadIn: 0
PreviewTime: 8600
Countdown: 0
SampleSet: Normal
StackLeniency: 0.7
Mode: 1
LetterboxInBreaks: 0
WidescreenStoryboard: 1

[Editor]
Bookmarks: 465,8600,16736,24871,33007,41142,51312,73685,85888,102159,120464,142837,150973,169278,173346,197753,220126
DistanceSpacing: 0.5
BeatDivisor: 4
GridSize: 32
TimelineZoom: 0.4999999

[Metadata]
Title:Climax Whistle
TitleUnicode:クライマックスホイッスル
Artist:sphere
ArtistUnicode:スフィア
Creator:yuki_momoiro722
Version:Shokyuu
Source:シスタークエスト2 〜魔剣の騎士と白銀の巫女〜
Tags:taiko japanese pop j-pop jpop j-rock jrock video game opening op パチスロ pachislot Sister Quest 2 Maken no Kishi to Hakugin no Miko MOON SIGNAL spring is here 寿美菜子 kotobuki minako 高垣彩陽 takagaki ayahi 戸松遥 tomatsu haruka 豊崎愛生 toyosaki aki
BeatmapID:3617400
BeatmapSetID:1528864

[Difficulty]
HPDrainRate:8
CircleSize:2
OverallDifficulty:3
ApproachRate:3
SliderMultiplier:1.4
SliderTickRate:1

[Events]
//Background and Video events
0,0,"bg.jpg",0,10
//Break Periods
//Storyboard Layer 0 (Background)
//Storyboard Layer 1 (Fail)
//Storyboard Layer 2 (Pass)
//Storyboard Layer 3 (Foreground)
//Storyboard Layer 4 (Overlay)
//Storyboard Sound Samples

[TimingPoints]
465,254.237288135593,4,1,0,50,1,0
465,-200,4,1,0,50,0,0
4532,-200,4,1,0,70,0,0
8600,-200,4,1,0,80,0,0
51312,-200,4,1,0,90,0,1
73685,-200,4,1,0,70,0,0
77753,-200,4,1,0,80,0,0
120464,-200,4,1,0,90,0,1
142837,-200,4,1,0,70,0,0
150973,-200,4,1,0,80,0,0
175380,-200,4,1,0,90,0,1
195719,-200,4,1,0,90,0,0
197753,-200,4,1,0,90,0,1
220126,-200,4,1,0,80,0,0

[HitObjects]
352,96,465,5,8,0:0:0:0:
352,96,2498,1,8,0:0:0:0:
160,288,4532,1,4,0:0:0:0:
160,96,5549,1,0,0:0:0:0:
160,96,6566,1,8,0:0:0:0:
352,96,7583,1,8,0:0:0:0:
160,288,8600,1,4,0:0:0:0:
160,96,10634,1,0,0:0:0:0:
352,288,12668,1,12,0:0:0:0:
160,288,13685,1,4,0:0:0:0:
352,288,14702,1,12,0:0:0:0:
160,288,15719,1,4,0:0:0:0:
160,288,16736,1,4,0:0:0:0:
160,96,18770,1,0,0:0:0:0:
160,96,20803,1,0,0:0:0:0:
160,96,21820,1,0,0:0:0:0:
352,96,22837,1,8,0:0:0:0:
160,288,24871,1,4,0:0:0:0:
352,96,26905,1,8,0:0:0:0:
160,288,27922,1,0,0:0:0:0:
160,288,28939,1,0,0:0:0:0:
352,96,29956,1,0,0:0:0:0:
352,288,30973,1,8,0:0:0:0:
160,288,33007,1,4,0:0:0:0:
160,96,34024,1,0,0:0:0:0:
352,96,35041,1,8,0:0:0:0:
352,96,36058,1,8,0:0:0:0:
160,96,37075,1,0,0:0:0:0:
352,96,38092,1,8,0:0:0:0:
352,96,39109,1,8,0:0:0:0:
160,288,41142,1,4,0:0:0:0:
352,96,42159,1,8,0:0:0:0:
160,96,43176,1,0,0:0:0:0:
160,96,45210,1,0,0:0:0:0:
160,96,46227,1,8,0:0:0:0:
160,96,47244,1,0,0:0:0:0:
352,96,48261,1,8,0:0:0:0:
160,96,49278,1,0,0:0:0:0:
160,288,51312,1,4,0:0:0:0:
352,96,52329,1,0,0:0:0:0:
160,96,53346,1,8,0:0:0:0:
160,96,55380,1,8,0:0:0:0:
160,96,56397,1,8,0:0:0:0:
160,96,57414,1,0,0:0:0:0:
160,288,59448,1,4,0:0:0:0:
160,96,60464,1,8,0:0:0:0:
352,288,61481,1,8,0:0:0:0:
160,96,63515,1,0,0:0:0:0:
352,96,64532,1,8,0:0:0:0:
160,96,65549,1,0,0:0:0:0:
160,288,67583,1,4,0:0:0:0:
160,96,68600,1,0,0:0:0:0:
160,288,69617,1,8,0:0:0:0:
352,288,70634,1,8,0:0:0:0:
160,288,71651,1,0,0:0:0:0:
352,96,72668,1,8,0:0:0:0:
160,288,73685,1,4,0:0:0:0:
160,96,74702,1,0,0:0:0:0:
160,96,75719,1,8,0:0:0:0:
352,96,76736,1,8,0:0:0:0:
160,288,77753,1,4,0:0:0:0:
160,96,79787,1,0,0:0:0:0:
160,96,80803,1,0,0:0:0:0:
352,288,81820,1,12,0:0:0:0:
160,288,82837,1,4,0:0:0:0:
352,288,83854,1,12,0:0:0:0:
160,288,84871,1,4,0:0:0:0:
160,288,85888,1,4,0:0:0:0:
160,96,87922,1,8,0:0:0:0:
160,96,89955,1,0,0:0:0:0:
160,96,90972,1,8,0:0:0:0:
352,96,91989,1,8,0:0:0:0:
160,288,94023,1,4,0:0:0:0:
352,96,96057,1,8,0:0:0:0:
160,288,97074,1,8,0:0:0:0:
160,288,98091,1,0,0:0:0:0:
352,96,99108,1,0,0:0:0:0:
352,288,100125,1,8,0:0:0:0:
160,288,102159,5,4,0:0:0:0:
160,96,103176,1,0,0:0:0:0:
352,96,104193,1,8,0:0:0:0:
352,96,105210,1,0,0:0:0:0:
160,96,106227,1,8,0:0:0:0:
352,96,107244,1,8,0:0:0:0:
352,96,108261,1,0,0:0:0:0:
160,288,110294,1,4,0:0:0:0:
352,96,111311,1,8,0:0:0:0:
160,96,112328,1,0,0:0:0:0:
160,96,114362,1,0,0:0:0:0:
160,96,115379,1,8,0:0:0:0:
160,96,116396,1,0,0:0:0:0:
352,96,117413,1,8,0:0:0:0:
160,96,118430,1,0,0:0:0:0:
160,288,120464,1,4,0:0:0:0:
352,96,121481,1,0,0:0:0:0:
160,96,122498,1,8,0:0:0:0:
160,96,124532,1,8,0:0:0:0:
160,96,125549,1,0,0:0:0:0:
160,96,126566,1,0,0:0:0:0:
160,288,128600,1,4,0:0:0:0:
160,96,129616,1,8,0:0:0:0:
352,288,130633,1,8,0:0:0:0:
160,96,132667,1,8,0:0:0:0:
160,96,133684,1,0,0:0:0:0:
352,96,134701,1,8,0:0:0:0:
160,288,136735,1,4,0:0:0:0:
160,96,137752,1,8,0:0:0:0:
160,288,138769,1,8,0:0:0:0:
352,288,139786,1,8,0:0:0:0:
160,288,140803,1,0,0:0:0:0:
352,96,141820,1,8,0:0:0:0:
160,288,142837,5,4,0:0:0:0:
160,96,144871,1,0,0:0:0:0:
160,96,146905,1,8,0:0:0:0:
160,96,148939,1,8,0:0:0:0:
352,96,149956,1,8,0:0:0:0:
160,288,150973,1,4,0:0:0:0:
352,96,153007,1,8,0:0:0:0:
352,96,154024,1,8,0:0:0:0:
160,96,155041,1,0,0:0:0:0:
160,96,157075,1,0,0:0:0:0:
352,96,158092,1,8,0:0:0:0:
160,288,159109,1,4,0:0:0:0:
160,288,161142,1,4,0:0:0:0:
352,288,163176,1,8,0:0:0:0:
160,288,165210,1,0,0:0:0:0:
160,96,167244,1,0,0:0:0:0:
352,96,168261,1,8,0:0:0:0:
160,288,169278,1,4,0:0:0:0:
160,288,173346,5,4,0:0:0:0:
160,96,175380,1,4,0:0:0:0:
160,96,177414,1,8,0:0:0:0:
160,96,178431,1,8,0:0:0:0:
160,96,179448,1,0,0:0:0:0:
160,288,181482,1,4,0:0:0:0:
160,96,182498,1,8,0:0:0:0:
352,288,183515,1,8,0:0:0:0:
160,96,185549,5,0,0:0:0:0:
352,96,186566,1,8,0:0:0:0:
160,96,187583,1,0,0:0:0:0:
160,288,189617,1,4,0:0:0:0:
160,96,190634,1,0,0:0:0:0:
160,288,191651,1,8,0:0:0:0:
352,288,192668,1,8,0:0:0:0:
160,288,193685,1,0,0:0:0:0:
160,288,195719,5,0,0:0:0:0:
352,96,196736,1,8,0:0:0:0:
160,288,197753,1,4,0:0:0:0:
352,96,198770,1,0,0:0:0:0:
160,96,199787,1,8,0:0:0:0:
160,96,201821,1,8,0:0:0:0:
160,96,202838,1,0,0:0:0:0:
160,96,203855,1,0,0:0:0:0:
160,288,205889,1,4,0:0:0:0:
160,96,206905,1,8,0:0:0:0:
352,288,207922,1,8,0:0:0:0:
160,96,209956,1,8,0:0:0:0:
352,96,210973,1,0,0:0:0:0:
160,96,211990,1,8,0:0:0:0:
160,288,214024,1,4,0:0:0:0:
160,96,215041,1,8,0:0:0:0:
160,288,216058,1,8,0:0:0:0:
352,288,217075,1,8,0:0:0:0:
160,288,218092,1,0,0:0:0:0:
352,96,219109,1,8,0:0:0:0:
160,288,220126,5,4,0:0:0:0:
160,96,222159,1,8,0:0:0:0:
160,288,224193,1,0,0:0:0:0:
160,96,225210,1,0,0:0:0:0:
160,96,226227,1,8,0:0:0:0:
352,96,227244,1,8,0:0:0:0:
256,192,228261,12,0,230295,0:0:0:0:
