osu file format v14

[General]
AudioFilename: audio.mp3
AudioLeadIn: 0
PreviewTime: 8600
Countdown: 0
SampleSet: Normal
StackLeniency: 0.7
Mode: 1
LetterboxInBreaks: 0
WidescreenStoryboard: 1

[Editor]
Bookmarks: 465,8600,16736,33007,41142,51312,73685,85888,102159,120464,142837,150973,169278,173346,197753,220126
DistanceSpacing: 0.5
BeatDivisor: 2
GridSize: 32
TimelineZoom: 1.3

[Metadata]
Title:Climax Whistle
TitleUnicode:クライマックスホイッスル
Artist:sphere
ArtistUnicode:スフィア
Creator:yuki_momoiro722
Version:Muzukashii
Source:シスタークエスト2 〜魔剣の騎士と白銀の巫女〜
Tags:taiko japanese pop j-pop jpop j-rock jrock video game opening op パチスロ pachislot Sister Quest 2 Maken no Kishi to Hakugin no Miko MOON SIGNAL spring is here 寿美菜子 kotobuki minako 高垣彩陽 takagaki ayahi 戸松遥 tomatsu haruka 豊崎愛生 toyosaki aki
BeatmapID:3127399
BeatmapSetID:1528864

[Difficulty]
HPDrainRate:5
CircleSize:2
OverallDifficulty:5
ApproachRate:6
SliderMultiplier:1.4
SliderTickRate:1

[Events]
//Background and Video events
0,0,"bg.jpg",0,10
//Break Periods
//Storyboard Layer 0 (Background)
//Storyboard Layer 1 (Fail)
//Storyboard Layer 2 (Pass)
//Storyboard Layer 3 (Foreground)
//Storyboard Layer 4 (Overlay)
//Storyboard Sound Samples

[TimingPoints]
465,254.237288135593,4,1,0,50,1,0
465,-142.857142857143,4,1,0,50,0,0
4532,-142.857142857143,4,1,0,70,0,0
8600,-142.857142857143,4,1,0,80,0,0
51312,-142.857142857143,4,1,0,90,0,1
73685,-142.857142857143,4,1,0,70,0,0
77753,-142.857142857143,4,1,0,80,0,0
120464,-142.857142857143,4,1,0,90,0,1
142837,-142.857142857143,4,1,0,70,0,0
150973,-142.857142857143,4,1,0,80,0,0
175380,-142.857142857143,4,1,0,90,0,1
195719,-142.857142857143,4,1,0,90,0,0
197753,-142.857142857143,4,1,0,90,0,1
220126,-142.857142857143,4,1,0,80,0,0

[HitObjects]
352,96,465,5,8,0:0:0:0:
352,96,973,1,8,0:0:0:0:
160,96,1354,1,0,0:0:0:0:
160,96,1609,1,0,0:0:0:0:
160,96,1736,1,0,0:0:0:0:
160,96,1990,1,0,0:0:0:0:
160,96,2244,1,0,0:0:0:0:
352,96,2498,1,8,0:0:0:0:
352,96,3007,1,8,0:0:0:0:
160,96,3388,1,0,0:0:0:0:
160,96,3642,1,0,0:0:0:0:
160,96,3770,1,0,0:0:0:0:
160,96,4024,1,0,0:0:0:0:
352,288,4278,1,12,0:0:0:0:
160,288,4532,1,4,0:0:0:0:
352,96,4787,1,8,0:0:0:0:
352,96,4914,1,8,0:0:0:0:
352,96,5295,1,8,0:0:0:0:
160,96,5549,1,0,0:0:0:0:
352,96,5803,1,8,0:0:0:0:
352,96,5931,1,8,0:0:0:0:
352,96,6058,1,8,0:0:0:0:
352,96,6312,1,8,0:0:0:0:
160,96,6566,1,0,0:0:0:0:
352,96,6820,1,8,0:0:0:0:
352,96,6948,1,8,0:0:0:0:
160,96,7329,1,0,0:0:0:0:
352,96,7583,1,8,0:0:0:0:
352,96,7837,1,8,0:0:0:0:
352,96,7964,1,8,0:0:0:0:
160,96,8092,1,0,0:0:0:0:
352,96,8346,1,8,0:0:0:0:
160,288,8600,1,4,0:0:0:0:
352,96,8854,1,8,0:0:0:0:
160,96,9236,1,0,0:0:0:0:
352,96,9363,1,8,0:0:0:0:
352,96,9617,1,8,0:0:0:0:
352,96,9744,1,8,0:0:0:0:
352,96,9871,1,8,0:0:0:0:
160,96,10126,1,0,0:0:0:0:
352,96,10380,1,8,0:0:0:0:
160,96,10634,1,0,0:0:0:0:
352,96,10888,1,8,0:0:0:0:
160,96,11270,1,0,0:0:0:0:
352,96,11397,1,8,0:0:0:0:
160,96,11651,1,0,0:0:0:0:
160,96,11778,1,0,0:0:0:0:
352,96,11905,1,8,0:0:0:0:
160,96,12159,1,0,0:0:0:0:
160,288,12668,1,4,0:0:0:0:
160,288,13049,1,4,0:0:0:0:
352,288,13685,1,12,0:0:0:0:
160,288,14066,1,4,0:0:0:0:
352,288,14702,1,12,0:0:0:0:
352,288,15083,1,12,0:0:0:0:
352,288,15464,1,12,0:0:0:0:
160,288,15719,1,4,0:0:0:0:
352,96,15973,1,8,0:0:0:0:
352,96,16227,1,8,0:0:0:0:
352,96,16354,1,8,0:0:0:0:
352,96,16481,1,8,0:0:0:0:
160,288,16736,1,4,0:0:0:0:
352,96,16990,1,8,0:0:0:0:
160,96,17244,1,0,0:0:0:0:
352,96,17498,1,8,0:0:0:0:
160,96,17753,1,0,0:0:0:0:
352,96,18007,1,8,0:0:0:0:
352,96,18134,1,8,0:0:0:0:
352,96,18515,1,8,0:0:0:0:
160,96,18770,1,0,0:0:0:0:
352,96,19024,1,8,0:0:0:0:
160,96,19278,1,0,0:0:0:0:
160,96,19405,1,0,0:0:0:0:
352,96,19659,1,8,0:0:0:0:
160,96,20295,1,0,0:0:0:0:
352,96,20549,1,8,0:0:0:0:
160,96,20803,1,0,0:0:0:0:
352,96,21312,1,8,0:0:0:0:
352,96,21566,1,8,0:0:0:0:
160,96,21820,1,0,0:0:0:0:
160,96,22075,1,0,0:0:0:0:
160,96,22202,1,0,0:0:0:0:
160,96,22583,1,0,0:0:0:0:
352,96,22837,1,8,0:0:0:0:
352,96,23092,1,8,0:0:0:0:
160,96,23346,1,0,0:0:0:0:
352,96,23600,1,8,0:0:0:0:
352,96,24109,1,8,0:0:0:0:
352,96,24236,1,8,0:0:0:0:
352,96,24363,1,8,0:0:0:0:
352,96,24617,1,8,0:0:0:0:
160,288,24871,1,4,0:0:0:0:
352,96,25126,1,8,0:0:0:0:
160,96,25380,1,0,0:0:0:0:
352,96,25634,1,8,0:0:0:0:
352,96,25761,1,8,0:0:0:0:
352,96,26142,1,8,0:0:0:0:
160,96,26397,1,0,0:0:0:0:
352,96,26651,1,8,0:0:0:0:
160,96,26905,1,0,0:0:0:0:
352,96,27159,1,8,0:0:0:0:
352,96,27414,1,8,0:0:0:0:
352,96,27668,1,8,0:0:0:0:
160,288,27922,1,4,0:0:0:0:
160,288,28303,1,4,0:0:0:0:
160,288,28939,1,4,0:0:0:0:
352,96,29193,1,8,0:0:0:0:
160,96,29448,1,0,0:0:0:0:
352,96,29702,1,8,0:0:0:0:
352,96,29956,1,8,0:0:0:0:
160,96,30210,1,0,0:0:0:0:
160,96,30337,1,0,0:0:0:0:
352,96,30719,1,8,0:0:0:0:
352,288,30973,1,12,0:0:0:0:
160,288,31354,1,4,0:0:0:0:
352,288,31736,1,12,0:0:0:0:
352,288,31990,1,12,0:0:0:0:
160,96,32244,1,0,0:0:0:0:
160,96,32371,1,0,0:0:0:0:
160,96,32498,1,0,0:0:0:0:
352,96,32753,1,8,0:0:0:0:
160,288,33007,1,4,0:0:0:0:
160,96,33515,1,0,0:0:0:0:
352,96,33770,1,8,0:0:0:0:
160,96,34024,1,0,0:0:0:0:
352,96,34278,1,8,0:0:0:0:
160,96,34405,1,0,0:0:0:0:
352,96,34787,1,8,0:0:0:0:
160,96,35041,1,0,0:0:0:0:
352,96,35295,1,8,0:0:0:0:
160,96,35549,1,0,0:0:0:0:
352,96,35803,1,8,0:0:0:0:
160,96,36058,1,0,0:0:0:0:
352,96,36312,1,8,0:0:0:0:
352,96,36439,1,8,0:0:0:0:
352,96,36820,1,8,0:0:0:0:
160,96,37075,1,0,0:0:0:0:
160,96,37583,1,0,0:0:0:0:
352,96,37837,1,8,0:0:0:0:
160,96,38092,1,0,0:0:0:0:
352,96,38346,1,8,0:0:0:0:
160,96,38600,1,0,0:0:0:0:
352,96,38854,1,8,0:0:0:0:
352,96,39109,1,8,0:0:0:0:
160,96,39363,1,0,0:0:0:0:
352,96,39490,1,8,0:0:0:0:
352,96,39871,1,8,0:0:0:0:
352,96,40126,1,8,0:0:0:0:
352,96,40380,1,8,0:0:0:0:
352,96,40507,1,8,0:0:0:0:
160,96,40634,1,0,0:0:0:0:
352,96,40888,1,8,0:0:0:0:
160,288,41142,1,4,0:0:0:0:
352,96,41397,1,8,0:0:0:0:
352,96,41524,1,8,0:0:0:0:
160,96,41651,1,0,0:0:0:0:
352,96,41905,1,8,0:0:0:0:
160,96,42159,1,0,0:0:0:0:
352,96,42414,1,8,0:0:0:0:
352,96,42541,1,8,0:0:0:0:
352,96,42922,1,8,0:0:0:0:
160,96,43176,1,0,0:0:0:0:
352,96,43431,1,8,0:0:0:0:
352,96,43558,1,8,0:0:0:0:
352,96,43685,1,8,0:0:0:0:
352,96,43939,1,8,0:0:0:0:
160,96,44193,1,0,0:0:0:0:
352,96,44448,1,8,0:0:0:0:
352,96,44575,1,8,0:0:0:0:
352,96,44956,1,8,0:0:0:0:
160,96,45210,1,0,0:0:0:0:
160,96,45464,1,0,0:0:0:0:
352,96,45719,1,8,0:0:0:0:
160,96,46227,1,0,0:0:0:0:
160,96,46481,1,0,0:0:0:0:
352,96,46609,1,8,0:0:0:0:
352,96,46990,1,8,0:0:0:0:
160,96,47244,1,0,0:0:0:0:
352,96,47498,1,8,0:0:0:0:
160,96,47753,1,0,0:0:0:0:
352,96,48007,1,8,0:0:0:0:
160,96,48261,1,0,0:0:0:0:
352,96,48515,1,8,0:0:0:0:
352,96,48770,1,8,0:0:0:0:
352,96,48897,1,8,0:0:0:0:
352,96,49024,1,8,0:0:0:0:
160,96,49278,1,0,0:0:0:0:
160,288,49787,1,4,0:0:0:0:
160,288,50295,1,4,0:0:0:0:
352,288,50803,1,12,0:0:0:0:
160,288,51312,1,4,0:0:0:0:
352,96,51566,1,8,0:0:0:0:
160,96,51820,1,0,0:0:0:0:
160,96,52075,1,0,0:0:0:0:
352,288,52202,1,12,0:0:0:0:
160,96,52583,1,0,0:0:0:0:
352,96,52837,1,8,0:0:0:0:
352,96,52964,1,8,0:0:0:0:
352,96,53092,1,8,0:0:0:0:
160,96,53346,1,0,0:0:0:0:
352,96,53600,1,8,0:0:0:0:
352,96,53854,1,8,0:0:0:0:
160,96,53981,1,0,0:0:0:0:
352,96,54236,1,8,0:0:0:0:
352,96,54617,1,8,0:0:0:0:
352,96,54871,1,8,0:0:0:0:
352,96,55126,1,8,0:0:0:0:
160,96,55380,1,0,0:0:0:0:
352,96,55634,1,8,0:0:0:0:
160,96,55888,1,0,0:0:0:0:
160,96,56142,1,0,0:0:0:0:
352,96,56270,1,8,0:0:0:0:
352,96,56651,1,8,0:0:0:0:
160,96,56905,1,0,0:0:0:0:
352,96,57159,1,8,0:0:0:0:
160,96,57414,1,0,0:0:0:0:
352,96,57668,1,8,0:0:0:0:
352,96,57795,1,8,0:0:0:0:
160,96,58176,1,0,0:0:0:0:
352,96,58431,1,8,0:0:0:0:
352,96,58685,1,8,0:0:0:0:
352,96,58939,1,8,0:0:0:0:
352,96,59066,1,8,0:0:0:0:
352,96,59193,1,8,0:0:0:0:
160,288,59448,1,4,0:0:0:0:
352,96,59702,1,8,0:0:0:0:
160,96,59956,1,0,0:0:0:0:
160,96,60210,1,0,0:0:0:0:
352,288,60337,1,12,0:0:0:0:
160,96,60719,1,0,0:0:0:0:
352,96,60973,1,8,0:0:0:0:
352,96,61100,1,8,0:0:0:0:
352,96,61227,1,8,0:0:0:0:
352,288,61481,1,12,0:0:0:0:
160,96,61736,1,0,0:0:0:0:
352,96,61990,1,8,0:0:0:0:
160,96,62117,1,0,0:0:0:0:
160,288,62371,1,4,0:0:0:0:
352,96,62753,1,8,0:0:0:0:
352,96,63007,1,8,0:0:0:0:
352,96,63134,1,8,0:0:0:0:
352,96,63261,1,8,0:0:0:0:
160,96,63515,1,0,0:0:0:0:
352,96,64024,1,8,0:0:0:0:
160,96,64278,1,0,0:0:0:0:
352,96,64532,1,8,0:0:0:0:
160,96,64787,1,0,0:0:0:0:
352,96,64914,1,8,0:0:0:0:
160,96,65168,1,0,0:0:0:0:
352,96,65295,1,8,0:0:0:0:
160,96,65549,1,0,0:0:0:0:
352,96,66058,1,8,0:0:0:0:
160,96,66312,1,0,0:0:0:0:
352,96,66566,1,8,0:0:0:0:
352,96,66693,1,8,0:0:0:0:
352,96,66820,1,8,0:0:0:0:
160,96,67075,1,0,0:0:0:0:
160,96,67202,1,0,0:0:0:0:
160,96,67329,1,0,0:0:0:0:
160,288,67583,1,4,0:0:0:0:
352,96,67837,1,8,0:0:0:0:
160,96,68092,1,0,0:0:0:0:
352,96,68346,1,8,0:0:0:0:
352,96,68600,1,8,0:0:0:0:
352,96,69109,1,8,0:0:0:0:
352,96,69363,1,8,0:0:0:0:
160,288,69617,1,4,0:0:0:0:
352,96,69871,1,8,0:0:0:0:
352,288,70126,1,12,0:0:0:0:
160,96,70380,1,0,0:0:0:0:
352,288,70507,1,12,0:0:0:0:
160,96,71015,1,0,0:0:0:0:
352,96,71270,1,8,0:0:0:0:
352,96,71397,1,8,0:0:0:0:
160,288,71651,1,4,0:0:0:0:
352,96,71905,1,8,0:0:0:0:
160,96,72159,1,0,0:0:0:0:
160,96,72287,1,0,0:0:0:0:
352,96,72414,1,8,0:0:0:0:
352,96,72668,1,8,0:0:0:0:
160,96,72922,1,0,0:0:0:0:
352,96,73176,1,8,0:0:0:0:
352,96,73431,1,8,0:0:0:0:
160,288,73685,1,4,0:0:0:0:
352,96,73939,1,8,0:0:0:0:
352,96,74066,1,8,0:0:0:0:
352,96,74448,1,8,0:0:0:0:
160,96,74702,1,0,0:0:0:0:
352,96,74956,1,8,0:0:0:0:
352,96,75083,1,8,0:0:0:0:
352,96,75210,1,8,0:0:0:0:
352,96,75464,1,8,0:0:0:0:
160,96,75719,1,0,0:0:0:0:
352,96,75973,1,8,0:0:0:0:
352,96,76100,1,8,0:0:0:0:
160,96,76481,1,0,0:0:0:0:
352,96,76736,1,8,0:0:0:0:
352,96,76990,1,8,0:0:0:0:
352,96,77117,1,8,0:0:0:0:
160,96,77244,1,0,0:0:0:0:
352,96,77498,1,8,0:0:0:0:
160,288,77753,1,4,0:0:0:0:
352,96,78007,1,8,0:0:0:0:
160,96,78388,1,0,0:0:0:0:
352,96,78515,1,8,0:0:0:0:
352,96,78770,1,8,0:0:0:0:
352,96,78897,1,8,0:0:0:0:
352,96,79024,1,8,0:0:0:0:
160,96,79278,1,0,0:0:0:0:
352,96,79532,1,8,0:0:0:0:
160,96,79787,1,0,0:0:0:0:
352,96,80041,1,8,0:0:0:0:
160,96,80422,1,0,0:0:0:0:
352,96,80549,1,8,0:0:0:0:
160,96,80803,1,0,0:0:0:0:
160,96,80931,1,0,0:0:0:0:
352,96,81058,1,8,0:0:0:0:
160,96,81312,1,0,0:0:0:0:
160,288,81820,1,4,0:0:0:0:
352,288,82202,1,12,0:0:0:0:
352,288,82837,1,12,0:0:0:0:
160,288,83219,1,4,0:0:0:0:
352,288,83854,1,12,0:0:0:0:
352,288,84236,1,12,0:0:0:0:
352,288,84617,1,12,0:0:0:0:
160,288,84871,1,4,0:0:0:0:
352,96,85126,1,8,0:0:0:0:
352,96,85380,1,8,0:0:0:0:
352,96,85507,1,8,0:0:0:0:
352,96,85634,1,8,0:0:0:0:
160,288,85888,1,4,0:0:0:0:
352,96,86142,1,8,0:0:0:0:
160,96,86397,1,0,0:0:0:0:
352,96,86651,1,8,0:0:0:0:
160,96,86905,1,0,0:0:0:0:
352,96,87159,1,8,0:0:0:0:
352,96,87287,1,8,0:0:0:0:
352,96,87668,1,8,0:0:0:0:
160,96,87922,1,0,0:0:0:0:
160,96,88049,1,0,0:0:0:0:
352,96,88176,1,8,0:0:0:0:
160,96,88431,1,0,0:0:0:0:
160,96,88558,1,0,0:0:0:0:
352,96,88812,1,8,0:0:0:0:
160,96,89448,1,0,0:0:0:0:
352,96,89702,1,8,0:0:0:0:
160,96,89956,1,0,0:0:0:0:
352,96,90464,1,8,0:0:0:0:
352,96,90719,1,8,0:0:0:0:
160,96,90973,1,0,0:0:0:0:
160,96,91227,1,0,0:0:0:0:
160,96,91354,1,0,0:0:0:0:
160,96,91736,1,0,0:0:0:0:
352,96,91990,1,8,0:0:0:0:
352,96,92244,1,8,0:0:0:0:
160,96,92498,1,0,0:0:0:0:
352,96,92753,1,8,0:0:0:0:
352,96,93261,1,8,0:0:0:0:
352,96,93388,1,8,0:0:0:0:
160,96,93515,1,0,0:0:0:0:
352,96,93770,1,8,0:0:0:0:
160,288,94024,1,4,0:0:0:0:
352,96,94278,1,8,0:0:0:0:
160,96,94532,1,0,0:0:0:0:
352,96,94787,1,8,0:0:0:0:
352,96,94914,1,8,0:0:0:0:
352,96,95295,1,8,0:0:0:0:
160,96,95549,1,0,0:0:0:0:
352,96,95803,1,8,0:0:0:0:
160,96,96058,1,0,0:0:0:0:
352,96,96312,1,8,0:0:0:0:
352,96,96566,1,8,0:0:0:0:
352,96,96820,1,8,0:0:0:0:
160,288,97075,1,4,0:0:0:0:
160,288,97456,1,4,0:0:0:0:
160,288,98092,1,4,0:0:0:0:
352,96,98346,1,8,0:0:0:0:
160,96,98600,1,0,0:0:0:0:
352,96,98854,1,8,0:0:0:0:
352,96,99109,1,8,0:0:0:0:
160,96,99363,1,0,0:0:0:0:
160,96,99490,1,0,0:0:0:0:
352,96,99871,1,8,0:0:0:0:
352,288,100126,1,12,0:0:0:0:
160,288,100507,1,4,0:0:0:0:
352,288,100888,1,12,0:0:0:0:
160,288,101142,1,4,0:0:0:0:
352,96,101397,1,8,0:0:0:0:
352,96,101524,1,8,0:0:0:0:
352,96,101651,1,8,0:0:0:0:
352,96,101905,1,8,0:0:0:0:
160,288,102159,1,4,0:0:0:0:
160,96,102668,1,0,0:0:0:0:
352,96,102922,1,8,0:0:0:0:
160,96,103176,1,0,0:0:0:0:
352,96,103431,1,8,0:0:0:0:
160,96,103558,1,0,0:0:0:0:
352,96,103939,1,8,0:0:0:0:
160,96,104193,1,0,0:0:0:0:
352,96,104448,1,8,0:0:0:0:
160,96,104702,1,0,0:0:0:0:
352,96,104956,1,8,0:0:0:0:
160,96,105210,1,0,0:0:0:0:
352,96,105464,1,8,0:0:0:0:
352,96,105592,1,8,0:0:0:0:
352,96,105973,1,8,0:0:0:0:
160,96,106227,1,0,0:0:0:0:
160,96,106736,1,0,0:0:0:0:
352,96,106990,1,8,0:0:0:0:
160,96,107244,1,0,0:0:0:0:
352,96,107498,1,8,0:0:0:0:
160,96,107753,1,0,0:0:0:0:
352,96,108007,1,8,0:0:0:0:
352,288,108261,1,12,0:0:0:0:
160,96,108515,1,0,0:0:0:0:
352,96,108642,1,8,0:0:0:0:
352,96,109024,1,8,0:0:0:0:
352,96,109278,1,8,0:0:0:0:
352,96,109532,1,8,0:0:0:0:
352,96,109659,1,8,0:0:0:0:
160,96,109787,1,0,0:0:0:0:
352,96,110041,1,8,0:0:0:0:
160,288,110295,1,4,0:0:0:0:
352,96,110549,1,8,0:0:0:0:
352,96,110676,1,8,0:0:0:0:
160,96,110803,1,0,0:0:0:0:
352,96,111058,1,8,0:0:0:0:
160,96,111312,1,0,0:0:0:0:
352,96,111566,1,8,0:0:0:0:
352,96,111693,1,8,0:0:0:0:
352,96,112075,1,8,0:0:0:0:
160,96,112329,1,0,0:0:0:0:
352,96,112583,1,8,0:0:0:0:
352,96,112710,1,8,0:0:0:0:
352,96,112837,1,8,0:0:0:0:
352,96,113092,1,8,0:0:0:0:
160,96,113346,1,0,0:0:0:0:
352,96,113600,1,8,0:0:0:0:
352,96,113727,1,8,0:0:0:0:
352,96,114109,1,8,0:0:0:0:
160,96,114363,1,0,0:0:0:0:
160,96,114617,1,0,0:0:0:0:
352,96,114871,1,8,0:0:0:0:
160,96,115380,1,0,0:0:0:0:
160,96,115634,1,0,0:0:0:0:
352,96,115761,1,8,0:0:0:0:
352,96,116142,1,8,0:0:0:0:
160,96,116397,1,0,0:0:0:0:
352,96,116651,1,8,0:0:0:0:
160,96,116905,1,0,0:0:0:0:
352,96,117159,1,8,0:0:0:0:
160,96,117414,1,0,0:0:0:0:
352,96,117668,1,8,0:0:0:0:
352,96,117922,1,8,0:0:0:0:
352,96,118049,1,8,0:0:0:0:
352,96,118176,1,8,0:0:0:0:
160,96,118431,1,0,0:0:0:0:
160,288,118939,1,4,0:0:0:0:
160,288,119448,1,4,0:0:0:0:
352,288,119956,1,12,0:0:0:0:
160,288,120464,1,4,0:0:0:0:
352,96,120719,1,8,0:0:0:0:
160,96,120973,1,0,0:0:0:0:
160,96,121227,1,0,0:0:0:0:
352,288,121354,1,12,0:0:0:0:
160,96,121736,1,0,0:0:0:0:
352,96,121990,1,8,0:0:0:0:
352,96,122117,1,8,0:0:0:0:
352,96,122244,1,8,0:0:0:0:
160,96,122498,1,0,0:0:0:0:
352,96,122753,1,8,0:0:0:0:
352,96,123007,1,8,0:0:0:0:
160,96,123134,1,0,0:0:0:0:
352,96,123388,1,8,0:0:0:0:
352,96,123770,1,8,0:0:0:0:
160,96,124024,1,0,0:0:0:0:
352,96,124278,1,8,0:0:0:0:
352,96,124532,1,8,0:0:0:0:
160,96,124787,1,0,0:0:0:0:
352,96,125041,1,8,0:0:0:0:
160,96,125295,1,0,0:0:0:0:
352,96,125422,1,8,0:0:0:0:
352,96,125803,1,8,0:0:0:0:
160,96,126058,1,0,0:0:0:0:
352,96,126312,1,8,0:0:0:0:
352,96,126566,1,8,0:0:0:0:
160,96,126820,1,0,0:0:0:0:
160,96,126948,1,0,0:0:0:0:
160,96,127329,1,0,0:0:0:0:
352,96,127583,1,8,0:0:0:0:
352,96,127837,1,8,0:0:0:0:
352,96,128092,1,8,0:0:0:0:
352,96,128219,1,8,0:0:0:0:
352,96,128346,1,8,0:0:0:0:
160,288,128600,1,4,0:0:0:0:
352,96,128854,1,8,0:0:0:0:
160,96,129109,1,0,0:0:0:0:
160,96,129363,1,0,0:0:0:0:
352,288,129490,1,12,0:0:0:0:
160,96,129871,1,0,0:0:0:0:
352,96,130126,1,8,0:0:0:0:
160,96,130380,1,0,0:0:0:0:
352,288,130634,1,12,0:0:0:0:
160,96,130888,1,0,0:0:0:0:
352,96,131142,1,8,0:0:0:0:
160,96,131270,1,0,0:0:0:0:
160,288,131524,1,4,0:0:0:0:
160,96,131905,1,0,0:0:0:0:
352,96,132159,1,8,0:0:0:0:
160,96,132287,1,0,0:0:0:0:
352,96,132414,1,8,0:0:0:0:
160,96,132668,1,0,0:0:0:0:
352,96,133176,1,8,0:0:0:0:
160,96,133431,1,0,0:0:0:0:
352,96,133685,1,8,0:0:0:0:
160,96,133939,1,0,0:0:0:0:
352,96,134066,1,8,0:0:0:0:
352,96,134320,1,8,0:0:0:0:
160,96,134448,1,0,0:0:0:0:
160,96,134702,1,0,0:0:0:0:
352,96,135210,1,8,0:0:0:0:
352,96,135464,1,8,0:0:0:0:
160,96,135719,1,0,0:0:0:0:
160,96,135846,1,0,0:0:0:0:
160,96,135973,1,0,0:0:0:0:
352,96,136227,1,8,0:0:0:0:
352,96,136354,1,8,0:0:0:0:
352,96,136481,1,8,0:0:0:0:
160,288,136736,1,4,0:0:0:0:
352,96,136990,1,8,0:0:0:0:
160,96,137244,1,0,0:0:0:0:
352,96,137498,1,8,0:0:0:0:
352,96,137753,1,8,0:0:0:0:
352,96,138261,1,8,0:0:0:0:
352,96,138515,1,8,0:0:0:0:
160,288,138770,1,4,0:0:0:0:
352,96,139024,1,8,0:0:0:0:
352,288,139278,1,12,0:0:0:0:
160,96,139532,1,0,0:0:0:0:
352,288,139659,1,12,0:0:0:0:
160,96,140168,1,0,0:0:0:0:
160,96,140422,1,0,0:0:0:0:
352,96,140549,1,8,0:0:0:0:
160,288,140803,1,4,0:0:0:0:
352,96,141058,1,8,0:0:0:0:
160,96,141312,1,0,0:0:0:0:
352,96,141566,1,8,0:0:0:0:
352,96,141820,1,8,0:0:0:0:
160,96,142075,1,0,0:0:0:0:
352,96,142329,1,8,0:0:0:0:
352,96,142583,1,8,0:0:0:0:
160,288,142837,1,4,0:0:0:0:
352,96,143346,1,8,0:0:0:0:
352,96,143727,1,8,0:0:0:0:
352,96,143981,1,8,0:0:0:0:
352,96,144109,1,8,0:0:0:0:
352,96,144363,1,8,0:0:0:0:
160,96,144871,1,0,0:0:0:0:
352,96,145380,1,8,0:0:0:0:
352,96,145761,1,8,0:0:0:0:
352,96,146015,1,8,0:0:0:0:
352,96,146270,1,8,0:0:0:0:
352,96,146397,1,8,0:0:0:0:
160,96,146905,1,0,0:0:0:0:
352,96,147414,1,8,0:0:0:0:
352,96,147795,1,8,0:0:0:0:
352,96,148049,1,8,0:0:0:0:
352,96,148176,1,8,0:0:0:0:
352,96,148431,1,8,0:0:0:0:
160,96,148939,1,0,0:0:0:0:
352,96,149448,1,8,0:0:0:0:
352,96,149702,1,8,0:0:0:0:
160,96,149956,1,0,0:0:0:0:
352,96,150210,1,8,0:0:0:0:
352,96,150464,1,8,0:0:0:0:
352,96,150592,1,8,0:0:0:0:
352,96,150719,1,8,0:0:0:0:
160,288,150973,1,4,0:0:0:0:
352,96,151481,1,8,0:0:0:0:
160,96,151736,1,0,0:0:0:0:
352,96,151863,1,8,0:0:0:0:
352,96,152244,1,8,0:0:0:0:
160,96,152498,1,0,0:0:0:0:
352,96,152753,1,8,0:0:0:0:
160,96,153007,1,0,0:0:0:0:
352,96,153261,1,8,0:0:0:0:
160,96,153515,1,0,0:0:0:0:
352,96,153642,1,8,0:0:0:0:
352,96,153897,1,8,0:0:0:0:
352,96,154278,1,8,0:0:0:0:
160,96,154532,1,0,0:0:0:0:
352,96,154787,1,8,0:0:0:0:
160,96,155041,1,0,0:0:0:0:
352,96,155295,1,8,0:0:0:0:
160,96,155549,1,0,0:0:0:0:
160,96,155676,1,0,0:0:0:0:
352,96,155803,1,8,0:0:0:0:
160,96,156058,1,0,0:0:0:0:
352,96,156312,1,8,0:0:0:0:
160,96,156693,1,0,0:0:0:0:
352,96,156820,1,8,0:0:0:0:
160,96,157075,1,0,0:0:0:0:
352,96,157329,1,8,0:0:0:0:
352,96,157456,1,8,0:0:0:0:
160,96,157583,1,0,0:0:0:0:
352,96,157837,1,8,0:0:0:0:
352,96,158092,1,8,0:0:0:0:
352,96,158346,1,8,0:0:0:0:
352,96,158600,1,8,0:0:0:0:
352,96,158727,1,8,0:0:0:0:
352,96,158854,1,8,0:0:0:0:
160,288,159109,1,4,0:0:0:0:
352,96,159363,1,8,0:0:0:0:
160,96,159617,1,0,0:0:0:0:
352,288,159998,1,12,0:0:0:0:
352,96,160380,1,8,0:0:0:0:
352,96,160634,1,8,0:0:0:0:
352,96,160761,1,8,0:0:0:0:
352,96,160888,1,8,0:0:0:0:
160,288,161142,1,4,0:0:0:0:
352,96,161397,1,8,0:0:0:0:
160,96,161651,1,0,0:0:0:0:
352,288,162032,1,12,0:0:0:0:
160,96,162414,1,0,0:0:0:0:
160,96,162541,1,0,0:0:0:0:
160,96,162668,1,0,0:0:0:0:
352,96,162922,1,8,0:0:0:0:
352,288,163176,1,12,0:0:0:0:
160,96,163431,1,0,0:0:0:0:
352,96,163558,1,8,0:0:0:0:
160,96,163812,1,0,0:0:0:0:
352,96,163939,1,8,0:0:0:0:
160,96,164448,1,0,0:0:0:0:
352,96,164702,1,8,0:0:0:0:
160,96,164956,1,0,0:0:0:0:
352,288,165210,1,12,0:0:0:0:
160,96,165464,1,0,0:0:0:0:
352,96,165592,1,8,0:0:0:0:
160,96,165846,1,0,0:0:0:0:
352,96,165973,1,8,0:0:0:0:
352,96,166481,1,8,0:0:0:0:
352,96,166736,1,8,0:0:0:0:
352,96,166990,1,8,0:0:0:0:
160,96,167244,1,0,0:0:0:0:
352,96,167498,1,8,0:0:0:0:
352,96,167753,1,8,0:0:0:0:
352,96,168007,1,8,0:0:0:0:
352,96,168261,1,8,0:0:0:0:
352,96,168388,1,8,0:0:0:0:
352,96,168515,1,8,0:0:0:0:
160,96,168770,1,0,0:0:0:0:
352,96,169024,1,8,0:0:0:0:
160,288,169278,1,4,0:0:0:0:
256,192,169405,8,0,172329,0:0:0:0:
160,288,173346,5,4,0:0:0:0:
352,288,174236,1,12,0:0:0:0:
352,96,174871,1,8,0:0:0:0:
352,96,175126,1,8,0:0:0:0:
160,288,175380,1,4,0:0:0:0:
352,96,175634,1,8,0:0:0:0:
352,96,175888,1,8,0:0:0:0:
160,96,176015,1,0,0:0:0:0:
352,96,176270,1,8,0:0:0:0:
352,96,176651,1,8,0:0:0:0:
352,96,176905,1,8,0:0:0:0:
352,96,177159,1,8,0:0:0:0:
160,96,177414,1,0,0:0:0:0:
352,96,177668,1,8,0:0:0:0:
160,96,177922,1,0,0:0:0:0:
160,96,178176,1,0,0:0:0:0:
352,96,178303,1,8,0:0:0:0:
352,96,178685,1,8,0:0:0:0:
160,96,178939,1,0,0:0:0:0:
352,96,179193,1,8,0:0:0:0:
160,96,179448,1,0,0:0:0:0:
352,96,179702,1,8,0:0:0:0:
352,96,179829,1,8,0:0:0:0:
160,96,180210,1,0,0:0:0:0:
352,96,180464,1,8,0:0:0:0:
352,96,180719,1,8,0:0:0:0:
352,96,180973,1,8,0:0:0:0:
352,96,181100,1,8,0:0:0:0:
352,96,181227,1,8,0:0:0:0:
160,288,181481,1,4,0:0:0:0:
352,96,181736,1,8,0:0:0:0:
160,96,181990,1,0,0:0:0:0:
160,96,182244,1,0,0:0:0:0:
352,288,182371,1,12,0:0:0:0:
160,96,182753,1,0,0:0:0:0:
352,96,183007,1,8,0:0:0:0:
352,96,183134,1,8,0:0:0:0:
352,96,183261,1,8,0:0:0:0:
352,288,183515,1,12,0:0:0:0:
160,96,183770,1,0,0:0:0:0:
352,96,184024,1,8,0:0:0:0:
160,96,184151,1,0,0:0:0:0:
160,288,184405,1,4,0:0:0:0:
352,96,184787,1,8,0:0:0:0:
352,96,185041,1,8,0:0:0:0:
352,96,185295,1,8,0:0:0:0:
160,96,185549,1,0,0:0:0:0:
352,96,186058,1,8,0:0:0:0:
160,96,186312,1,0,0:0:0:0:
352,96,186566,1,8,0:0:0:0:
160,96,186820,1,0,0:0:0:0:
352,96,186948,1,8,0:0:0:0:
160,96,187202,1,0,0:0:0:0:
352,96,187329,1,8,0:0:0:0:
160,96,187583,1,0,0:0:0:0:
352,96,188092,1,8,0:0:0:0:
160,96,188346,1,0,0:0:0:0:
352,96,188600,1,8,0:0:0:0:
352,96,188727,1,8,0:0:0:0:
352,96,188854,1,8,0:0:0:0:
160,96,189109,1,0,0:0:0:0:
160,96,189236,1,0,0:0:0:0:
160,96,189363,1,0,0:0:0:0:
160,288,189617,1,4,0:0:0:0:
352,96,189871,1,8,0:0:0:0:
160,96,190126,1,0,0:0:0:0:
352,96,190380,1,8,0:0:0:0:
352,96,190634,1,8,0:0:0:0:
352,96,191142,1,8,0:0:0:0:
352,96,191397,1,8,0:0:0:0:
160,288,191651,1,4,0:0:0:0:
352,96,191905,1,8,0:0:0:0:
352,288,192159,1,12,0:0:0:0:
160,96,192414,1,0,0:0:0:0:
352,288,192541,1,12,0:0:0:0:
160,96,193049,1,0,0:0:0:0:
160,96,193303,1,0,0:0:0:0:
352,96,193431,1,8,0:0:0:0:
160,96,193685,1,0,0:0:0:0:
352,96,193939,1,8,0:0:0:0:
160,96,194193,1,0,0:0:0:0:
160,96,194320,1,0,0:0:0:0:
352,96,194448,1,8,0:0:0:0:
352,96,194702,1,8,0:0:0:0:
160,96,194956,1,0,0:0:0:0:
352,96,195210,1,8,0:0:0:0:
352,96,195337,1,8,0:0:0:0:
352,96,195464,1,8,0:0:0:0:
160,96,195719,1,0,0:0:0:0:
352,96,195973,1,8,0:0:0:0:
352,96,196100,1,8,0:0:0:0:
352,96,196227,1,8,0:0:0:0:
352,96,196481,1,8,0:0:0:0:
160,96,196736,1,0,0:0:0:0:
160,96,196990,1,0,0:0:0:0:
160,96,197117,1,0,0:0:0:0:
160,96,197244,1,0,0:0:0:0:
352,96,197498,1,8,0:0:0:0:
160,288,197753,1,4,0:0:0:0:
352,96,198007,1,8,0:0:0:0:
160,96,198261,1,0,0:0:0:0:
160,96,198515,1,0,0:0:0:0:
352,288,198642,1,12,0:0:0:0:
160,96,199024,1,0,0:0:0:0:
352,96,199278,1,8,0:0:0:0:
352,96,199405,1,8,0:0:0:0:
352,96,199532,1,8,0:0:0:0:
160,96,199787,1,0,0:0:0:0:
352,96,200041,1,8,0:0:0:0:
352,96,200295,1,8,0:0:0:0:
160,96,200422,1,0,0:0:0:0:
352,96,200676,1,8,0:0:0:0:
352,96,201058,1,8,0:0:0:0:
160,96,201312,1,0,0:0:0:0:
352,96,201566,1,8,0:0:0:0:
352,96,201820,1,8,0:0:0:0:
160,96,202075,1,0,0:0:0:0:
352,96,202329,1,8,0:0:0:0:
160,96,202583,1,0,0:0:0:0:
352,96,202710,1,8,0:0:0:0:
352,96,203092,1,8,0:0:0:0:
160,96,203346,1,0,0:0:0:0:
352,96,203600,1,8,0:0:0:0:
352,96,203854,1,8,0:0:0:0:
160,96,204109,1,0,0:0:0:0:
160,96,204236,1,0,0:0:0:0:
160,96,204617,1,0,0:0:0:0:
352,96,204871,1,8,0:0:0:0:
352,96,205126,1,8,0:0:0:0:
352,96,205380,1,8,0:0:0:0:
352,96,205507,1,8,0:0:0:0:
352,96,205634,1,8,0:0:0:0:
160,288,205888,1,4,0:0:0:0:
352,96,206142,1,8,0:0:0:0:
160,96,206397,1,0,0:0:0:0:
160,96,206651,1,0,0:0:0:0:
352,288,206778,1,12,0:0:0:0:
160,96,207159,1,0,0:0:0:0:
352,96,207414,1,8,0:0:0:0:
352,96,207541,1,8,0:0:0:0:
160,96,207668,1,0,0:0:0:0:
352,288,207922,1,12,0:0:0:0:
160,96,208176,1,0,0:0:0:0:
352,96,208431,1,8,0:0:0:0:
160,96,208558,1,0,0:0:0:0:
160,288,208812,1,4,0:0:0:0:
160,96,209193,1,0,0:0:0:0:
352,96,209448,1,8,0:0:0:0:
160,96,209575,1,0,0:0:0:0:
352,96,209702,1,8,0:0:0:0:
160,96,209956,1,0,0:0:0:0:
352,96,210464,1,8,0:0:0:0:
160,96,210719,1,0,0:0:0:0:
352,96,210973,1,8,0:0:0:0:
160,96,211227,1,0,0:0:0:0:
352,96,211354,1,8,0:0:0:0:
352,96,211609,1,8,0:0:0:0:
160,96,211736,1,0,0:0:0:0:
160,96,211990,1,0,0:0:0:0:
352,96,212498,1,8,0:0:0:0:
160,96,212753,1,0,0:0:0:0:
160,96,213007,1,0,0:0:0:0:
160,96,213134,1,0,0:0:0:0:
160,96,213261,1,0,0:0:0:0:
352,96,213515,1,8,0:0:0:0:
352,96,213642,1,8,0:0:0:0:
352,96,213770,1,8,0:0:0:0:
160,288,214024,1,4,0:0:0:0:
352,96,214278,1,8,0:0:0:0:
160,96,214532,1,0,0:0:0:0:
352,96,214787,1,8,0:0:0:0:
352,96,215041,1,8,0:0:0:0:
352,96,215549,1,8,0:0:0:0:
352,96,215803,1,8,0:0:0:0:
160,288,216058,1,4,0:0:0:0:
352,96,216312,1,8,0:0:0:0:
352,288,216566,1,12,0:0:0:0:
160,96,216820,1,0,0:0:0:0:
352,288,216948,1,12,0:0:0:0:
160,96,217456,1,0,0:0:0:0:
160,96,217710,1,0,0:0:0:0:
352,96,217837,1,8,0:0:0:0:
160,288,218092,1,4,0:0:0:0:
352,96,218346,1,8,0:0:0:0:
160,96,218600,1,0,0:0:0:0:
352,96,218854,1,8,0:0:0:0:
352,96,218981,1,8,0:0:0:0:
352,96,219109,1,8,0:0:0:0:
160,96,219363,1,0,0:0:0:0:
352,96,219617,1,8,0:0:0:0:
352,96,219871,1,8,0:0:0:0:
160,288,220126,1,4,0:0:0:0:
352,96,220380,1,8,0:0:0:0:
352,96,220888,1,8,0:0:0:0:
160,96,221270,1,0,0:0:0:0:
352,96,221397,1,8,0:0:0:0:
160,96,221651,1,0,0:0:0:0:
352,96,221905,1,8,0:0:0:0:
160,96,222159,1,0,0:0:0:0:
352,96,222414,1,8,0:0:0:0:
352,96,222922,1,8,0:0:0:0:
160,96,223303,1,0,0:0:0:0:
352,96,223431,1,8,0:0:0:0:
160,96,223685,1,0,0:0:0:0:
352,96,223939,1,8,0:0:0:0:
160,96,224193,1,0,0:0:0:0:
352,96,224448,1,8,0:0:0:0:
352,96,224575,1,8,0:0:0:0:
352,96,224956,1,8,0:0:0:0:
160,96,225210,1,0,0:0:0:0:
352,96,225464,1,8,0:0:0:0:
352,96,225592,1,8,0:0:0:0:
352,96,225719,1,8,0:0:0:0:
352,96,225973,1,8,0:0:0:0:
160,96,226227,1,0,0:0:0:0:
352,96,226481,1,8,0:0:0:0:
352,96,226609,1,8,0:0:0:0:
160,96,226990,1,0,0:0:0:0:
352,96,227244,1,8,0:0:0:0:
352,96,227498,1,8,0:0:0:0:
352,96,227626,1,8,0:0:0:0:
160,96,227753,1,0,0:0:0:0:
352,96,228007,1,8,0:0:0:0:
160,288,228261,1,4,0:0:0:0:
256,192,228515,8,0,230041,0:0:0:0:
352,288,230295,5,12,0:0:0:0:
