osu file format v14

[General]
AudioFilename: boof.mp3
AudioLeadIn: 0
PreviewTime: 5858
Countdown: 0
SampleSet: Normal
StackLeniency: 0.7
Mode: 1
LetterboxInBreaks: 0
WidescreenStoryboard: 0

[Editor]
DistanceSpacing: 1.4
BeatDivisor: 4
GridSize: 32
TimelineZoom: 1.4

[Metadata]
Title:dog talk!
TitleUnicode:dog talk!
Artist:spellcasting
ArtistUnicode:spellcasting
Creator:meiqth
Version:mofumofu!
Source:
Tags:doodle dump! electronic instrumental barking bark woof tag2 tag coop
BeatmapID:4292641
BeatmapSetID:2054605

[Difficulty]
HPDrainRate:7
CircleSize:2
OverallDifficulty:7
ApproachRate:10
SliderMultiplier:1.4
SliderTickRate:1

[Events]
//Background and Video events
0,0,"cover.jpg",0,60
//Break Periods
2,4933,6312
//Storyboard Layer 0 (Background)
//Storyboard Layer 1 (Fail)
//Storyboard Layer 2 (Pass)
//Storyboard Layer 3 (Foreground)
//Storyboard Layer 4 (Overlay)
//Storyboard Sound Samples

[TimingPoints]
109,603.015075376884,4,1,0,60,1,0
109,-80,4,1,0,60,0,0
4933,603.015075376884,4,1,0,75,1,8
6762,352.941176470588,4,1,0,75,1,0
12409,-90.9090909090909,4,1,0,75,0,0
15496,-100,4,1,0,75,0,0
15584,-100.81162,4,1,0,75,0,0
15760,-102.45469,4,1,0,75,0,0
15937,-104.13409,4,1,0,75,0,0
16113,-105.8313,4,1,0,75,0,0
16290,-107.56605,4,1,0,75,0,0
16378,-108.43907,4,1,0,75,0,0
16466,-109.31919,4,1,0,75,0,0
16555,-110.21657,4,1,0,75,0,0
16643,-111.08849,4,1,0,75,0,0
16819,-107.17833,4,1,0,75,0,0
16908,-105.25374,4,1,0,75,0,0
16996,-103.38475,4,1,0,75,0,0
17172,-99.74574,4,1,0,75,0,0
17260,-97.97457,4,1,0,75,0,0
17349,-96.215256,4,1,0,75,0,0
17437,-94.50675,4,1,0,75,0,0
17525,-92.828606,4,1,0,75,0,0
17613,-91.180244,4,1,0,75,0,0
17702,-89.54294,4,1,0,75,0,0
18056,-83.33333,4,1,0,75,0,0
29350,-76.9230769230769,4,1,0,75,0,1
39232,-76.9230769230769,4,1,0,75,0,0
39467,-55.5555555555556,4,1,0,75,0,0
39703,-76.9230769230769,4,1,0,75,0,0
40180,-55.5555555555556,4,1,0,75,0,0
40392,-76.9230769230769,4,1,0,75,0,0
41024,-20,4,1,0,33,0,0

[HitObjects]
256,192,109,5,8,0:0:0:0:
256,192,411,1,8,0:0:0:0:
256,192,562,1,8,0:0:0:0:
256,192,712,1,8,0:0:0:0:
256,192,1014,1,0,0:0:0:0:
256,192,1315,1,8,0:0:0:0:
256,192,1617,1,0,0:0:0:0:
256,192,1918,1,8,0:0:0:0:
256,192,2220,1,8,0:0:0:0:
256,192,2521,5,4,0:0:0:0:
256,192,3124,1,0,0:0:0:0:
256,192,3727,1,8,0:0:0:0:
256,192,4330,1,8,0:0:0:0:
256,192,6762,5,12,0:0:0:0:
256,192,6938,1,0,0:0:0:0:
256,192,7114,1,8,0:0:0:0:
256,192,7203,1,8,0:0:0:0:
256,192,7291,1,8,0:0:0:0:
256,192,7467,1,0,0:0:0:0:
256,192,7644,1,8,0:0:0:0:
256,192,7732,1,0,0:0:0:0:
256,192,7820,1,0,0:0:0:0:
256,192,7909,1,8,0:0:0:0:
256,192,7997,1,8,0:0:0:0:
256,192,8173,1,0,0:0:0:0:
256,192,8350,1,8,0:0:0:0:
256,192,8438,1,8,0:0:0:0:
256,192,8526,1,0,0:0:0:0:
256,192,8703,1,8,0:0:0:0:
256,192,8879,1,0,0:0:0:0:
256,192,8967,1,8,0:0:0:0:
256,192,9056,1,0,0:0:0:0:
256,192,9144,1,0,0:0:0:0:
256,192,9232,1,8,0:0:0:0:
256,192,9409,1,8,0:0:0:0:
256,192,9497,1,8,0:0:0:0:
256,192,9585,1,0,0:0:0:0:
256,192,9761,5,8,0:0:0:0:
256,192,9938,1,0,0:0:0:0:
256,192,10114,1,8,0:0:0:0:
256,192,10291,1,0,0:0:0:0:
256,192,10379,1,0,0:0:0:0:
256,192,10467,1,8,0:0:0:0:
256,192,10556,1,0,0:0:0:0:
256,192,10644,1,8,0:0:0:0:
256,192,10820,1,0,0:0:0:0:
256,192,10997,1,8,0:0:0:0:
256,192,11085,1,8,0:0:0:0:
256,192,11173,1,0,0:0:0:0:
256,192,11350,1,8,0:0:0:0:
256,192,11526,1,0,0:0:0:0:
256,192,11703,1,8,0:0:0:0:
256,192,11791,1,0,0:0:0:0:
256,192,11835,1,0,0:0:0:0:
256,192,11879,1,8,0:0:0:0:
256,192,11967,1,8,0:0:0:0:
256,192,12056,1,0,0:0:0:0:
256,192,12144,1,0,0:0:0:0:
256,192,12232,1,8,0:0:0:0:
256,192,12409,5,4,0:0:0:0:
256,192,12585,1,8,0:0:0:0:
256,192,12761,1,0,0:0:0:0:
256,192,12938,1,8,0:0:0:0:
256,192,13114,1,0,0:0:0:0:
256,192,13173,1,0,0:0:0:0:
256,192,13232,1,0,0:0:0:0:
256,192,13291,1,8,0:0:0:0:
256,192,13379,1,8,0:0:0:0:
256,192,13467,1,0,0:0:0:0:
256,192,13644,1,0,0:0:0:0:
256,192,13732,1,8,0:0:0:0:
256,192,13776,1,8,0:0:0:0:
256,192,13820,1,0,0:0:0:0:
256,192,13997,1,8,0:0:0:0:
256,192,14173,1,0,0:0:0:0:
256,192,14350,1,8,0:0:0:0:
256,192,14526,1,0,0:0:0:0:
256,192,14585,1,8,0:0:0:0:
256,192,14644,1,8,0:0:0:0:
256,192,14703,1,0,0:0:0:0:
256,192,14791,1,0,0:0:0:0:
256,192,14879,1,8,0:0:0:0:
256,192,14967,1,0,0:0:0:0:
256,192,15056,1,8,0:0:0:0:
256,192,15144,1,8,0:0:0:0:
256,192,15232,1,0,0:0:0:0:
256,192,15497,5,0,0:0:0:0:
256,192,15585,1,8,0:0:0:0:
256,192,15761,1,0,0:0:0:0:
256,192,15938,1,8,0:0:0:0:
256,192,16114,1,8,0:0:0:0:
256,192,16291,1,0,0:0:0:0:
256,192,16379,1,0,0:0:0:0:
256,192,16467,1,8,0:0:0:0:
256,192,16556,1,8,0:0:0:0:
256,192,16644,1,0,0:0:0:0:
256,192,16820,1,8,0:0:0:0:
256,192,16909,1,0,0:0:0:0:
256,192,16997,1,8,0:0:0:0:
256,192,17173,1,0,0:0:0:0:
256,192,17261,1,0,0:0:0:0:
256,192,17350,1,8,0:0:0:0:
256,192,17438,1,8,0:0:0:0:
256,192,17526,1,0,0:0:0:0:
256,192,17614,1,8,0:0:0:0:
256,192,17703,1,4,0:0:0:0:
256,192,18056,5,12,0:0:0:0:
256,192,18232,1,0,0:0:0:0:
256,192,18320,1,0,0:0:0:0:
256,192,18409,1,8,0:0:0:0:
256,192,18585,1,0,0:0:0:0:
256,192,18673,1,8,0:0:0:0:
256,192,18761,1,0,0:0:0:0:
256,192,18938,1,8,0:0:0:0:
256,192,19026,1,8,0:0:0:0:
256,192,19114,1,0,0:0:0:0:
256,192,19203,1,8,0:0:0:0:
256,192,19291,1,0,0:0:0:0:
256,192,19467,1,8,0:0:0:0:
256,192,19644,1,0,0:0:0:0:
256,192,19732,1,0,0:0:0:0:
256,192,19820,1,8,0:0:0:0:
256,192,19997,1,0,0:0:0:0:
256,192,20173,1,8,0:0:0:0:
256,192,20261,1,0,0:0:0:0:
256,192,20350,1,8,0:0:0:0:
256,192,20526,1,0,0:0:0:0:
256,192,20614,1,0,0:0:0:0:
256,192,20703,1,0,0:0:0:0:
256,192,20879,1,8,0:0:0:0:
256,192,21056,1,0,0:0:0:0:
256,192,21144,1,8,0:0:0:0:
256,192,21232,1,8,0:0:0:0:
256,192,21409,1,0,0:0:0:0:
256,192,21585,1,8,0:0:0:0:
256,192,21673,1,8,0:0:0:0:
256,192,21761,1,0,0:0:0:0:
256,192,21850,1,0,0:0:0:0:
256,192,21938,1,8,0:0:0:0:
256,192,22114,1,8,0:0:0:0:
256,192,22291,1,0,0:0:0:0:
256,192,22379,1,8,0:0:0:0:
256,192,22467,1,0,0:0:0:0:
256,192,22556,1,0,0:0:0:0:
256,192,22644,1,8,0:0:0:0:
256,192,22820,1,8,0:0:0:0:
256,192,22997,1,0,0:0:0:0:
256,192,23173,1,0,0:0:0:0:
256,192,23261,1,8,0:0:0:0:
256,192,23350,1,0,0:0:0:0:
256,192,23526,1,0,0:0:0:0:
256,192,23879,5,8,0:0:0:0:
256,192,23967,1,0,0:0:0:0:
256,192,24056,1,8,0:0:0:0:
256,192,24144,1,8,0:0:0:0:
256,192,24232,1,8,0:0:0:0:
256,192,24409,1,0,0:0:0:0:
256,192,24585,1,8,0:0:0:0:
256,192,24673,1,8,0:0:0:0:
256,192,24761,1,0,0:0:0:0:
256,192,24938,1,8,0:0:0:0:
256,192,25114,1,0,0:0:0:0:
256,192,25203,1,8,0:0:0:0:
256,192,25291,1,0,0:0:0:0:
256,192,25379,1,0,0:0:0:0:
256,192,25467,1,8,0:0:0:0:
256,192,25556,1,0,0:0:0:0:
256,192,25644,1,8,0:0:0:0:
256,192,25820,1,8,0:0:0:0:
256,192,25909,1,8,0:0:0:0:
256,192,25997,1,8,0:0:0:0:
256,192,26085,1,0,0:0:0:0:
256,192,26261,1,0,0:0:0:0:
256,192,26350,1,8,0:0:0:0:
256,192,26703,1,8,0:0:0:0:
256,192,26791,1,0,0:0:0:0:
256,192,26879,1,8,0:0:0:0:
256,192,27056,1,0,0:0:0:0:
256,192,27232,1,8,0:0:0:0:
256,192,27409,1,0,0:0:0:0:
256,192,27497,1,0,0:0:0:0:
256,192,27585,1,8,0:0:0:0:
256,192,27673,1,8,0:0:0:0:
256,192,27761,1,0,0:0:0:0:
256,192,27938,1,8,0:0:0:0:
256,192,28114,1,0,0:0:0:0:
256,192,28203,1,8,0:0:0:0:
256,192,28291,1,0,0:0:0:0:
256,192,28467,1,8,0:0:0:0:
256,192,28556,1,8,0:0:0:0:
256,192,28644,1,0,0:0:0:0:
256,192,28820,1,8,0:0:0:0:
256,192,28909,1,0,0:0:0:0:
256,192,28997,1,8,0:0:0:0:
256,192,29085,1,8,0:0:0:0:
256,192,29173,1,0,0:0:0:0:
256,192,29261,1,0,0:0:0:0:
256,192,29350,5,12,0:0:0:0:
256,192,29526,1,0,0:0:0:0:
256,192,29703,1,8,0:0:0:0:
256,192,29791,1,0,0:0:0:0:
256,192,29879,1,8,0:0:0:0:
256,192,29967,1,8,0:0:0:0:
256,192,30056,1,0,0:0:0:0:
256,192,30144,1,0,0:0:0:0:
256,192,30232,1,8,0:0:0:0:
256,192,30409,1,0,0:0:0:0:
256,192,30585,1,8,0:0:0:0:
256,192,30673,1,8,0:0:0:0:
256,192,30761,1,0,0:0:0:0:
256,192,30938,1,8,0:0:0:0:
256,192,31114,1,0,0:0:0:0:
256,192,31291,1,8,0:0:0:0:
256,192,31379,1,8,0:0:0:0:
256,192,31467,1,0,0:0:0:0:
256,192,31556,1,8,0:0:0:0:
256,192,31644,1,0,0:0:0:0:
256,192,31820,1,8,0:0:0:0:
256,192,31997,1,8,0:0:0:0:
256,192,32173,5,0,0:0:0:0:
256,192,32350,1,0,0:0:0:0:
256,192,32438,1,8,0:0:0:0:
256,192,32526,1,8,0:0:0:0:
256,192,32614,1,0,0:0:0:0:
256,192,32703,1,8,0:0:0:0:
256,192,32791,1,0,0:0:0:0:
256,192,32879,1,8,0:0:0:0:
256,192,33056,1,0,0:0:0:0:
256,192,33232,1,8,0:0:0:0:
256,192,33320,1,0,0:0:0:0:
256,192,33409,1,8,0:0:0:0:
256,192,33585,1,0,0:0:0:0:
256,192,33673,1,0,0:0:0:0:
256,192,33761,1,8,0:0:0:0:
256,192,33850,1,0,0:0:0:0:
256,192,33938,1,8,0:0:0:0:
256,192,34026,1,8,0:0:0:0:
256,192,34114,1,0,0:0:0:0:
256,192,34203,1,8,0:0:0:0:
256,192,34291,1,0,0:0:0:0:
256,192,34467,1,8,0:0:0:0:
256,192,34556,1,0,0:0:0:0:
256,192,34644,1,8,0:0:0:0:
256,192,34820,1,8,0:0:0:0:
256,192,34997,5,0,0:0:0:0:
256,192,35173,1,8,0:0:0:0:
256,192,35350,1,0,0:0:0:0:
256,192,35438,1,8,0:0:0:0:
256,192,35526,1,0,0:0:0:0:
256,192,35614,1,0,0:0:0:0:
256,192,35703,1,8,0:0:0:0:
256,192,35791,1,8,0:0:0:0:
256,192,35879,1,0,0:0:0:0:
256,192,36056,1,8,0:0:0:0:
256,192,36232,1,0,0:0:0:0:
256,192,36320,1,0,0:0:0:0:
256,192,36409,1,8,0:0:0:0:
256,192,36497,1,0,0:0:0:0:
256,192,36585,1,8,0:0:0:0:
256,192,36761,1,8,0:0:0:0:
256,192,36938,1,0,0:0:0:0:
256,192,37114,5,8,0:0:0:0:
256,192,37203,1,8,0:0:0:0:
256,192,37291,1,0,0:0:0:0:
256,192,37379,1,8,0:0:0:0:
256,192,37556,1,8,0:0:0:0:
256,192,37644,1,0,0:0:0:0:
256,192,37820,1,8,0:0:0:0:
256,192,37997,1,0,0:0:0:0:
256,192,38085,1,8,0:0:0:0:
256,192,38173,1,0,0:0:0:0:
256,192,38261,1,0,0:0:0:0:
256,192,38350,1,8,0:0:0:0:
256,192,38438,1,8,0:0:0:0:
256,192,38526,1,0,0:0:0:0:
256,192,38703,1,8,0:0:0:0:
256,192,38791,1,8,0:0:0:0:
256,192,38879,1,0,0:0:0:0:
256,192,39056,1,8,0:0:0:0:
256,192,39232,5,0,0:0:0:0:
256,192,39409,1,0,0:0:0:0:
256,192,39585,1,12,0:0:0:0:
256,192,39938,5,0,0:0:0:0:
256,192,40115,1,0,0:0:0:0:
256,192,40291,1,12,0:0:0:0:
256,192,40644,1,0,0:0:0:0:
256,192,41085,8,0,41350,0:0:0:0:
