osu file format v14

[General]
AudioFilename: boof.mp3
AudioLeadIn: 0
PreviewTime: 5858
Countdown: 0
SampleSet: Normal
StackLeniency: 0.7
Mode: 1
LetterboxInBreaks: 0
WidescreenStoryboard: 1

[Editor]
DistanceSpacing: 1.4
BeatDivisor: 2
GridSize: 32
TimelineZoom: 0.6999996

[Metadata]
Title:dog talk!
TitleUnicode:dog talk!
Artist:spellcasting
ArtistUnicode:spellcasting
Creator:meiqth
Version:kantan!
Source:
Tags:doodle dump! electronic instrumental barking bark woof tag2 tag coop
BeatmapID:4292640
BeatmapSetID:2054605

[Difficulty]
HPDrainRate:10
CircleSize:2
OverallDifficulty:3
ApproachRate:10
SliderMultiplier:1.4
SliderTickRate:1

[Events]
//Background and Video events
0,0,"cover.jpg",0,60
//Break Periods
//Storyboard Layer 0 (Background)
//Storyboard Layer 1 (Fail)
//Storyboard Layer 2 (Pass)
//Storyboard Layer 3 (Foreground)
//Storyboard Layer 4 (Overlay)
//Storyboard Sound Samples

[TimingPoints]
109,603.015075376884,4,1,0,60,1,0
109,-60.6060606060606,4,1,0,60,0,0
4933,603.015075376884,4,1,0,75,1,8
6762,352.941176470588,4,1,0,75,1,0
29350,-100,4,1,0,75,0,1
39232,-100,4,1,0,75,0,0

[HitObjects]
256,192,109,5,8,0:0:0:0:
256,192,712,1,8,0:0:0:0:
256,192,1013,1,0,0:0:0:0:
256,192,1315,1,8,0:0:0:0:
256,192,1918,1,8,0:0:0:0:
256,192,2521,5,4,0:0:0:0:
256,192,3124,1,0,0:0:0:0:
256,192,3727,1,8,0:0:0:0:
256,192,4330,1,8,0:0:0:0:
256,192,6762,5,12,0:0:0:0:
256,192,7467,1,0,0:0:0:0:
256,192,8173,1,8,0:0:0:0:
256,192,8526,1,8,0:0:0:0:
256,192,8879,1,0,0:0:0:0:
256,192,9585,5,0,0:0:0:0:
256,192,9938,1,0,0:0:0:0:
256,192,10291,1,0,0:0:0:0:
256,192,10997,1,0,0:0:0:0:
256,192,11703,1,8,0:0:0:0:
256,192,12056,1,0,0:0:0:0:
256,192,12409,5,12,0:0:0:0:
256,192,13114,1,0,0:0:0:0:
256,192,13467,1,0,0:0:0:0:
256,192,13820,1,8,0:0:0:0:
256,192,14173,1,0,0:0:0:0:
256,192,14526,1,8,0:0:0:0:
256,192,15232,5,0,0:0:0:0:
256,192,16291,1,0,0:0:0:0:
256,192,16644,1,8,0:0:0:0:
256,192,18056,5,12,0:0:0:0:
256,192,18761,1,8,0:0:0:0:
256,192,19114,1,0,0:0:0:0:
256,192,19467,1,8,0:0:0:0:
256,192,20173,1,8,0:0:0:0:
256,192,20526,1,0,0:0:0:0:
256,192,20879,1,8,0:0:0:0:
256,192,21232,1,8,0:0:0:0:
256,192,21585,1,8,0:0:0:0:
256,192,22291,1,0,0:0:0:0:
256,192,22644,1,8,0:0:0:0:
256,192,22997,1,0,0:0:0:0:
256,192,23350,1,0,0:0:0:0:
256,192,24056,5,8,0:0:0:0:
256,192,24409,1,8,0:0:0:0:
256,192,25114,1,0,0:0:0:0:
256,192,25467,1,8,0:0:0:0:
256,192,25820,1,8,0:0:0:0:
256,192,26879,1,8,0:0:0:0:
256,192,27232,1,8,0:0:0:0:
256,192,27585,1,0,0:0:0:0:
256,192,27938,1,8,0:0:0:0:
256,192,28644,1,0,0:0:0:0:
256,192,29350,5,12,0:0:0:0:
256,192,30056,1,0,0:0:0:0:
256,192,30409,1,0,0:0:0:0:
256,192,30761,1,8,0:0:0:0:
256,192,31467,1,8,0:0:0:0:
256,192,32173,1,0,0:0:0:0:
256,192,32526,1,0,0:0:0:0:
256,192,32879,1,8,0:0:0:0:
256,192,33232,1,8,0:0:0:0:
256,192,33585,1,0,0:0:0:0:
256,192,34291,1,8,0:0:0:0:
256,192,35350,5,0,0:0:0:0:
256,192,35703,1,8,0:0:0:0:
256,192,36056,1,0,0:0:0:0:
256,192,36409,1,8,0:0:0:0:
256,192,37114,1,0,0:0:0:0:
256,192,37467,1,0,0:0:0:0:
256,192,38173,1,0,0:0:0:0:
256,192,38526,1,8,0:0:0:0:
256,192,39232,5,0,0:0:0:0:
256,192,39585,1,12,0:0:0:0:
256,192,39938,5,0,0:0:0:0:
256,192,40291,1,12,0:0:0:0:
256,192,40644,1,0,0:0:0:0:
256,192,40997,8,0,41350,0:0:0:0:
