osu file format v14

[General]
AudioFilename: boof.mp3
AudioLeadIn: 0
PreviewTime: 5858
Countdown: 0
SampleSet: Normal
StackLeniency: 0.7
Mode: 1
LetterboxInBreaks: 0
WidescreenStoryboard: 1

[Editor]
DistanceSpacing: 1.4
BeatDivisor: 4
GridSize: 32
TimelineZoom: 1.35

[Metadata]
Title:dog talk!
TitleUnicode:dog talk!
Artist:spellcasting
ArtistUnicode:spellcasting
Creator:meiqth
Version:futsuu!
Source:
Tags:doodle dump! electronic instrumental barking bark woof tag2 tag coop
BeatmapID:4292639
BeatmapSetID:2054605

[Difficulty]
HPDrainRate:8.5
CircleSize:2
OverallDifficulty:4
ApproachRate:10
SliderMultiplier:1.4
SliderTickRate:1

[Events]
//Background and Video events
0,0,"cover.jpg",0,60
//Break Periods
//Storyboard Layer 0 (Background)
//Storyboard Layer 1 (Fail)
//Storyboard Layer 2 (Pass)
//Storyboard Layer 3 (Foreground)
//Storyboard Layer 4 (Overlay)
//Storyboard Sound Samples

[TimingPoints]
109,603.015075376884,4,1,0,60,1,0
109,-68.9655172413793,4,1,0,60,0,0
4933,603.015075376884,4,1,0,75,1,8
6762,352.941176470588,4,1,0,75,1,0
18056,-90.9090909090909,4,1,0,75,0,0
29350,-90.9090909090909,4,1,0,75,0,1
39232,-90.9090909090909,4,1,0,75,0,0
40909,-83.3333333333333,4,1,0,33,0,0

[HitObjects]
256,192,109,5,8,0:0:0:0:
256,192,410,1,8,0:0:0:0:
256,192,561,1,8,0:0:0:0:
256,192,712,1,8,0:0:0:0:
256,192,1013,1,0,0:0:0:0:
256,192,1315,1,8,0:0:0:0:
256,192,1616,1,0,0:0:0:0:
256,192,1918,1,8,0:0:0:0:
256,192,2219,1,8,0:0:0:0:
256,192,2521,5,4,0:0:0:0:
256,192,3124,1,0,0:0:0:0:
256,192,3727,1,8,0:0:0:0:
256,192,4330,1,8,0:0:0:0:
256,192,6762,5,12,0:0:0:0:
256,192,7114,1,8,0:0:0:0:
256,192,7467,1,0,0:0:0:0:
256,192,7820,1,0,0:0:0:0:
256,192,8173,1,8,0:0:0:0:
256,192,8350,1,8,0:0:0:0:
256,192,8526,1,8,0:0:0:0:
256,192,8879,1,0,0:0:0:0:
256,192,9232,1,8,0:0:0:0:
256,192,9585,5,0,0:0:0:0:
256,192,9761,1,8,0:0:0:0:
256,192,9938,1,0,0:0:0:0:
256,192,10291,1,0,0:0:0:0:
256,192,10644,1,8,0:0:0:0:
256,192,10820,1,8,0:0:0:0:
256,192,10997,1,0,0:0:0:0:
256,192,11173,1,0,0:0:0:0:
256,192,11350,1,8,0:0:0:0:
256,192,11703,1,8,0:0:0:0:
256,192,12056,1,0,0:0:0:0:
256,192,12409,5,12,0:0:0:0:
256,192,12761,1,0,0:0:0:0:
256,192,12938,1,8,0:0:0:0:
256,192,13114,1,0,0:0:0:0:
256,192,13467,1,0,0:0:0:0:
256,192,13644,1,8,0:0:0:0:
256,192,13820,1,8,0:0:0:0:
256,192,14173,1,0,0:0:0:0:
256,192,14350,1,0,0:0:0:0:
256,192,14526,1,8,0:0:0:0:
256,192,14879,1,8,0:0:0:0:
256,192,15232,5,0,0:0:0:0:
256,192,15938,1,8,0:0:0:0:
256,192,16291,1,0,0:0:0:0:
256,192,16467,1,8,0:0:0:0:
256,192,16644,1,0,0:0:0:0:
256,192,17703,1,0,0:0:0:0:
256,192,18056,5,12,0:0:0:0:
256,192,18409,1,8,0:0:0:0:
256,192,18585,1,0,0:0:0:0:
256,192,18761,1,8,0:0:0:0:
256,192,19114,1,0,0:0:0:0:
256,192,19291,1,0,0:0:0:0:
256,192,19467,1,8,0:0:0:0:
256,192,19820,1,8,0:0:0:0:
256,192,19997,1,0,0:0:0:0:
256,192,20173,1,8,0:0:0:0:
256,192,20350,1,8,0:0:0:0:
256,192,20526,1,0,0:0:0:0:
256,192,20879,1,8,0:0:0:0:
256,192,21232,1,8,0:0:0:0:
256,192,21409,1,0,0:0:0:0:
256,192,21585,1,8,0:0:0:0:
256,192,21938,1,8,0:0:0:0:
256,192,22291,1,0,0:0:0:0:
256,192,22467,1,0,0:0:0:0:
256,192,22644,1,8,0:0:0:0:
256,192,22820,1,8,0:0:0:0:
256,192,22997,1,0,0:0:0:0:
256,192,23350,1,0,0:0:0:0:
256,192,23879,5,0,0:0:0:0:
256,192,24056,1,8,0:0:0:0:
256,192,24232,1,8,0:0:0:0:
256,192,24409,1,0,0:0:0:0:
256,192,24761,1,0,0:0:0:0:
256,192,25114,1,0,0:0:0:0:
256,192,25291,1,0,0:0:0:0:
256,192,25467,1,8,0:0:0:0:
256,192,25820,1,8,0:0:0:0:
256,192,26703,1,8,0:0:0:0:
256,192,26879,1,8,0:0:0:0:
256,192,27056,1,0,0:0:0:0:
256,192,27232,1,8,0:0:0:0:
256,192,27585,1,0,0:0:0:0:
256,192,27761,1,0,0:0:0:0:
256,192,27938,1,8,0:0:0:0:
256,192,28291,1,8,0:0:0:0:
256,192,28644,1,0,0:0:0:0:
256,192,29350,5,12,0:0:0:0:
256,192,29703,1,0,0:0:0:0:
256,192,29879,1,8,0:0:0:0:
256,192,30056,1,0,0:0:0:0:
256,192,30232,1,0,0:0:0:0:
256,192,30409,1,8,0:0:0:0:
256,192,30761,1,8,0:0:0:0:
256,192,30938,1,8,0:0:0:0:
256,192,31114,1,0,0:0:0:0:
256,192,31467,1,0,0:0:0:0:
256,192,31644,1,0,0:0:0:0:
256,192,31820,1,8,0:0:0:0:
256,192,32173,5,0,0:0:0:0:
256,192,32526,1,8,0:0:0:0:
256,192,32703,1,0,0:0:0:0:
256,192,32879,1,8,0:0:0:0:
256,192,33232,1,8,0:0:0:0:
256,192,33585,1,0,0:0:0:0:
256,192,33761,1,0,0:0:0:0:
256,192,33938,1,8,0:0:0:0:
256,192,34114,1,0,0:0:0:0:
256,192,34291,1,8,0:0:0:0:
256,192,34644,1,8,0:0:0:0:
256,192,35173,5,8,0:0:0:0:
256,192,35350,1,0,0:0:0:0:
256,192,35526,1,0,0:0:0:0:
256,192,35703,1,8,0:0:0:0:
256,192,36056,1,0,0:0:0:0:
256,192,36409,1,8,0:0:0:0:
256,192,36761,1,0,0:0:0:0:
256,192,36938,1,8,0:0:0:0:
256,192,37114,1,0,0:0:0:0:
256,192,37997,1,0,0:0:0:0:
256,192,38173,1,0,0:0:0:0:
256,192,38350,1,8,0:0:0:0:
256,192,38526,1,0,0:0:0:0:
256,192,38703,1,8,0:0:0:0:
256,192,38879,1,0,0:0:0:0:
256,192,39232,5,0,0:0:0:0:
256,192,39585,1,12,0:0:0:0:
256,192,39938,5,0,0:0:0:0:
256,192,40291,1,12,0:0:0:0:
256,192,40644,1,0,0:0:0:0:
256,192,40997,8,0,41350,0:0:0:0:
