osu file format v14

[General]
AudioFilename: audio.mp3
AudioLeadIn: 0
PreviewTime: 10851
Countdown: 0
SampleSet: Normal
StackLeniency: 0.7
Mode: 1
LetterboxInBreaks: 0
WidescreenStoryboard: 1

[Editor]
DistanceSpacing: 1.1
BeatDivisor: 3
GridSize: 32
TimelineZoom: 2.3

[Metadata]
Title:cat talk! (Extended Edit)
TitleUnicode:cat talk! (Extended Edit)
Artist:spellcasting
ArtistUnicode:spellcasting
Creator:Yasuho
Version:muzukashii!
Source:
Tags:doodle dump! electronic instrumental meow
BeatmapID:4328815
BeatmapSetID:2068919

[Difficulty]
HPDrainRate:10
CircleSize:5
OverallDifficulty:5
ApproachRate:5
SliderMultiplier:1.4
SliderTickRate:1

[Events]
//Background and Video events
0,0,"cattalk.png",0,69
//Break Periods
//Storyboard Layer 0 (Background)
//Storyboard Layer 1 (Fail)
//Storyboard Layer 2 (Pass)
//Storyboard Layer 3 (Foreground)
//Storyboard Layer 4 (Overlay)
//Storyboard Sound Samples

[TimingPoints]
127,526.315789473684,4,1,0,60,1,0
127,-78.6206896551724,4,1,0,60,0,0
2232,526.315789473684,4,1,0,60,1,0
2232,-78.6206896551724,4,1,0,60,0,0
8284,598.503740648379,4,1,0,60,1,8
8284,-68.0272108843537,4,1,0,60,0,8
8583,588.235294117647,4,1,0,70,1,0
8583,-70.4225352112676,4,1,0,70,0,0
8730,666.666666666667,4,1,0,70,1,8
8730,-62.111801242236,4,1,0,70,0,8
8895,638.297872340426,4,1,0,70,1,8
8895,-64.9350649350649,4,1,0,70,0,8
9054,697.674418604651,4,1,0,70,1,8
9054,-59.1715976331361,4,1,0,70,0,8
9228,714.285714285715,4,1,0,60,1,8
9228,-57.8034682080925,4,1,0,60,0,8
9406,769.23076923077,4,1,0,60,1,8
9406,-53.763440860215,4,1,0,60,0,8
9598,779.220779220779,4,1,0,60,1,8
9598,-53.1914893617021,4,1,0,60,0,8
9792,845.070422535211,4,1,0,60,1,8
9792,-49.0196078431373,4,1,0,60,0,8
10003,923.076923076923,4,1,0,50,1,8
10003,-44.8275862068966,4,1,0,50,0,8
10464,830.449826989619,4,1,0,60,1,8
10464,-49.8275862068966,4,1,0,60,0,8
10879,545.454545454546,4,1,0,70,1,8
10879,-75.8620689655172,4,1,0,70,0,8
11060,444.444444444445,4,1,0,70,1,8
11060,-93.103448275862,4,1,0,70,0,8
11356,413.793103448276,4,1,0,80,1,0
11356,-100,4,1,0,80,0,0
31423,-100,4,1,0,50,0,0
31630,-100,4,1,0,25,0,0

[HitObjects]
266,213,127,5,8,0:0:0:0:
266,213,653,1,0,0:0:0:0:
266,213,1179,1,8,0:0:0:0:
266,213,1705,1,0,0:0:0:0:
234,193,2056,1,0,0:0:0:0:
56,166,2232,1,8,0:0:0:0:
208,133,2758,1,0,0:0:0:0:
208,133,3021,1,0,0:0:0:0:
208,133,3284,1,8,0:0:0:0:
135,185,3547,1,0,0:0:0:0:
149,187,3679,1,0,0:0:0:0:
208,133,3810,1,0,0:0:0:0:
126,191,4074,1,8,0:0:0:0:
135,185,4205,1,8,0:0:0:0:
250,158,4337,1,8,0:0:0:0:
250,158,4863,1,8,0:0:0:0:
250,158,5126,1,8,0:0:0:0:
250,158,5389,1,0,0:0:0:0:
192,150,5653,1,8,0:0:0:0:
135,187,5784,1,8,0:0:0:0:
86,154,5916,1,8,0:0:0:0:
92,160,6179,1,0,0:0:0:0:
134,161,6310,1,0,0:0:0:0:
154,160,6442,1,0,0:0:0:0:
75,143,6968,1,0,0:0:0:0:
75,143,7231,1,0,0:0:0:0:
181,157,7495,1,8,0:0:0:0:
160,161,7758,1,8,0:0:0:0:
141,145,7889,1,8,0:0:0:0:
174,158,8021,1,8,0:0:0:0:
163,159,8284,1,0,0:0:0:0:
172,134,8583,1,8,0:0:0:0:
191,146,8895,1,8,0:0:0:0:
209,127,9054,1,8,0:0:0:0:
171,135,9228,1,8,0:0:0:0:
193,145,9598,1,0,0:0:0:0:
171,135,10003,1,0,0:0:0:0:
193,145,10464,1,8,0:0:0:0:
171,135,10879,1,0,0:0:0:0:
145,155,11060,1,0,0:0:0:0:
123,149,11356,1,12,0:0:0:0:
251,152,11769,1,0,0:0:0:0:
126,166,11976,1,8,0:0:0:0:
251,152,12183,1,0,0:0:0:0:
147,155,12390,1,8,0:0:0:0:
145,162,12493,1,8,0:0:0:0:
146,162,12804,1,0,0:0:0:0:
251,152,13011,1,8,0:0:0:0:
161,117,13321,1,0,0:0:0:0:
251,146,13424,1,8,0:0:0:0:
219,198,13631,1,8,0:0:0:0:
219,198,13838,1,0,0:0:0:0:
170,174,14045,1,0,0:0:0:0:
105,149,14252,1,8,0:0:0:0:
219,198,14666,1,0,0:0:0:0:
105,149,15080,1,0,0:0:0:0:
218,177,15287,1,8,0:0:0:0:
220,174,15390,1,8,0:0:0:0:
241,191,15493,1,8,0:0:0:0:
105,149,15700,1,0,0:0:0:0:
217,168,15804,1,0,0:0:0:0:
241,191,15907,1,0,0:0:0:0:
241,191,16321,1,8,0:0:0:0:
229,101,16735,1,0,0:0:0:0:
103,153,17045,1,8,0:0:0:0:
173,147,17252,1,8,0:0:0:0:
130,118,17459,1,0,0:0:0:0:
136,117,17562,1,8,0:0:0:0:
168,161,17976,1,4,0:0:0:0:
164,111,18287,1,8,0:0:0:0:
241,191,18390,1,0,0:0:0:0:
241,191,18597,1,0,0:0:0:0:
145,173,18804,1,0,0:0:0:0:
241,191,19011,1,8,0:0:0:0:
92,153,19114,1,8,0:0:0:0:
140,68,19424,1,0,0:0:0:0:
241,191,19631,1,8,0:0:0:0:
170,159,20045,1,0,0:0:0:0:
175,173,20252,1,8,0:0:0:0:
175,173,20459,1,8,0:0:0:0:
191,146,20873,1,8,0:0:0:0:
216,179,21287,1,8,0:0:0:0:
216,179,21700,1,0,0:0:0:0:
191,146,21907,1,0,0:0:0:0:
196,71,22011,1,0,0:0:0:0:
216,179,22114,1,0,0:0:0:0:
123,151,22321,1,8,0:0:0:0:
123,151,22424,1,8,0:0:0:0:
216,179,22528,1,8,0:0:0:0:
191,146,22735,1,8,0:0:0:0:
228,192,22942,1,0,0:0:0:0:
226,186,23356,1,0,0:0:0:0:
191,146,23666,1,8,0:0:0:0:
233,162,23873,1,8,0:0:0:0:
129,184,24080,1,0,0:0:0:0:
218,132,24183,1,8,0:0:0:0:
209,200,24390,1,0,0:0:0:0:
217,130,24597,1,12,0:0:0:0:
209,200,24907,1,8,0:0:0:0:
209,144,25011,1,0,0:0:0:0:
210,144,25218,1,8,0:0:0:0:
156,154,25424,1,0,0:0:0:0:
209,183,25631,1,0,0:0:0:0:
144,172,25735,1,0,0:0:0:0:
185,158,26045,1,8,0:0:0:0:
144,172,26252,1,0,0:0:0:0:
159,109,26562,1,8,0:0:0:0:
144,172,26666,1,0,0:0:0:0:
200,147,26873,1,8,0:0:0:0:
214,149,27080,1,0,0:0:0:0:
202,162,27390,1,8,0:0:0:0:
228,157,27493,1,8,0:0:0:0:
65,165,27700,1,0,0:0:0:0:
233,168,27907,1,8,0:0:0:0:
76,161,28321,1,0,0:0:0:0:
200,147,28528,1,0,0:0:0:0:
233,168,28735,1,8,0:0:0:0:
200,156,28942,1,8,0:0:0:0:
233,168,29149,1,0,0:0:0:0:
201,155,29356,1,0,0:0:0:0:
201,155,29459,1,0,0:0:0:0:
95,160,29562,1,0,0:0:0:0:
200,147,29769,1,8,0:0:0:0:
200,156,29873,1,8,0:0:0:0:
102,160,29976,1,8,0:0:0:0:
242,161,30183,1,0,0:0:0:0:
101,160,30390,1,8,0:0:0:0:
242,130,30597,1,0,0:0:0:0:
242,130,30804,1,8,0:0:0:0:
301,187,31218,1,8,0:0:0:0:
256,192,31424,12,0,31838,0:0:0:0:
