osu file format v14

[General]
AudioFilename: audio.mp3
AudioLeadIn: 0
PreviewTime: 10851
Countdown: 0
SampleSet: Normal
StackLeniency: 0.7
Mode: 1
LetterboxInBreaks: 0
WidescreenStoryboard: 0

[Editor]
DistanceSpacing: 1.1
BeatDivisor: 6
GridSize: 32
TimelineZoom: 2.3

[Metadata]
Title:cat talk! (Extended Edit)
TitleUnicode:cat talk! (Extended Edit)
Artist:spellcasting
ArtistUnicode:spellcasting
Creator:Yasuho
Version:meow!
Source:
Tags:doodle dump! electronic instrumental meow
BeatmapID:4328814
BeatmapSetID:2068919

[Difficulty]
HPDrainRate:9
CircleSize:5
OverallDifficulty:7
ApproachRate:5
SliderMultiplier:1.4
SliderTickRate:1

[Events]
//Background and Video events
0,0,"cattalk.png",0,69
//Break Periods
//Storyboard Layer 0 (Background)
//Storyboard Layer 1 (Fail)
//Storyboard Layer 2 (Pass)
//Storyboard Layer 3 (Foreground)
//Storyboard Layer 4 (Overlay)
//Storyboard Sound Samples

[TimingPoints]
127,526.315789473684,4,1,0,60,1,0
127,-100,4,1,0,60,0,0
648,-100,4,1,0,60,0,0
1174,-100,4,1,0,60,0,0
1700,-100,4,1,0,60,0,0
2029,-100,4,1,0,60,0,0
2095,-100,4,1,0,60,0,0
2161,-100,4,1,0,60,0,0
2232,526.315789473684,4,1,0,60,1,0
2232,-100,4,1,0,60,0,0
8284,598.503740648379,4,1,0,60,1,8
8284,-87.9385964913766,4,1,0,70,0,0
8583,588.235294117647,4,1,0,70,1,0
8583,-106.25000000093,4,1,0,70,0,0
8730,666.666666666667,4,1,0,70,1,8
8895,638.297872340426,4,1,0,70,1,8
8895,-102.106212185976,4,1,0,70,0,0
9054,697.674418604651,4,1,0,70,1,8
9054,-95.5555555552795,4,1,0,70,0,0
9228,714.285714285715,4,1,0,60,1,8
9228,-95.6147000775665,4,1,0,60,0,0
9406,769.23076923077,4,1,0,60,1,8
9598,779.220779220779,4,1,0,60,1,8
9598,-92.5665457294096,4,1,0,60,0,0
9792,845.070422535211,4,1,0,60,1,8
9792,-88.0561177917788,4,1,0,60,0,0
10003,923.076923076923,4,1,0,50,1,8
10003,-83.2578567146315,4,1,0,50,0,0
10464,830.449826989619,4,1,0,60,1,8
10464,-99.9999964597927,4,1,0,60,0,0
10879,545.454545454546,4,1,0,70,1,8
10879,-100,4,1,0,70,0,0
11060,444.444444444445,4,1,0,70,1,8
11060,-109.505993565961,4,1,0,70,0,0
11203,-100.64077318794,4,1,0,70,0,0
11356,413.793103448276,4,1,0,80,1,0
11356,-99.999997243986,4,1,0,80,0,0
31423,-81.9672131147541,4,1,0,50,0,0
31630,-81.9672131147541,4,1,0,25,0,0

[HitObjects]
266,213,127,5,8,0:0:0:0:
266,213,653,1,0,0:0:0:0:
266,213,1179,1,8,0:0:0:0:
266,213,1705,1,0,0:0:0:0:
267,128,2034,1,0,0:0:0:0:
267,128,2100,1,0,0:0:0:0:
267,128,2166,1,0,0:0:0:0:
56,166,2232,1,8,0:0:0:0:
208,133,2495,1,0,0:0:0:0:
208,133,2626,1,0,0:0:0:0:
208,133,2758,1,8,0:0:0:0:
208,133,3021,1,0,0:0:0:0:
208,133,3284,1,8,0:0:0:0:
208,133,3547,1,8,0:0:0:0:
208,133,3679,1,8,0:0:0:0:
208,133,3810,1,0,0:0:0:0:
208,133,4074,1,0,0:0:0:0:
250,158,4205,1,0,0:0:0:0:
250,158,4271,1,0,0:0:0:0:
250,158,4337,1,8,0:0:0:0:
250,158,4600,1,8,0:0:0:0:
250,158,4731,1,8,0:0:0:0:
250,158,4863,1,0,0:0:0:0:
250,158,4995,1,0,0:0:0:0:
250,158,5126,1,8,0:0:0:0:
250,158,5389,1,8,0:0:0:0:
250,158,5653,1,8,0:0:0:0:
250,158,5740,1,0,0:0:0:0:
59,132,5828,1,0,0:0:0:0:
86,154,5916,1,8,0:0:0:0:
154,160,6179,1,0,0:0:0:0:
154,160,6310,1,0,0:0:0:0:
154,160,6376,1,0,0:0:0:0:
154,160,6442,1,8,0:0:0:0:
154,160,6705,1,8,0:0:0:0:
154,160,6837,1,8,0:0:0:0:
75,143,6968,1,0,0:0:0:0:
75,143,7231,1,8,0:0:0:0:
75,143,7363,1,0,0:0:0:0:
181,157,7495,1,8,0:0:0:0:
176,159,7626,1,8,0:0:0:0:
176,158,7758,1,0,0:0:0:0:
174,158,7889,1,0,0:0:0:0:
174,158,8021,1,8,0:0:0:0:
60,132,8153,1,8,0:0:0:0:
176,134,8284,1,0,0:0:0:0:
172,134,8583,1,8,0:0:0:0:
171,135,8895,1,0,0:0:0:0:
171,135,9054,1,0,0:0:0:0:
171,135,9228,1,8,0:0:0:0:
172,134,9598,1,0,0:0:0:0:
171,135,9792,1,8,0:0:0:0:
171,135,10003,1,0,0:0:0:0:
172,134,10464,1,8,0:0:0:0:
171,135,10879,1,0,0:0:0:0:
167,136,11060,1,8,0:0:0:0:
166,136,11208,1,8,0:0:0:0:
123,149,11356,1,4,0:0:0:0:
100,169,11562,1,8,0:0:0:0:
251,152,11666,1,0,0:0:0:0:
251,152,11769,1,8,0:0:0:0:
251,152,11976,1,8,0:0:0:0:
251,152,12183,1,0,0:0:0:0:
251,152,12287,1,8,0:0:0:0:
251,152,12390,1,8,0:0:0:0:
251,152,12493,1,0,0:0:0:0:
251,152,12597,1,8,0:0:0:0:
251,152,12804,1,8,0:0:0:0:
264,130,12907,1,8,0:0:0:0:
205,169,12959,1,8,0:0:0:0:
251,152,13011,1,0,0:0:0:0:
251,146,13218,1,8,0:0:0:0:
251,146,13321,1,0,0:0:0:0:
251,146,13424,1,0,0:0:0:0:
205,182,13631,1,8,0:0:0:0:
219,198,13838,1,0,0:0:0:0:
219,198,14045,1,0,0:0:0:0:
219,198,14149,1,0,0:0:0:0:
219,198,14252,1,8,0:0:0:0:
246,202,14356,1,0,0:0:0:0:
219,198,14459,1,8,0:0:0:0:
246,202,14562,1,8,0:0:0:0:
219,198,14666,1,0,0:0:0:0:
219,198,14873,1,8,0:0:0:0:
219,198,15080,1,0,0:0:0:0:
219,198,15287,1,0,0:0:0:0:
241,191,15390,1,0,0:0:0:0:
241,191,15493,1,8,0:0:0:0:
241,191,15700,1,0,0:0:0:0:
241,191,15804,1,8,0:0:0:0:
241,191,15907,1,0,0:0:0:0:
241,191,16114,1,0,0:0:0:0:
241,191,16321,1,8,0:0:0:0:
241,191,16528,1,8,0:0:0:0:
241,191,16631,1,8,0:0:0:0:
241,191,16735,1,0,0:0:0:0:
194,154,16942,1,8,0:0:0:0:
194,154,17045,1,0,0:0:0:0:
194,154,17149,1,0,0:0:0:0:
194,154,17252,1,0,0:0:0:0:
194,154,17356,1,8,0:0:0:0:
194,154,17459,1,0,0:0:0:0:
194,154,17562,1,8,0:0:0:0:
194,154,17666,1,0,0:0:0:0:
125,154,17769,1,8,0:0:0:0:
168,161,17873,1,8,0:0:0:0:
168,161,17976,1,4,0:0:0:0:
241,191,18183,1,8,0:0:0:0:
241,191,18287,1,8,0:0:0:0:
241,191,18390,1,0,0:0:0:0:
241,191,18597,1,8,0:0:0:0:
241,191,18804,1,0,0:0:0:0:
241,191,18907,1,0,0:0:0:0:
241,191,19011,1,8,0:0:0:0:
241,191,19114,1,0,0:0:0:0:
241,191,19218,1,8,0:0:0:0:
241,191,19424,1,8,0:0:0:0:
241,191,19528,1,0,0:0:0:0:
115,155,19580,1,0,0:0:0:0:
241,191,19631,1,8,0:0:0:0:
241,191,19838,1,8,0:0:0:0:
65,143,19942,1,0,0:0:0:0:
65,143,20045,1,8,0:0:0:0:
175,173,20252,1,8,0:0:0:0:
175,173,20356,1,8,0:0:0:0:
175,173,20459,1,0,0:0:0:0:
175,173,20666,1,8,0:0:0:0:
175,173,20769,1,0,0:0:0:0:
175,173,20873,1,0,0:0:0:0:
216,179,20976,1,0,0:0:0:0:
175,173,21080,1,8,0:0:0:0:
216,179,21183,1,0,0:0:0:0:
216,179,21287,1,8,0:0:0:0:
216,179,21493,1,8,0:0:0:0:
216,179,21700,1,0,0:0:0:0:
216,179,21907,1,8,0:0:0:0:
216,179,22011,1,0,0:0:0:0:
216,179,22114,1,0,0:0:0:0:
216,179,22321,1,8,0:0:0:0:
216,179,22424,1,8,0:0:0:0:
216,179,22528,1,0,0:0:0:0:
213,173,22735,1,8,0:0:0:0:
228,192,22942,1,0,0:0:0:0:
226,186,23149,1,8,0:0:0:0:
202,164,23252,1,8,0:0:0:0:
226,186,23356,1,0,0:0:0:0:
204,183,23562,1,8,0:0:0:0:
223,102,23666,1,8,0:0:0:0:
223,115,23769,1,0,0:0:0:0:
221,135,23873,1,0,0:0:0:0:
218,132,23976,1,8,0:0:0:0:
218,132,24080,1,0,0:0:0:0:
218,132,24183,1,8,0:0:0:0:
218,132,24287,1,8,0:0:0:0:
218,131,24390,1,0,0:0:0:0:
218,131,24493,1,0,0:0:0:0:
217,130,24597,1,12,0:0:0:0:
203,144,24804,1,8,0:0:0:0:
209,144,24907,1,8,0:0:0:0:
209,144,25011,1,0,0:0:0:0:
210,144,25218,1,8,0:0:0:0:
211,144,25424,1,8,0:0:0:0:
212,143,25528,1,0,0:0:0:0:
125,172,25631,1,8,0:0:0:0:
144,173,25735,1,0,0:0:0:0:
144,172,25838,1,8,0:0:0:0:
144,172,26045,1,8,0:0:0:0:
144,172,26149,1,8,0:0:0:0:
181,163,26200,1,8,0:0:0:0:
144,172,26252,1,0,0:0:0:0:
144,172,26459,1,8,0:0:0:0:
144,172,26562,1,0,0:0:0:0:
144,172,26666,1,0,0:0:0:0:
214,149,26873,1,8,0:0:0:0:
214,149,27080,1,0,0:0:0:0:
225,151,27183,1,0,0:0:0:0:
214,149,27287,1,8,0:0:0:0:
214,149,27390,1,0,0:0:0:0:
228,157,27493,1,8,0:0:0:0:
232,168,27597,1,0,0:0:0:0:
232,168,27700,1,8,0:0:0:0:
232,168,27804,1,8,0:0:0:0:
233,168,27907,1,0,0:0:0:0:
233,168,28114,1,8,0:0:0:0:
233,168,28218,1,0,0:0:0:0:
233,168,28321,1,0,0:0:0:0:
233,168,28528,1,8,0:0:0:0:
232,168,28631,1,8,0:0:0:0:
232,168,28735,1,0,0:0:0:0:
233,168,28942,1,8,0:0:0:0:
233,168,29149,1,0,0:0:0:0:
233,168,29356,1,8,0:0:0:0:
233,168,29459,1,8,0:0:0:0:
95,160,29562,1,0,0:0:0:0:
95,160,29769,1,8,0:0:0:0:
102,160,29873,1,8,0:0:0:0:
102,160,29976,1,8,0:0:0:0:
102,160,30183,1,0,0:0:0:0:
102,160,30287,1,0,0:0:0:0:
101,160,30390,1,8,0:0:0:0:
101,160,30597,1,8,0:0:0:0:
101,160,30700,1,0,0:0:0:0:
301,187,30752,1,0,0:0:0:0:
301,187,30804,1,0,0:0:0:0:
301,187,30907,1,0,0:0:0:0:
301,187,31011,1,8,0:0:0:0:
301,187,31114,1,0,0:0:0:0:
301,187,31166,1,0,0:0:0:0:
301,187,31218,1,8,0:0:0:0:
256,192,31424,12,0,31838,0:0:0:0:
