osu file format v14

[General]
AudioFilename: audio.mp3
AudioLeadIn: 0
PreviewTime: -1
Countdown: 0
SampleSet: Normal
StackLeniency: 0.7
Mode: 0
LetterboxInBreaks: 0
WidescreenStoryboard: 0

[Editor]
DistanceSpacing: 1.3
BeatDivisor: 8
GridSize: 4
TimelineZoom: 7.199996

[Metadata]
Title:heart rabbit coaster
TitleUnicode:heart rabbit coaster
Artist:spawnpoint
ArtistUnicode:spawnpoint
Creator:spawnpoint21
Version:Normal
Source:
Tags:
BeatmapID:2668590
BeatmapSetID:1285270

[Difficulty]
HPDrainRate:3.8
CircleSize:3.6
OverallDifficulty:8
ApproachRate:9.2
SliderMultiplier:1.8
SliderTickRate:1

[Events]
//Background and Video events
0,0,"bg.png",0,0
//Break Periods
2,43445,46845
2,48065,51645
//Storyboard Layer 0 (Background)
//Storyboard Layer 1 (Fail)
//Storyboard Layer 2 (Pass)
//Storyboard Layer 3 (Foreground)
//Storyboard Layer 4 (Overlay)
//Storyboard Sound Samples

[TimingPoints]
3645,300,4,1,0,65,1,0
3645,-142.857142857143,4,1,0,65,0,0
20445,-250.000000000001,4,1,0,65,0,0
22845,-166.666666666667,4,1,0,65,0,0
55245,-111.111111111111,4,1,0,65,0,0
57645,-200,4,1,0,65,0,0
67245,-125,4,1,0,65,0,0
69695,-125,4,1,0,20,0,0
70245,-125,4,1,0,65,0,0
93645,-121.951219512195,4,1,0,65,0,0
94601,-121.951219512195,4,1,0,5,0,0
95876,-121.951219512195,4,1,0,65,0,0
103245,-192.307692307692,4,1,0,65,0,0

[HitObjects]
132,97,3645,5,0,0:0:0:0:
166,195,3945,1,0,0:0:0:0:
166,195,4245,1,0,0:0:0:0:
166,195,4545,1,0,0:0:0:0:
203,69,4845,1,0,0:0:0:0:
259,156,5145,1,0,0:0:0:0:
259,156,5445,1,0,0:0:0:0:
259,156,5745,1,0,0:0:0:0:
417,103,6045,5,0,0:0:0:0:
347,175,6345,1,0,0:0:0:0:
347,175,6645,1,0,0:0:0:0:
347,175,6945,1,0,0:0:0:0:
350,40,7245,1,0,0:0:0:0:
262,106,7545,1,0,0:0:0:0:
262,106,7845,1,0,0:0:0:0:
262,106,8145,1,0,0:0:0:0:
120,178,8445,5,0,0:0:0:0:
221,201,8745,1,0,0:0:0:0:
221,201,9045,1,0,0:0:0:0:
221,201,9345,1,0,0:0:0:0:
136,320,9645,1,0,0:0:0:0:
270,255,9945,1,0,0:0:0:0:
270,255,10245,1,0,0:0:0:0:
270,255,10545,1,0,0:0:0:0:
256,192,10695,12,0,12645,0:0:0:0:
213,80,13245,5,0,0:0:0:0:
170,137,13395,2,0,L|260:137,1,62.9999980773926
241,202,13845,2,0,L|158:202,1,62.9999980773926
124,204,14145,1,0,0:0:0:0:
156,270,14295,2,0,L|245:302,1,62.9999980773926
265,294,14595,1,0,0:0:0:0:
231,348,14745,2,0,L|148:362,1,62.9999980773926
270,315,15645,5,0,0:0:0:0:
346,293,15795,2,0,L|301:211,1,62.9999980773926
273,181,16245,1,0,0:0:0:0:
332,157,16395,2,0,L|394:100,1,62.9999980773926
418,68,16695,1,0,0:0:0:0:
353,64,16845,2,0,L|264:76,1,62.9999980773926
292,125,17145,2,0,L|207:139,1,62.9999980773926
80,190,18045,5,0,0:0:0:0:
66,122,18195,2,0,L|161:112,1,62.9999980773926
188,165,18645,5,0,0:0:0:0:
181,94,18795,2,0,L|275:86,1,62.9999980773926
318,89,19095,1,0,0:0:0:0:
388,95,19245,2,0,L|366:172,1,62.9999980773926
330,186,19545,6,0,L|402:257,1,62.9999980773926
250,212,20445,6,0,P|277:249|304:239,3,72
327,208,21645,6,0,L|256:144,3,72
108,140,22845,6,0,L|232:197,1,107.999996704102
171,83,23445,2,0,L|262:166,1,107.999996704102
91,226,24045,2,0,L|230:206,1,107.999996704102
141,61,24645,2,0,L|239:167,1,107.999996704102
382,292,25245,6,0,L|278:212,1,107.999996704102
433,192,25845,2,0,L|297:169,1,107.999996704102
346,332,26445,2,0,L|268:229,1,107.999996704102
401,123,27045,2,0,L|259:182,1,107.999996704102
218,123,27645,5,0,0:0:0:0:
200,262,27945,1,0,0:0:0:0:
285,179,28245,1,0,0:0:0:0:
146,175,28545,1,0,0:0:0:0:
276,278,28845,1,0,0:0:0:0:
231,103,29145,1,0,0:0:0:0:
148,260,29445,1,0,0:0:0:0:
319,155,29745,1,0,0:0:0:0:
262,330,30045,5,0,0:0:0:0:
319,200,30345,1,0,0:0:0:0:
191,282,30645,1,0,0:0:0:0:
255,157,30945,1,0,0:0:0:0:
262,330,31245,1,0,0:0:0:0:
319,200,31545,1,0,0:0:0:0:
191,282,31845,1,0,0:0:0:0:
255,157,32145,1,0,0:0:0:0:
139,66,32445,6,0,L|225:82,1,53.9999983520508
177,138,32745,2,0,L|96:114,1,53.9999983520508
109,207,33045,1,0,0:0:0:0:
238,140,33345,1,0,0:0:0:0:
190,209,33645,2,0,L|251:229,1,53.9999983520508
239,302,33945,2,0,L|169:279,1,53.9999983520508
107,277,34245,1,0,0:0:0:0:
187,146,34545,1,0,0:0:0:0:
261,159,34845,6,0,L|329:159,1,53.9999983520508
307,233,35145,2,0,L|372:233,1,53.9999983520508
396,303,35445,1,0,0:0:0:0:
310,306,35745,1,0,0:0:0:0:
306,232,36045,2,0,L|222:232,1,53.9999983520508
244,155,36345,2,0,L|180:155,1,53.9999983520508
153,95,36645,1,0,0:0:0:0:
67,96,36945,1,0,0:0:0:0:
78,158,37245,6,0,L|149:158,1,53.9999983520508
83,224,37545,2,0,L|156:224,1,53.9999983520508
95,360,37845,2,0,L|168:360,1,53.9999983520508
90,294,38145,2,0,L|161:294,1,53.9999983520508
272,152,38445,2,0,L|211:152,1,53.9999983520508
277,221,38745,2,0,L|205:221,1,53.9999983520508
278,352,39045,2,0,L|201:351,1,53.9999983520508
276,287,39345,2,0,L|207:287,1,53.9999983520508
165,114,39645,5,0,0:0:0:0:
90,243,39945,1,0,0:0:0:0:
212,244,40245,1,0,0:0:0:0:
79,124,40545,1,0,0:0:0:0:
119,249,40845,1,0,0:0:0:0:
188,116,41145,1,0,0:0:0:0:
247,180,41445,5,0,0:0:0:0:
173,276,41595,1,0,0:0:0:0:
255,271,41745,1,0,0:0:0:0:
169,181,41895,1,0,0:0:0:0:
256,192,43245,5,0,0:0:0:0:
184,144,47445,6,0,P|196:132|208:152,2,26.9999991760254
176,236,47745,5,0,0:0:0:0:
256,200,47865,1,0,0:0:0:0:
328,72,52245,5,0,0:0:0:0:
252,124,52365,1,0,0:0:0:0:
340,164,52485,2,0,P|328:176|316:168,2,26.9999991760254
69,220,52845,6,0,L|95:233,1,26.9999991760254
151,334,53145,2,0,L|182:333,1,26.9999991760254
130,179,53445,2,0,L|161:203,1,26.9999991760254
201,272,53745,2,0,L|223:299,1,26.9999991760254
225,162,54045,2,0,L|263:155,1,26.9999991760254
308,276,54345,2,0,L|341:273,1,26.9999991760254
332,165,54645,2,0,L|332:128,1,26.9999991760254
355,210,54945,2,0,L|373:234,1,26.9999991760254
106,171,55245,6,0,P|195:128|248:179,1,161.999995056153
163,116,55845,2,0,P|273:247|251:271,1,161.999995056153
148,275,56445,2,0,P|280:245|298:209,1,161.999995056153
270,259,57045,2,0,P|243:131|199:115,1,161.999995056153
189,113,57645,6,0,P|157:120|151:135,3,45
167,182,58245,2,0,P|213:185|225:176,3,45
248,128,58845,2,0,P|229:73|219:72,3,45
189,117,59445,2,0,P|176:147|187:163,3,45
231,165,60045,5,0,0:0:0:0:
242,187,60195,1,0,0:0:0:0:
257,208,60345,1,0,0:0:0:0:
267,227,60495,1,0,0:0:0:0:
336,218,60645,1,0,0:0:0:0:
324,194,60795,1,0,0:0:0:0:
313,177,60945,1,0,0:0:0:0:
303,156,61095,1,0,0:0:0:0:
255,108,61245,6,0,P|268:98|277:98,7,22.5
266,56,61845,6,0,P|252:57|246:60,12,15
256,192,63945,12,0,66045,0:0:0:0:
161,132,67245,6,0,L|243:197,1,72
327,101,67545,2,0,P|251:72|241:79,1,72
267,190,67845,2,0,P|318:232|346:226,1,72
222,254,68145,2,0,P|273:296|301:290,1,72
201,190,68445,2,0,P|168:101|151:101,1,72
138,63,68745,2,0,L|220:64,1,72
298,89,69045,2,0,P|320:147|299:167,1,72
259,197,69345,2,0,P|318:238|325:234,1,72
373,207,69645,6,0,P|381:219|376:223,9,24
359,293,70245,6,0,L|269:256,1,72
247,238,70545,2,0,L|313:163,1,72
288,132,70845,5,0,0:0:0:0:
219,86,70995,1,0,0:0:0:0:
169,156,71145,1,0,0:0:0:0:
243,201,71295,2,0,P|343:250|361:134,1,216
372,62,72045,6,0,L|283:90,1,72
316,150,72345,2,0,L|211:187,1,72
274,227,72645,6,0,L|185:255,1,72
218,315,72945,2,0,L|113:352,1,72
72,280,73245,6,0,L|96:182,1,72
154,232,73545,2,0,L|176:143,1,72
238,191,73845,6,0,L|262:93,1,72
320,143,74145,2,0,L|342:54,1,72
266,59,74445,5,0,0:0:0:0:
232,82,74595,1,0,0:0:0:0:
199,103,74745,1,0,0:0:0:0:
163,123,74895,1,0,0:0:0:0:
120,159,75045,6,0,L|189:210,1,72
148,227,75345,2,0,L|216:270,1,72
233,242,75645,5,0,0:0:0:0:
268,215,75795,1,0,0:0:0:0:
294,194,75945,1,0,0:0:0:0:
323,168,76095,1,0,0:0:0:0:
356,139,76245,2,0,L|307:75,1,72
280,107,76545,2,0,L|221:159,1,72
132,58,76845,5,0,0:0:0:0:
323,181,77145,1,0,0:0:0:0:
79,180,77445,1,0,0:0:0:0:
218,327,77745,1,0,0:0:0:0:
343,83,78045,1,0,0:0:0:0:
98,84,78345,1,0,0:0:0:0:
270,295,78645,1,0,0:0:0:0:
243,42,78945,1,0,0:0:0:0:
120,166,79245,6,0,P|193:220|218:212,1,72
285,160,79545,2,0,P|237:108|214:107,1,72
215,51,79845,2,0,L|129:51,1,72
108,128,80145,2,0,L|200:196,1,72
241,210,80445,5,0,0:0:0:0:
204,286,80595,1,0,0:0:0:0:
281,316,80745,1,0,0:0:0:0:
312,241,80895,2,0,P|272:126|202:144,1,216
143,227,81645,6,0,L|214:278,1,72
272,297,81945,2,0,P|296:231|281:202,1,72
219,217,82245,5,0,0:0:0:0:
267,161,82395,6,0,L|175:161,1,72
145,217,82695,1,0,0:0:0:0:
100,156,82845,6,0,L|169:102,1,72
227,100,83145,2,0,L|319:100,1,72
298,185,83445,5,0,0:0:0:0:
357,106,83595,2,0,P|385:163|379:175,1,72
336,220,83895,5,0,0:0:0:0:
256,192,84045,12,0,86145,0:0:0:0:
124,135,86445,5,0,0:0:0:0:
124,135,86595,1,0,0:0:0:0:
152,202,86745,1,0,0:0:0:0:
152,202,86895,1,0,0:0:0:0:
220,227,87045,1,0,0:0:0:0:
220,227,87195,1,0,0:0:0:0:
271,170,87345,1,0,0:0:0:0:
271,170,87495,1,0,0:0:0:0:
339,201,87645,5,0,0:0:0:0:
339,201,87795,1,0,0:0:0:0:
306,273,87945,1,0,0:0:0:0:
306,273,88095,1,0,0:0:0:0:
342,336,88245,1,0,0:0:0:0:
342,336,88395,1,0,0:0:0:0:
411,312,88545,1,0,0:0:0:0:
411,312,88695,1,0,0:0:0:0:
371,232,88845,5,0,0:0:0:0:
371,232,88995,1,0,0:0:0:0:
297,191,89145,1,0,0:0:0:0:
297,191,89295,1,0,0:0:0:0:
240,248,89445,1,0,0:0:0:0:
240,248,89595,1,0,0:0:0:0:
170,284,89745,1,0,0:0:0:0:
170,284,89895,1,0,0:0:0:0:
117,219,90045,5,0,0:0:0:0:
117,219,90195,1,0,0:0:0:0:
147,148,90345,1,0,0:0:0:0:
147,148,90495,1,0,0:0:0:0:
202,104,90645,1,0,0:0:0:0:
202,104,90795,1,0,0:0:0:0:
270,153,90945,1,0,0:0:0:0:
270,153,91095,1,0,0:0:0:0:
350,137,91245,6,0,P|356:205|342:222,1,72
261,203,91545,2,0,P|260:263|290:278,1,72
367,278,91845,2,0,P|325:357|313:353,1,72
290,351,92145,2,0,L|206:353,1,72
137,342,92445,6,0,B|151:337|151:337|148:232,1,72
71,259,92745,2,0,L|139:189,1,72
182,230,93045,2,0,L|126:164,1,72
81,169,93345,2,0,L|138:118,1,72
218,236,93645,6,0,B|141:116|141:116|174:17|225:92|225:92|277:21|312:119|312:119|215:244,2,553.50000844574
176,328,96045,6,0,L|110:267,1,73.8000011260987
179,289,96345,2,0,L|235:240,1,73.8000011260987
173,261,96645,2,0,L|107:200,1,73.8000011260987
176,222,96945,2,0,L|232:173,1,73.8000011260987
172,193,97245,2,0,L|106:132,1,73.8000011260987
175,154,97545,2,0,L|231:105,1,73.8000011260987
169,126,97845,2,0,L|103:65,1,73.8000011260987
172,87,98145,2,0,L|228:38,1,73.8000011260987
311,79,98445,6,0,L|254:135,1,73.8000011260987
317,122,98745,2,0,L|374:178,1,73.8000011260987
306,143,99045,2,0,L|249:199,1,73.8000011260987
312,186,99345,2,0,L|369:242,1,73.8000011260987
309,226,99645,2,0,L|252:282,1,73.8000011260987
315,269,99945,2,0,L|372:325,1,73.8000011260987
304,290,100245,2,0,L|247:346,1,73.8000011260987
310,333,100545,2,0,L|367:389,1,73.8000011260987
248,184,100845,5,0,0:0:0:0:
248,200,100995,1,0,0:0:0:0:
264,200,101145,1,0,0:0:0:0:
264,184,101295,1,0,0:0:0:0:
248,184,101445,1,0,0:0:0:0:
248,200,101595,1,0,0:0:0:0:
264,200,101745,1,0,0:0:0:0:
264,184,101895,1,0,0:0:0:0:
224,160,102045,5,0,0:0:0:0:
224,228,102195,1,0,0:0:0:0:
288,228,102345,1,0,0:0:0:0:
288,160,102495,1,0,0:0:0:0:
224,160,102645,1,0,0:0:0:0:
224,228,102795,1,0,0:0:0:0:
288,228,102945,1,0,0:0:0:0:
288,160,103095,1,0,0:0:0:0:
219,122,103245,6,0,P|180:126|167:169,3,46.7999997143555
196,194,103845,2,0,P|233:186|241:172,3,46.7999997143555
245,238,104445,6,0,L|230:237,4,11.6999999285889
197,280,104745,2,0,L|209:286,4,11.6999999285889
261,296,105045,2,0,L|272:301,16,11.6999999285889
