osu file format v14

[General]
AudioFilename: audio.mp3
AudioLeadIn: 0
PreviewTime: 192615
Countdown: 0
SampleSet: Soft
StackLeniency: 0.6
Mode: 0
LetterboxInBreaks: 0
WidescreenStoryboard: 0

[Editor]
Bookmarks: 48615
DistanceSpacing: 0.8
BeatDivisor: 4
GridSize: 4
TimelineZoom: 1

[Metadata]
Title:Shikaku Kakumei
TitleUnicode:Shikaku Kakumei
Artist:soutaiseiriron
ArtistUnicode:soutaiseiriron
Creator:N0thingSpecial
Version:Insane
Source:
Tags:theory of relativity square revolution やくしまる えつこ yakushimaru etsuko ハイファイ新書 hi-fi anatomia j-pop kayōkyoku kayokyoku Ren DeRandom Otaku Shyotamaze nothingspecial
BeatmapID:1145590
BeatmapSetID:540242

[Difficulty]
HPDrainRate:6
CircleSize:4
OverallDifficulty:8
ApproachRate:9
SliderMultiplier:1.7
SliderTickRate:1

[Events]
//Background and Video events
0,0,"Pixiv.Id.3718069.full.2017521768.jpg",0,0
//Break Periods
2,168815,180015
//Storyboard Layer 0 (Background)
//Storyboard Layer 1 (Fail)
//Storyboard Layer 2 (Pass)
//Storyboard Layer 3 (Foreground)
//Storyboard Sound Samples

[TimingPoints]
615,375,4,2,2,50,1,0
62865,-100,4,2,2,30,0,0
63240,-200,4,2,2,50,0,0
63521,-200,4,2,2,5,0,0
63615,-100,4,2,2,50,0,0
66240,-200,4,2,2,50,0,0
66521,-200,4,2,2,5,0,0
66615,-100,4,2,2,50,0,0
68865,-100,4,2,2,30,0,0
69240,-200,4,2,2,50,0,0
69521,-200,4,2,2,5,0,0
69615,-100,4,2,2,50,0,0
84615,-100,4,2,2,50,0,1
108615,-100,4,2,2,50,0,0
122865,-100,4,2,2,30,0,0
123240,-200,4,2,2,50,0,0
123521,-200,4,2,2,5,0,0
123615,-100,4,2,2,50,0,0
126240,-200,4,2,2,50,0,0
126521,-200,4,2,2,5,0,0
126615,-100,4,2,2,50,0,0
128865,-100,4,2,2,50,0,0
129240,-200,4,2,2,50,0,0
129521,-200,4,2,2,5,0,0
129615,-100,4,2,2,50,0,0
144615,-100,4,2,2,50,0,1
168615,-100,4,2,2,30,0,0
180615,-100,4,1,1,30,0,0
191115,-100,4,2,2,40,0,0
192615,-100,4,2,2,50,0,1
216427,-100,4,2,2,30,0,0

[HitObjects]
232,95,48615,6,0,L|148:110,1,85,2|0,0:0|0:0,0:0:0:0:
260,15,48990,1,8,0:0:0:0:
203,175,49177,2,0,L|119:190,1,85,0|0,0:0|0:0,0:0:0:0:
260,15,49552,1,0,0:0:0:0:
148,110,49740,1,8,0:0:0:0:
177,30,49927,1,0,0:0:0:0:
285,160,50115,6,0,P|336:162|382:129,1,85
314,80,50490,1,8,0:0:0:0:
256,239,50677,2,0,B|212:255|212:255|79:231,1,170
368,145,51240,2,0,L|451:159,1,85,8|0,0:0|0:0,0:0:0:0:
310,304,51615,5,0,3:0:0:0:
202,175,51802,2,0,P|208:126|239:89,1,85,0|8,0:0|0:0,0:0:0:0:
340,225,52177,1,0,0:0:0:0:
314,80,52365,2,0,L|297:-7,1,85
256,239,52740,1,8,0:0:0:0:
231,95,52927,1,0,0:0:0:0:
174,255,53115,5,0,0:0:0:0:
284,159,53302,1,0,0:0:0:0:
270,322,53490,1,8,0:0:0:0:
256,239,53677,1,0,0:0:0:0:
422,355,53865,2,0,L|339:370,1,85
305,170,54240,2,0,L|388:155,1,85,8|0,0:0|0:0,0:0:0:0:
276,250,54615,5,0,0:0:0:0:
222,185,54802,1,0,0:0:0:0:
164,345,54990,2,0,P|116:365|72:357,1,85,8|0,0:0|0:0,0:0:0:0:
142,155,55364,1,0,0:0:0:0:
247,330,55552,2,0,P|304:331|344:300,1,85,0|8,0:0|0:0,0:0:0:0:
276,250,55927,1,0,0:0:0:0:
384,380,56115,6,0,L|352:200,1,170,0|8,0:0|0:0,0:0:0:0:
247,330,56677,1,0,0:0:0:0:
414,301,56865,2,0,L|498:286,1,85
403,78,57240,2,0,P|350:109|336:145,1,85,8|0,0:0|0:0,0:0:0:0:
350,351,57615,6,0,P|403:320|417:284,1,85,0|0,3:0|0:0,0:0:0:0:
418,157,57990,1,8,0:0:0:0:
276,183,58177,2,0,L|182:165,1,85
325,45,58552,1,0,0:0:0:0:
432,240,58740,2,0,L|515:224,1,85,8|0,0:0|0:0,0:0:0:0:
341,130,59115,1,0,0:0:0:0:
341,130,59490,5,8,0:0:0:0:
275,184,59677,1,0,0:0:0:0:
291,22,59865,1,2,0:0:0:0:
198,155,60052,1,2,0:0:0:0:
262,101,60240,1,8,0:0:0:0:
116,170,60427,1,8,0:0:0:0:
304,16,60615,6,0,L|275:184,1,170,4|8,0:0|0:0,0:0:0:0:
383,311,61177,1,0,0:0:0:0:
389,319,61270,1,0,0:0:0:0:
396,327,61365,2,0,L|485:311,1,85,8|0,0:0|0:0,0:0:0:0:
358,168,61740,2,0,L|274:182,1,85,8|0,0:0|0:0,0:0:0:0:
416,8,62115,5,0,0:0:0:0:
415,6,62865,5,2,0:3:0:0:
412,16,62958,1,2,0:3:0:0:
408,26,63052,1,2,0:3:0:0:
404,36,63146,1,2,0:3:0:0:
401,46,63240,6,0,L|415:125,1,63.75,0|0,0:0|0:0,0:0:0:0:
414,117,63615,6,0,P|309:95|263:167,1,170,4|8,0:0|0:0,0:0:0:0:
105,156,64177,1,0,0:0:0:0:
113,163,64271,1,0,0:0:0:0:
122,170,64365,2,0,L|206:185,1,85,8|0,0:0|0:0,0:0:0:0:
177,18,64740,2,0,L|192:102,1,85,8|0,0:0|0:0,0:0:0:0:
220,268,65115,5,0,0:0:0:0:
220,268,65865,5,0,0:0:0:0:
220,268,66052,1,0,0:0:0:0:
220,268,66240,6,0,P|198:302|174:316,1,63.75,0|0,0:0|0:0,0:0:0:0:
168,314,66615,6,0,L|355:346,1,170,4|8,0:0|0:0,0:0:0:0:
226,172,67177,1,8,0:0:0:0:
215,170,67271,1,8,0:0:0:0:
205,168,67365,2,0,P|170:192|153:230,1,85,8|0,0:0|0:0,0:0:0:0:
251,357,67740,2,0,L|334:342,1,85,8|0,0:0|0:0,0:0:0:0:
99,164,68115,5,0,0:0:0:0:
99,164,68865,5,2,0:3:0:0:
88,162,68958,1,2,0:3:0:0:
78,160,69052,1,2,0:3:0:0:
67,158,69146,1,2,0:3:0:0:
56,156,69240,6,0,L|45:88,1,63.75,0|0,0:0|0:0,0:1:0:0:
43,81,69615,6,0,P|88:33|183:52,1,170,4|8,0:0|0:0,0:0:0:0:
348,150,70177,1,0,0:0:0:0:
344,160,70271,1,0,0:0:0:0:
341,170,70365,2,0,L|355:253,1,85,8|0,0:0|0:0,0:0:0:0:
156,253,70740,2,0,L|171:170,1,85,8|0,0:0|0:0,0:0:0:0:
256,88,71115,6,0,L|256:268,2,170,0|8|0,0:0|0:0|0:0,0:0:0:0:
327,334,72052,1,8,0:0:0:0:
327,334,72146,1,8,0:0:0:0:
327,334,72240,2,0,P|378:354|419:345,1,85,8|0,0:0|0:0,0:0:0:0:
183,216,72615,6,0,P|105:200|47:259,1,170,4|8,0:0|0:0,0:0:0:0:
145,362,73177,1,0,0:0:0:0:
104,187,73365,2,0,L|80:79,1,85
186,35,73740,2,0,L|167:117,1,85,8|0,0:0|0:0,0:0:0:0:
196,196,74115,6,0,B|247:209|247:209|368:187,1,170,0|8,0:0|0:0,0:0:0:0:
250,131,74677,1,0,0:0:0:0:
142,262,74865,2,0,L|51:277,1,85
279,210,75240,1,8,0:0:0:0:
308,289,75427,1,0,0:0:0:0:
329,101,75615,6,0,L|341:-7,1,85
483,40,75990,2,0,P|441:45|408:71,1,85,8|0,0:0|0:0,0:0:0:0:
241,215,76365,2,0,P|283:210|316:184,1,85
239,44,76740,2,0,L|248:128,1,85,8|0,0:0|0:0,0:0:0:0:
276,294,77115,5,0,0:0:0:0:
192,281,77302,1,0,0:0:0:0:
108,268,77490,1,8,0:0:0:0:
216,137,77677,1,0,0:0:0:0:
221,360,77865,5,0,0:0:0:0:
54,333,78052,1,0,0:0:0:0:
162,202,78240,1,8,0:0:0:0:
138,346,78427,1,0,0:0:0:0:
24,165,78615,6,0,L|54:333,1,170,0|8,0:0|0:0,0:0:0:0:
138,346,79177,1,0,0:0:0:0:
183,205,79365,2,0,P|148:181|107:179,1,85
328,205,79740,2,0,P|363:181|405:179,1,85,8|0,0:0|0:0,0:0:0:0:
311,292,80115,6,0,L|278:103,1,170,0|8,0:0|0:0,0:0:0:0:
394,306,80677,1,0,0:0:0:0:
228,278,80865,2,0,L|133:261,1,85
167,121,81240,2,0,P|149:159|115:184,1,85,8|0,0:0|0:0,0:0:0:0:
138,42,81615,5,0,0:0:0:0:
233,175,81802,1,0,0:0:0:0:
85,106,81990,1,8,0:0:0:0:
217,11,82177,1,0,0:0:0:0:
217,11,82271,1,0,0:0:0:0:
217,11,82365,1,0,0:0:0:0:
233,175,82552,1,0,0:0:0:0:
327,62,82740,2,0,L|313:146,1,85,8|4,0:0|0:0,0:0:0:0:
163,273,83115,6,0,P|219:214|299:230,1,170
430,337,83677,1,2,0:0:0:0:
450,340,83770,1,8,3:0:0:0:
471,344,83864,1,8,3:0:0:0:
244,295,84052,1,8,3:0:0:0:
223,298,84146,1,8,3:0:0:0:
202,302,84240,1,0,1:0:0:0:
347,352,84427,1,8,0:0:0:0:
311,127,84615,6,0,L|295:41,1,85,6|2,0:0|0:3,0:0:0:0:
249,249,84990,5,8,0:0:0:0:
325,210,85177,1,2,0:3:0:0:
113,228,85365,5,2,0:0:0:0:
173,288,85552,1,2,0:3:0:0:
91,92,85740,5,8,0:0:0:0:
52,167,85927,1,2,0:3:0:0:
215,27,86115,5,2,0:0:0:0:
130,16,86302,1,2,0:3:0:0:
311,127,86490,5,8,0:0:0:0:
295,43,86677,1,2,0:3:0:0:
159,188,86865,5,2,0:0:0:0:
175,104,87052,1,2,0:3:0:0:
311,127,87240,5,8,0:0:0:0:
295,43,87427,1,2,0:3:0:0:
295,288,87615,5,2,0:0:0:0:
311,127,87802,1,2,0:3:0:0:
215,259,87990,5,8,0:0:0:0:
281,205,88177,1,2,0:3:0:0:
428,382,88365,5,2,0:0:0:0:
349,353,88552,1,2,0:3:0:0:
430,136,88740,5,8,0:0:0:0:
443,220,88927,1,2,0:3:0:0:
215,259,89115,5,2,0:0:0:0:
281,205,89302,1,2,0:3:0:0:
457,303,89490,5,8,0:0:0:0:
295,288,89677,1,2,0:3:0:0:
296,43,89865,5,2,0:0:0:0:
364,190,90052,1,2,0:3:0:0:
151,313,90240,5,8,0:0:0:0:
349,106,90427,1,4,0:0:0:0:
378,273,90615,5,2,0:0:0:0:
220,215,90802,1,2,0:3:0:0:
392,355,90990,1,8,0:0:0:0:
299,244,91177,1,2,0:3:0:0:
202,375,91365,2,0,L|104:383,1,85,2|2,0:0|0:3,0:0:0:0:
169,147,91740,2,0,P|208:131|250:137,1,85,8|2,0:0|0:3,0:0:0:0:
454,351,92115,6,0,L|285:366,2,170,2|8|2,0:0|0:0|0:0,0:0:0:0:
396,277,93052,1,2,0:3:0:0:
344,210,93240,2,0,P|318:243|312:285,1,85,8|2,0:0|0:3,0:0:0:0:
297,115,93615,6,0,L|312:285,1,170,2|8,0:0|0:0,0:0:0:0:
383,135,94177,1,2,0:3:0:0:
200,284,94365,2,0,P|194:243|168:210,1,85,2|2,0:0|0:3,0:0:0:0:
3,193,94740,2,0,P|42:208|83:202,1,85,8|2,0:0|0:3,0:0:0:0:
172,52,95115,5,2,0:0:0:0:
138,131,95302,1,2,0:3:0:0:
31,39,95490,5,8,0:0:0:0:
52,124,95677,1,2,0:3:0:0:
257,58,95865,5,8,0:0:0:0:
278,143,96052,1,8,0:3:0:0:
62,286,96240,5,8,0:0:0:0:
83,201,96427,1,4,0:0:0:0:
320,313,96615,5,2,0:0:0:0:
278,143,96802,1,2,0:3:0:0:
403,327,96990,5,8,0:0:0:0:
442,251,97178,1,2,0:3:0:0:
243,350,97365,5,2,0:0:0:0:
320,313,97552,1,2,0:3:0:0:
100,274,97740,5,8,0:0:0:0:
184,289,97927,1,2,0:3:0:0:
28,128,98115,5,2,0:0:0:0:
88,189,98302,1,2,0:3:0:0:
313,129,98490,1,8,0:0:0:0:
170,211,98677,1,2,0:3:0:0:
394,150,98865,1,2,0:0:0:0:
232,151,99052,1,2,0:3:0:0:
454,90,99240,1,8,0:0:0:0:
313,172,99427,1,4,0:3:0:0:
453,208,99615,6,0,P|381:188|313:262,1,170,2|8,0:0|0:0,0:0:0:0:
397,272,100177,1,2,0:3:0:0:
429,108,100365,2,0,P|419:50|387:18,1,85,2|2,0:0|0:3,0:0:0:0:
289,153,100740,2,0,P|334:115|345:71,1,85,8|2,0:0|0:3,0:0:0:0:
206,168,101115,5,2,0:0:0:0:
343,217,101302,1,2,0:3:0:0:
260,232,101490,1,8,0:0:0:0:
231,312,101677,1,2,0:3:0:0:
371,360,101865,5,2,0:0:0:0:
343,217,102052,1,2,0:3:0:0:
399,281,102240,1,8,0:0:0:0:
482,266,102427,1,4,0:0:0:0:
288,375,102615,5,2,0:0:0:0:
206,168,102802,1,2,0:3:0:0:
231,312,102990,5,8,0:0:0:0:
260,232,103177,1,2,0:3:0:0:
456,270,103365,5,2,0:0:0:0:
373,285,103552,1,2,0:3:0:0:
308,97,103740,5,8,0:0:0:0:
362,162,103927,1,2,0:3:0:0:
231,312,104115,5,2,0:0:0:0:
260,232,104302,1,2,0:3:0:0:
482,266,104490,2,0,L|302:297,1,170,8|2,0:0|0:0,0:0:0:0:
442,188,105052,5,2,0:3:0:0:
470,20,105240,2,0,L|455:103,1,85,8|2,0:0|0:3,0:0:0:0:
405,292,105615,6,0,P|440:268|482:266,1,85,2|2,0:0|0:3,0:0:0:0:
326,322,105990,2,0,L|341:234,1,85,8|2,0:0|0:3,0:0:0:0:
377,8,106365,5,2,0:0:0:0:
408,88,106552,1,2,0:3:0:0:
243,337,106740,5,8,0:0:0:0:
257,253,106927,1,2,0:3:0:0:
377,8,107115,5,2,0:0:0:0:
408,88,107302,1,2,0:3:0:0:
217,70,107490,1,8,0:0:0:0:
488,57,107677,1,8,0:3:0:0:
488,57,107771,1,8,0:3:0:0:
488,57,107865,1,8,0:3:0:0:
328,119,108052,1,2,0:0:0:0:
470,248,108240,5,8,0:0:0:0:
408,88,108427,1,2,0:0:0:0:
310,310,108615,6,0,L|213:292,1,85,6|0,0:0|0:0,0:0:0:0:
198,217,108990,1,8,0:0:0:0:
388,281,109177,2,0,L|484:263,1,85
444,123,109552,1,0,0:0:0:0:
311,253,109740,1,8,0:0:0:0:
297,171,109927,1,0,0:0:0:0:
169,279,110115,6,0,L|153:364,1,85
244,107,110490,2,0,L|228:23,1,85,8|0,0:0|0:0,0:0:0:0:
326,92,110865,1,0,0:0:0:0:
241,329,111052,1,0,0:0:0:0:
214,186,111240,2,0,P|286:216|333:196,1,127.5,8|0,0:0|0:0,0:0:0:0:
391,253,111615,6,0,L|406:170,1,85
484,307,111990,2,0,L|469:224,1,85,8|0,0:0|0:0,0:0:0:0:
377,336,112365,1,0,0:0:0:0:
320,211,112552,2,0,L|286:28,1,170
449,41,113115,6,0,P|407:37|369:56,1,85
187,131,113490,2,0,P|228:127|266:146,1,85,8|0,0:0|0:0,0:0:0:0:
291,289,113865,1,0,0:0:0:0:
213,211,114052,1,0,0:0:0:0:
109,341,114240,2,0,L|7:358,1,85,8|0,0:0|0:0,0:0:0:0:
131,197,114615,6,0,B|156:150|156:150|132:13,1,170,0|8,0:0|0:0,0:0:0:0:
66,250,115177,1,0,0:0:0:0:
210,227,115365,2,0,L|305:210,1,85
306,51,115740,2,0,P|264:48|226:66,1,85,8|0,0:0|0:0,0:0:0:0:
183,305,116115,6,0,P|225:308|263:290,1,85
196,145,116490,1,8,0:0:0:0:
42,255,116677,2,0,L|210:226,1,170
31,160,117240,2,0,B|56:170|56:170|114:160,1,85,8|0,0:0|0:0,0:0:0:0:
217,64,117615,6,0,P|138:82|113:160,1,170,0|8,0:0|0:0,0:0:0:0:
126,241,118177,1,0,0:0:0:0:
276,129,118365,2,0,L|374:112,1,85
298,291,118740,1,8,0:0:0:0:
194,144,118927,1,0,0:0:0:0:
48,213,119115,6,0,P|45:261|64:299,1,85
157,315,119490,1,8,0:0:0:0:
113,160,119677,1,0,0:0:0:0:
174,232,119865,5,2,0:0:0:0:
178,107,120052,1,2,0:0:0:0:
233,172,120240,5,8,0:0:0:0:
261,93,120427,1,8,0:0:0:0:
300,318,120615,6,0,B|341:332|341:332|488:306,1,170,4|0,0:0|0:0,0:0:0:0:
338,142,121177,1,0,0:0:0:0:
334,152,121271,1,0,0:0:0:0:
331,162,121364,2,0,L|346:246,1,85,8|0,0:0|0:0,0:0:0:0:
434,72,121740,2,0,L|419:155,1,85,8|0,0:0|0:0,0:0:0:0:
307,21,122115,5,0,0:0:0:0:
307,21,122865,1,2,0:3:0:0:
297,24,122958,1,2,0:3:0:0:
287,28,123052,1,2,0:3:0:0:
277,31,123146,1,2,0:3:0:0:
267,35,123240,6,2,L|196:22,1,63.75,0|0,0:0|0:0,0:0:0:0:
193,21,123615,6,0,P|131:87|43:56,1,170,4|8,0:0|0:0,0:0:0:0:
259,219,124177,1,0,0:0:0:0:
263,209,124271,1,0,0:0:0:0:
266,199,124365,2,0,L|252:116,1,85,8|0,0:0|0:0,0:0:0:0:
61,74,124740,2,0,L|75:157,1,85,8|0,0:0|0:0,0:0:0:0:
103,321,125115,5,0,0:0:0:0:
103,321,125865,1,0,0:0:0:0:
103,321,126052,1,0,0:0:0:0:
103,321,126240,6,2,B|123:330|123:330|182:320,1,63.75,0|0,0:0|0:0,0:0:0:0:
173,322,126615,6,0,L|202:153,1,170,4|8,0:0|0:0,0:0:0:0:
325,366,127177,1,0,0:0:0:0:
315,368,127271,1,0,0:0:0:0:
305,370,127365,2,0,P|272:345|255:307,1,85,8|0,0:0|0:0,0:0:0:0:
31,321,127740,2,0,P|72:310|101:280,1,85,8|0,0:0|0:0,0:0:0:0:
201,154,128115,5,0,0:0:0:0:
201,154,128865,1,2,0:3:0:0:
202,143,128958,1,2,0:3:0:0:
204,133,129052,1,2,0:3:0:0:
206,122,129146,1,2,0:3:0:0:
208,112,129240,6,2,P|188:79|148:64,1,63.75,0|0,0:0|0:0,0:0:0:0:
156,63,129615,6,0,B|221:51|221:51|249:33|249:33|328:20,1,170,4|8,0:0|0:0,0:0:0:0:
131,144,130177,1,8,0:0:0:0:
121,149,130270,1,8,0:0:0:0:
112,154,130365,2,0,L|25:169,1,85,8|2,0:0|0:1,0:0:0:0:
84,77,130927,5,2,0:1:0:0:
13,250,131115,2,0,L|120:231,1,85,2|0,0:0|0:0,0:0:0:0:
70,160,131490,2,0,L|41:328,1,170,8|0,0:0|0:0,0:0:0:0:
147,127,132052,1,8,0:0:0:0:
147,127,132146,1,8,0:0:0:0:
147,127,132240,2,0,P|122:94|84:77,1,85,8|0,0:0|0:0,0:0:0:0:
41,327,132615,5,6,0:0:0:0:
70,160,132802,1,0,0:0:0:0:
17,225,132990,2,0,B|55:244|55:244|199:219,1,170,8|0,0:0|0:0,0:0:0:0:
327,290,133552,1,0,0:0:0:0:
249,319,133740,2,0,L|166:305,1,85,8|0,0:0|0:0,0:0:0:0:
313,372,134115,6,0,L|487:341,1,170,0|8,0:0|0:0,0:0:0:0:
380,225,134677,1,0,0:0:0:0:
249,319,134865,2,0,P|180:313|148:275,1,85
236,159,135240,1,8,0:0:0:0:
298,211,135427,1,0,0:0:0:0:
105,253,135615,6,0,L|7:235,1,85,2|0,0:0|0:0,0:0:0:0:
208,79,135990,2,0,P|250:77|289:94,1,85,8|0,0:0|0:0,0:0:0:0:
395,132,136365,2,0,L|380:49,1,85
470,93,136740,2,0,L|455:10,1,85,8|0,0:0|0:0,0:0:0:0:
320,171,137115,5,0,0:0:0:0:
334,253,137302,1,0,0:0:0:0:
395,132,137490,1,8,0:0:0:0:
236,159,137677,1,0,0:0:0:0:
417,264,137865,5,0,0:0:0:0:
453,188,138052,1,0,0:0:0:0:
259,292,138240,1,8,0:0:0:0:
198,232,138427,1,0,0:0:0:0:
349,338,138615,6,0,L|320:171,1,170,2|8,0:0|0:0,0:0:0:0:
369,34,139177,1,0,0:0:0:0:
254,222,139365,2,0,P|212:220|177:196,1,85
229,56,139740,2,0,P|270:63|304:87,1,85,8|0,0:0|0:0,0:0:0:0:
397,198,140115,5,0,0:0:0:0:
447,62,140302,1,0,0:0:0:0:
475,226,140490,1,8,0:0:0:0:
262,150,140677,1,0,0:0:0:0:
383,116,140865,1,0,0:0:0:0:
333,252,141052,1,0,0:0:0:0:
184,122,141240,1,8,0:0:0:0:
397,198,141427,1,0,0:0:0:0:
262,312,141615,6,0,B|240:273|240:273|262:150,1,170,2|8,0:0|0:0,0:0:0:0:
276,66,142177,1,0,0:0:0:0:
333,252,142365,2,0,P|367:277|418:279,1,85
184,178,142740,2,0,P|150:203|99:205,1,85,8|4,0:0|0:0,0:0:0:0:
340,120,143115,5,2,0:0:0:0:
248,232,143302,1,0,0:0:0:0:
119,124,143490,1,8,0:0:0:0:
262,149,143677,1,0,0:0:0:0:
234,315,143865,1,2,0:0:0:0:
197,95,144052,1,8,3:0:0:0:
200,74,144145,1,8,3:0:0:0:
204,53,144240,1,0,1:0:0:0:
353,37,144427,1,8,0:0:0:0:
169,261,144615,6,0,L|70:243,1,85,6|2,0:0|0:3,0:0:0:0:
303,285,144990,5,8,0:0:0:0:
264,360,145177,1,2,0:3:0:0:
319,186,145365,5,2,0:0:0:0:
244,224,145552,1,2,0:3:0:0:
390,115,145740,5,8,0:0:0:0:
307,101,145927,1,2,0:3:0:0:
489,99,146115,5,2,0:0:0:0:
430,39,146302,1,2,0:3:0:0:
401,200,146490,5,8,0:0:0:0:
319,186,146677,1,2,0:3:0:0:
389,333,146865,5,2,0:0:0:0:
314,370,147052,1,2,0:3:0:0:
401,200,147240,5,8,0:0:0:0:
319,186,147427,1,2,0:3:0:0:
102,281,147615,5,2,0:0:0:0:
266,251,147802,1,2,0:3:0:0:
152,121,147990,5,8,0:0:0:0:
127,201,148177,1,2,0:3:0:0:
323,313,148365,5,2,0:0:0:0:
266,251,148552,1,2,0:3:0:0:
72,366,148740,5,8,0:0:0:0:
153,347,148927,1,2,0:3:0:0:
152,121,149115,5,2,0:0:0:0:
127,202,149302,1,2,0:3:0:0:
323,313,149490,5,8,0:0:0:0:
209,187,149677,1,2,0:3:0:0:
19,302,149865,5,2,0:0:0:0:
180,265,150052,1,2,0:3:0:0:
138,39,150240,5,8,0:0:0:0:
101,287,150427,1,4,0:0:0:0:
292,174,150615,5,2,0:0:0:0:
152,121,150802,1,2,0:3:0:0:
279,333,150990,2,0,L|263:250,1,85,8|2,0:0|0:3,0:0:0:0:
63,221,151365,2,0,L|79:304,1,85,2|2,0:0|0:3,0:0:0:0:
362,289,151740,2,0,L|379:206,1,85,8|2,0:0|0:3,0:0:0:0:
179,235,152115,6,0,L|163:319,1,85,2|2,0:0|0:3,0:0:0:0:
476,332,152490,2,0,L|460:249,1,85,8|2,0:0|0:3,0:0:0:0:
207,67,152865,5,2,0:0:0:0:
193,151,153052,1,2,0:3:0:0:
341,81,153240,5,8,0:0:0:0:
327,0,153427,1,2,0:3:0:0:
438,134,153615,6,0,B|403:113|403:113|276:136,1,170,2|8,0:0|0:0,0:0:0:0:
405,27,154177,1,2,0:3:0:0:
390,204,154365,2,0,P|415:270|445:289,1,85,2|2,0:0|0:3,0:0:0:0:
225,211,154740,2,0,P|266:204|306:218,1,85,8|2,0:0|0:3,0:0:0:0:
204,53,155115,6,0,P|229:119|259:138,1,85,2|2,0:0|0:3,0:0:0:0:
39,60,155490,2,0,P|80:53|120:67,1,85,8|2,0:0|0:3,0:0:0:0:
260,224,155865,5,2,0:0:0:0:
286,56,156052,1,2,0:0:0:0:
326,279,156240,5,8,0:0:0:0:
340,362,156427,1,4,0:0:0:0:
233,142,156615,6,0,P|275:140|314:158,1,85,2|2,0:0|0:3,0:0:0:0:
52,145,156990,5,8,0:0:0:0:
56,60,157177,1,2,0:3:0:0:
127,260,157365,5,2,0:0:0:0:
48,230,157552,1,2,0:3:0:0:
260,224,157739,5,8,0:0:0:0:
206,290,157927,1,2,0:3:0:0:
268,85,158115,5,2,0:0:0:0:
314,158,158302,1,2,0:3:0:0:
57,53,158490,6,0,L|224:11,1,170,8|2,0:0|0:0,0:0:0:0:
198,93,159052,1,2,0:3:0:0:
171,174,159240,2,0,P|136:150|116:114,1,85,8|2,0:0|0:3,0:0:0:0:
289,294,159615,5,2,0:0:0:0:
305,157,159802,1,2,0:3:0:0:
343,359,159990,5,8,0:0:0:0:
372,279,160177,1,2,0:3:0:0:
426,344,160365,5,2,0:0:0:0:
250,219,160552,1,2,0:3:0:0:
506,373,160740,5,8,0:0:0:0:
491,289,160927,1,2,0:3:0:0:
264,330,161115,5,2,0:0:0:0:
235,251,161302,1,2,0:3:0:0:
251,168,161490,1,8,0:0:0:0:
329,384,161677,1,2,0:3:0:0:
153,237,161865,1,2,0:0:0:0:
235,251,162052,1,2,0:3:0:0:
299,306,162240,1,8,0:0:0:0:
19,332,162427,1,4,0:0:0:0:
168,154,162615,5,2,0:0:0:0:
74,267,162802,1,2,0:3:0:0:
102,99,162990,1,8,0:0:0:0:
247,124,163177,1,2,0:3:0:0:
88,183,163365,2,0,P|30:145|19:115,1,85,2|2,0:0|0:3,0:0:0:0:
261,40,163740,2,0,L|375:19,1,85,8|2,0:0|0:3,0:0:0:0:
167,212,164115,6,0,L|0:241,2,170,2|8|2,0:0|0:0|0:0,0:0:0:0:
384,265,165052,1,2,0:3:0:0:
301,259,165240,2,0,P|266:235|249:196,1,85,8|2,0:0|0:3,0:0:0:0:
226,56,165615,6,0,P|222:98|197:132,1,85,0|2,0:0|0:3,0:0:0:0:
332,182,165990,1,8,0:0:0:0:
105,222,166177,1,2,0:3:0:0:
303,262,166365,5,2,0:0:0:0:
249,197,166552,1,2,0:3:0:0:
8,321,166740,5,8,0:0:0:0:
91,306,166927,1,2,0:3:0:0:
104,36,167115,5,2,0:0:0:0:
75,115,167302,1,2,0:3:0:0:
303,262,167490,5,8,0:0:0:0:
249,197,167677,1,8,3:0:0:0:
242,188,167770,1,8,3:0:0:0:
235,180,167864,1,0,1:0:0:0:
396,126,168052,1,2,0:0:0:0:
220,277,168240,1,8,0:0:0:0:
260,78,168427,1,8,0:0:0:0:
476,338,168615,5,6,0:0:0:0:
283,84,180615,6,0,P|345:103|378:93,1,85,4|0,0:0|2:0,0:0:0:0:
254,5,180990,1,2,0:0:0:0:
228,150,181177,2,0,L|212:241,1,85,0|4,2:0|0:0,0:0:0:0:
200,70,181552,1,0,2:0:0:0:
294,205,181740,1,2,0:0:0:0:
283,84,181927,1,0,2:0:0:0:
213,233,182115,6,0,L|122:248,1,85,4|0,0:0|2:0,0:0:0:0:
108,103,182490,2,0,P|141:128|158:167,1,85,2|0,0:0|2:0,0:0:0:0:
183,339,182865,2,0,L|99:325,1,85,4|0,0:0|2:0,0:0:0:0:
298,233,183240,1,2,0:0:0:0:
213,233,183427,1,0,2:0:0:0:
329,339,183615,6,0,L|412:325,1,85,4|0,0:0|2:0,0:0:0:0:
255,159,183990,2,0,P|173:158|149:177,1,85,2|0,0:0|2:0,0:0:0:0:
309,224,184365,1,4,0:0:0:0:
320,104,184552,1,0,2:0:0:0:
388,253,184740,1,2,0:0:0:0:
374,169,184927,1,0,2:0:0:0:
226,240,185115,5,4,0:0:0:0:
255,159,185302,1,0,2:0:0:0:
348,299,185490,1,2,0:0:0:0:
309,224,185677,1,0,2:0:0:0:
181,312,185865,1,4,0:0:0:0:
393,226,186052,1,0,2:0:0:0:
393,226,186427,5,0,2:0:0:0:
165,147,186615,6,0,L|180:231,1,85,4|0,0:0|2:0,0:0:0:0:
234,295,186989,1,2,0:0:0:0:
245,118,187177,2,0,L|259:201,1,85,0|4,2:0|0:0,0:0:0:0:
313,265,187551,1,0,2:0:0:0:
325,89,187740,1,2,0:0:0:0:
393,236,187927,1,0,2:0:0:0:
247,210,188116,5,4,0:0:0:0:
167,239,188302,1,0,2:0:0:0:
302,145,188490,5,2,0:0:0:0:
382,174,188676,1,0,2:0:0:0:
192,144,188866,5,4,0:0:0:0:
112,173,189052,1,0,2:0:0:0:
247,79,189240,5,2,0:0:0:0:
327,108,189425,1,0,2:0:0:0:
32,202,189615,5,6,0:1:0:0:
32,202,191115,5,0,0:0:0:0:
230,96,191302,1,8,0:3:0:0:
231,85,191395,1,8,0:3:0:0:
233,75,191489,1,8,0:3:0:0:
277,172,191677,5,8,0:0:0:0:
91,44,191865,1,8,0:3:0:0:
92,33,191958,1,8,0:3:0:0:
94,23,192052,1,8,0:3:0:0:
193,186,192240,1,8,0:3:0:0:
194,197,192333,1,8,0:3:0:0:
196,207,192427,1,8,0:3:0:0:
11,73,192615,6,0,L|178:102,1,170,6|8,0:0|0:0,0:0:0:0:
346,132,193177,1,2,0:3:0:0:
153,247,193365,5,2,0:0:0:0:
123,167,193552,1,2,0:3:0:0:
310,292,193740,5,8,0:0:0:0:
377,239,193926,1,2,0:3:0:0:
86,300,194115,5,2,0:0:0:0:
15,253,194302,1,2,0:3:0:0:
239,244,194490,5,8,0:0:0:0:
263,162,194677,1,2,0:3:0:0:
343,307,194865,5,2,0:0:0:0:
322,223,195052,1,2,0:3:0:0:
403,369,195240,5,8,0:0:0:0:
426,285,195427,1,2,0:3:0:0:
258,313,195615,5,2,0:0:0:0:
217,82,195802,1,2,0:3:0:0:
203,247,195990,5,8,0:0:0:0:
288,233,196177,1,2,0:3:0:0:
248,2,196365,5,2,0:0:0:0:
217,82,196552,1,2,0:3:0:0:
437,163,196740,5,8,0:0:0:0:
383,96,196927,1,2,0:3:0:0:
203,247,197115,5,2,0:0:0:0:
288,233,197302,1,2,0:3:0:0:
368,16,197490,5,8,0:0:0:0:
155,137,197677,1,2,0:3:0:0:
141,52,197865,5,2,0:0:0:0:
234,167,198052,1,2,0:3:0:0:
196,368,198240,5,8,0:0:0:0:
220,82,198426,1,4,0:0:0:0:
86,238,198615,6,0,P|163:221|226:295,1,170,2|8,0:0|0:0,0:0:0:0:
56,317,199177,1,2,0:3:0:0:
31,172,199365,2,0,L|15:85,1,85,2|2,0:0|0:3,0:0:0:0:
175,132,199740,2,0,P|133:128|100:103,1,85,8|2,0:0|0:3,0:0:0:0:
396,55,200115,6,0,L|381:138,1,85,2|2,0:0|0:3,0:0:0:0:
164,47,200490,2,0,B|250:34|250:34|317:85,2,170,8|2|8,0:0|0:0|0:0,0:0:0:0:
229,116,201427,1,2,0:3:0:0:
256,307,201615,6,0,L|424:278,1,170,2|8,0:0|0:0,0:0:0:0:
507,264,202177,1,2,0:3:0:0:
273,145,202365,5,2,0:0:0:0:
286,228,202552,1,2,0:3:0:0:
189,159,202740,1,8,0:0:0:0:
202,242,202927,1,2,0:3:0:0:
314,139,203115,5,2,0:0:0:0:
292,269,203302,1,2,0:3:0:0:
183,118,203490,1,8,0:0:0:0:
161,248,203678,1,8,3:0:0:0:
163,269,203771,1,8,0:3:0:0:
165,290,203864,1,0,1:0:0:0:
103,130,204052,1,8,0:3:0:0:
252,278,204240,1,8,0:3:0:0:
248,299,204334,1,8,0:3:0:0:
245,320,204427,1,0,1:0:0:0:
187,116,204615,6,0,L|202:31,1,85,6|2,0:0|0:3,0:0:0:0:
317,224,204990,5,8,0:0:0:0:
252,170,205176,1,2,0:3:0:0:
464,250,205365,5,2,0:0:0:0:
450,335,205552,1,2,0:3:0:0:
414,110,205740,5,8,0:0:0:0:
493,80,205926,1,2,0:3:0:0:
317,224,206115,5,2,0:0:0:0:
251,169,206302,1,2,0:3:0:0:
478,165,206490,6,0,L|446:343,2,170,8|2|8,0:0|0:0|0:0,0:0:0:0:
317,224,207427,1,2,0:3:0:0:
119,73,207615,6,0,L|16:54,1,85,2|2,0:0|0:3,0:0:0:0:
285,33,207990,5,8,0:0:0:0:
252,112,208177,1,2,0:3:0:0:
199,44,208365,5,2,0:0:0:0:
144,243,208552,1,2,0:3:0:0:
337,102,208740,5,8,0:0:0:0:
204,184,208927,1,2,0:3:0:0:
119,73,209116,5,2,0:0:0:0:
121,157,209303,1,2,0:3:0:0:
204,184,209490,1,8,0:0:0:0:
66,6,209677,1,2,0:3:0:0:
254,113,209865,5,2,0:0:0:0:
203,46,210052,1,2,0:3:0:0:
119,73,210239,1,8,0:0:0:0:
389,153,210427,1,4,0:0:0:0:
159,225,210615,6,0,P|159:169|189:131,1,85,2|2,0:0|0:3,0:0:0:0:
454,320,210990,2,0,L|370:305,1,85,8|2,0:0|0:3,0:0:0:0:
89,160,211365,2,0,L|172:145,1,85,2|2,0:0|0:3,0:0:0:0:
398,382,211740,2,0,P|392:340|369:305,1,85,8|2,0:0|0:3,0:0:0:0:
59,326,212115,6,0,B|95:344|95:344|226:321,2,170,2|8|2,0:0|0:0|0:0,0:0:0:0:
74,243,213052,1,2,0:3:0:0:
222,321,213240,1,8,0:0:0:0:
234,237,213427,1,2,0:3:0:0:
139,297,213615,5,2,0:0:0:0:
104,77,213802,1,2,0:3:0:0:
385,302,213990,5,8,0:0:0:0:
301,290,214177,1,2,0:3:0:0:
24,106,214365,5,2,0:0:0:0:
104,77,214552,1,2,0:3:0:0:
385,302,214740,5,8,0:0:0:0:
301,290,214927,1,2,0:3:0:0:
24,106,215115,5,2,0:0:0:0:
104,77,215302,1,2,0:3:0:0:
147,318,215490,1,8,0:0:0:0:
24,106,215677,5,2,0:3:0:0:
85,165,215865,1,2,0:0:0:0:
3,189,216052,1,2,0:0:0:0:
305,37,216240,5,6,0:1:0:0:
387,15,216427,1,6,0:1:0:0:
