osu file format v14

[General]
AudioFilename: kakumei.mp3
AudioLeadIn: 0
PreviewTime: 60085
Countdown: 0
SampleSet: Soft
StackLeniency: 0.6
Mode: 0
LetterboxInBreaks: 0
WidescreenStoryboard: 0

[Editor]
Bookmarks: 24099
DistanceSpacing: 1.1
BeatDivisor: 4
GridSize: 4
TimelineZoom: 1.4

[Metadata]
Title:Shikaku Kakumei
TitleUnicode:四角革命
Artist:soutaiseiriron
ArtistUnicode:相対性理論
Creator:Deppyforce
Version:Normal
Source:
Tags:theory of relativity square revolution やくしまる えつこ yakushimaru etsuko ハイファイ新書 hi-fi anatomia j-pop kayōkyoku kayokyoku mkguh kalibe fcl
BeatmapID:959259
BeatmapSetID:446062

[Difficulty]
HPDrainRate:4
CircleSize:3.6
OverallDifficulty:4
ApproachRate:5
SliderMultiplier:0.9
SliderTickRate:1

[Events]
//Background and Video events
0,0,"bg.jpg",0,0
//Break Periods
//Storyboard Layer 0 (Background)
//Storyboard Layer 1 (Fail)
//Storyboard Layer 2 (Pass)
//Storyboard Layer 3 (Foreground)
//Storyboard Sound Samples

[TimingPoints]
24085,375,4,2,1,40,1,0
60085,-100,4,2,1,50,0,1
83897,-100,4,2,1,50,0,0

[Colours]
Combo1 : 149,221,255
Combo2 : 153,204,204
Combo3 : 157,255,221
Combo4 : 222,222,188

[HitObjects]
21,348,24085,6,0,P|66:354|110:342,1,90,4|8,0:0|0:0,0:0:0:0:
180,274,24835,2,0,L|181:227,1,45,0|0,0:0|0:0,0:0:0:0:
206,186,25210,1,8,0:0:0:0:
275,252,25585,2,0,P|320:258|364:246,1,90,0|8,0:0|0:0,0:0:0:0:
400,215,26147,2,0,L|401:168,1,45,0|0,0:0|0:0,0:0:0:0:
472,101,26710,1,8,0:0:0:0:
378,65,27085,6,0,P|333:59|289:71,1,90,0|8,0:0|0:0,0:0:0:0:
199,110,27835,2,0,P|175:114|150:112,1,45,0|0,0:0|0:0,0:0:0:0:
106,101,28210,1,8,0:0:0:0:
14,140,28585,1,0,0:0:0:0:
56,231,28960,2,0,B|52:277|52:277|35:318,2,90,8|0|8,0:0|0:0|0:0,0:0:0:0:
145,189,30085,5,0,0:0:0:0:
224,248,30460,2,0,P|267:258|311:249,1,90,8|0,0:0|0:0,0:0:0:0:
354,224,31022,2,0,P|367:204|373:181,1,45,0|8,0:0|0:0,0:0:0:0:
454,127,31585,1,0,0:0:0:0:
473,224,31960,2,0,P|460:244|454:267,1,45,8|0,0:0|0:0,0:0:0:0:
459,313,32335,1,0,0:0:0:0:
362,333,32710,1,8,0:0:0:0:
311,248,33085,5,0,0:0:0:0:
262,334,33460,2,0,P|216:341|174:327,1,90,8|0,0:0|0:0,0:0:0:0:
145,288,34022,2,0,L|140:240,1,45,0|8,0:0|0:0,0:0:0:0:
227,195,34585,1,0,0:0:0:0:
312,246,34960,2,0,P|356:251|398:236,2,90,8|0|8,0:0|0:0|0:0,0:0:0:0:
347,156,36085,5,4,0:0:0:0:
442,159,36460,2,0,P|474:189|490:230,1,90,8|8,0:0|0:0,0:0:0:0:
483,280,37022,1,0,0:0:0:0:
404,340,37397,1,0,0:0:0:0:
157,315,38335,2,0,B|111:322|111:322|67:314,1,90,0|0,0:0|0:0,0:0:0:0:
18,228,39085,5,4,0:0:0:0:
68,141,39460,2,0,B|114:129|157:141,1,90,8|8,0:0|0:0,0:0:0:0:
196,170,40022,1,0,0:0:0:0:
256,91,40397,1,0,0:0:0:0:
481,192,41335,2,0,L|526:190,2,45,0|0|0,0:0|0:0|0:0,0:0:0:0:
421,271,42085,5,4,0:0:0:0:
329,230,42460,2,0,P|321:277|331:317,1,90,8|8,0:0|0:0,0:0:0:0:
362,355,43022,1,0,0:0:0:0:
421,271,43397,1,0,0:0:0:0:
180,328,44335,2,0,L|89:334,1,90,0|0,0:0|0:0,0:0:0:0:
8,278,45085,5,4,0:0:0:0:
14,179,45460,2,0,P|55:197|99:197,1,90,8|8,0:0|0:0,0:0:0:0:
145,179,46022,1,0,0:0:0:0:
198,95,46397,2,0,L|290:101,1,90,4|0,0:0|0:0,0:0:0:0:
323,136,46960,2,0,L|415:130,1,90,8|0,0:0|0:0,0:0:0:0:
456,107,47522,1,0,0:0:0:0:
500,84,47710,1,8,0:0:0:0:
495,182,48085,6,0,P|495:227|513:267,1,90,4|8,0:0|0:0,0:0:0:0:
449,343,48835,1,0,0:0:0:0:
449,343,49022,2,0,P|410:320|366:316,1,90,0|0,0:0|0:0,0:0:0:0:
329,349,49585,2,0,P|290:371|245:375,1,90,0|8,0:0|0:0,0:0:0:0:
199,359,50147,2,0,L|194:269,1,90,0|0,0:0|0:0,0:0:0:0:
152,242,50710,1,8,0:0:0:0:
68,294,51085,6,0,P|52:252|61:205,1,90,0|8,0:0|0:0,0:0:0:0:
136,144,51835,2,0,P|182:145|220:171,1,90,0|8,0:0|0:0,0:0:0:0:
247,207,52397,2,0,P|293:206|331:180,1,90,0|0,0:0|0:0,0:0:0:0:
365,148,52960,1,8,0:0:0:0:
365,148,53147,2,0,P|409:137|452:148,1,90,0|0,0:0|0:0,0:0:0:0:
488,180,53710,1,8,0:0:0:0:
407,236,54085,6,0,P|396:281|405:324,1,90,0|8,0:0|0:0,0:0:0:0:
496,281,54835,1,0,0:0:0:0:
488,180,55210,1,8,0:0:0:0:
399,137,55585,2,0,P|388:92|398:50,1,90,0|8,0:0|0:0,0:0:0:0:
435,18,56147,2,0,L|341:14,1,90,0|0,0:0|0:0,0:0:0:0:
302,39,56710,1,8,0:0:0:0:
205,18,57085,6,0,L|111:14,1,90,0|8,0:0|0:0,0:0:0:0:
32,71,57835,2,0,P|20:114|27:158,1,90,0|8,0:0|0:0,0:0:0:0:
59,195,58397,2,0,B|104:207|104:207|146:200,1,90,4|0,0:0|0:0,0:0:0:0:
180,163,58960,1,8,0:0:0:0:
265,213,59335,2,0,L|261:262,1,45
225,291,59710,2,0,L|221:340,1,45,8|0,0:0|0:0,0:0:0:0:
204,382,60085,5,4,0:0:0:0:
120,329,60460,2,0,L|116:232,2,90,8|0|8,0:0|0:0|0:0,0:0:0:0:
21,320,61585,2,0,L|17:223,1,90,0|8,0:0|0:0,0:0:0:0:
0,133,62335,2,0,P|42:135|82:161,1,90,0|8,0:0|0:0,0:0:0:0:
110,195,62897,1,0,0:0:0:0:
198,150,63272,5,0,0:0:0:0:
198,150,63460,2,0,P|237:169|282:164,1,90,8|0,0:0|0:0,0:0:0:0:
344,87,64210,1,8,0:0:0:0:
380,179,64585,1,0,0:0:0:0:
443,102,64960,2,0,P|471:138|479:181,1,90,8|0,0:0|0:0,0:0:0:0:
468,229,65522,1,0,0:0:0:0:
382,278,65897,6,0,P|336:268|304:239,1,90,12|0,0:0|0:0,0:0:0:0:
284,194,66460,2,0,L|287:101,2,90,8|0|8,0:0|0:0|0:0,0:0:0:0:
206,255,67585,1,0,0:0:0:0:
128,194,67960,2,0,L|125:101,2,90,8|0|8,0:0|0:0|0:0,0:0:0:0:
89,224,68897,1,0,0:0:0:0:
127,315,69272,6,0,P|161:345|204:355,1,90,0|0,0:0|0:0,0:0:0:0:
252,345,69835,2,0,B|299:340|299:340|341:347,1,90,0|8,0:0|0:0,0:0:0:0:
367,251,70585,2,0,B|321:239|321:239|284:218,1,90,0|8,0:0|0:0,0:0:0:0:
238,130,71335,1,0,0:0:0:0:
238,130,71522,2,0,L|239:78,1,45,8|8,3:0|3:0,0:0:0:0:
264,42,71897,1,0,0:0:0:0:
305,14,72085,6,0,P|350:6|393:13,1,90,4|8,0:0|0:0,0:0:0:0:
462,83,72835,2,0,P|470:128|463:171,1,90,0|8,0:0|0:0,0:0:0:0:
393,240,73585,2,0,P|348:248|305:241,1,90,0|8,0:0|0:0,0:0:0:0:
236,171,74335,2,0,P|228:126|235:83,1,90,0|8,0:0|0:0,0:0:0:0:
264,42,74897,1,0,0:0:0:0:
305,14,75085,5,0,0:0:0:0:
385,71,75460,2,0,P|430:79|473:72,2,90,8|0|8,0:0|0:0|0:0,0:0:0:0:
348,163,76585,2,0,P|363:204|392:239,1,90,0|8,0:0|0:0,0:0:0:0:
437,261,77147,1,0,0:0:0:0:
437,261,77335,2,0,P|400:287|375:324,1,90,0|0,0:0|0:0,0:0:0:0:
365,372,77897,6,0,B|330:343|330:343|288:328,1,90,12|0,0:0|0:0,0:0:0:0:
246,357,78460,2,0,P|202:363|158:355,1,90,8|0,0:0|0:0,0:0:0:0:
80,292,79210,1,8,0:0:0:0:
61,196,79585,1,0,0:0:0:0:
108,109,79960,2,0,P|66:97|22:105,2,90,8|0|8,0:0|0:0|0:0,0:0:0:0:
146,142,80897,1,0,0:0:0:0:
231,92,81272,5,0,0:0:0:0:
231,92,81460,2,0,P|272:106|316:97,1,90,8|0,0:0|0:0,0:0:0:0:
381,22,82210,1,8,0:0:0:0:
418,116,82585,1,0,0:0:0:0:
418,116,82772,2,0,P|402:157|412:201,1,90
436,244,83335,2,0,L|341:240,1,90,0|8,0:0|0:0,0:0:0:0:
302,263,83897,5,12,0:0:0:0:
