osu file format v14

[General]
AudioFilename: kakumei.mp3
AudioLeadIn: 0
PreviewTime: 60085
Countdown: 0
SampleSet: Soft
StackLeniency: 0.7
Mode: 0
LetterboxInBreaks: 0
WidescreenStoryboard: 0

[Editor]
Bookmarks: 24099
DistanceSpacing: 1.1
BeatDivisor: 4
GridSize: 4
TimelineZoom: 1.4

[Metadata]
Title:Shikaku Kakumei
TitleUnicode:四角革命
Artist:soutaiseiriron
ArtistUnicode:相対性理論
Creator:Deppyforce
Version:FCL's Another
Source:
Tags:theory of relativity square revolution やくしまる えつこ yakushimaru etsuko ハイファイ新書 hi-fi anatomia j-pop kayōkyoku kayokyoku mkguh kalibe fcl
BeatmapID:960918
BeatmapSetID:446062

[Difficulty]
HPDrainRate:6
CircleSize:5.5
OverallDifficulty:7.7
ApproachRate:9
SliderMultiplier:1.75
SliderTickRate:1

[Events]
//Background and Video events
0,0,"bg.jpg",0,0
//Break Periods
//Storyboard Layer 0 (Background)
//Storyboard Layer 1 (Fail)
//Storyboard Layer 2 (Pass)
//Storyboard Layer 3 (Foreground)
//Storyboard Sound Samples

[TimingPoints]
24085,375,4,2,1,40,1,0
38710,-200,4,2,1,40,0,0
39085,-100,4,2,1,40,0,0
41428,-100,4,2,1,5,0,0
41522,-100,4,2,1,40,0,0
41616,-100,4,2,1,5,0,0
41710,-200,4,2,1,40,0,0
42085,-100,4,2,1,40,0,0
44710,-200,4,2,1,40,0,0
45085,-100,4,2,1,40,0,0
46397,-133.333333333333,4,2,1,40,0,0
46960,-100,4,2,1,40,0,0
60085,-90.9090909090909,4,2,1,50,0,1
72085,-86.9565217391304,4,2,1,50,0,1
83897,-100,4,2,1,50,0,0

[Colours]
Combo1 : 149,221,255
Combo2 : 153,204,204
Combo3 : 157,255,221
Combo4 : 222,222,188

[HitObjects]
167,112,24085,6,0,L|78:106,2,87.5,0|0|8,0:0|0:0|0:0,0:0:0:0:
269,213,24647,2,0,L|358:207,2,87.5,0|0|0,0:0|0:0|0:0,0:0:0:0:
119,312,25210,1,8,0:0:0:0:
299,349,25397,1,0,0:0:0:0:
130,210,25585,5,0,0:0:0:0:
130,210,25772,1,0,0:0:0:0:
328,170,25960,1,8,0:0:0:0:
206,290,26147,1,0,0:0:0:0:
202,95,26335,2,0,L|200:3,2,87.5,0|0|8,0:0|0:0|0:0,0:0:0:0:
347,187,26897,1,0,0:0:0:0:
172,275,27085,6,0,P|99:280|51:261,2,87.5,0|0|8,0:0|0:0|0:0,0:0:0:0:
323,124,27647,2,0,P|396:119|444:138,2,87.5,0|0|0,0:0|0:0|0:0,0:0:0:0:
130,209,28210,1,8,0:0:0:0:
347,240,28397,1,0,0:0:0:0:
145,126,28585,6,0,P|133:83|136:40,1,87.5
198,252,28960,2,0,P|195:296|207:338,1,87.5,8|0,0:0|0:0,0:0:0:0:
205,144,29335,1,0,0:0:0:0:
318,265,29522,1,0,0:0:0:0:
366,106,29710,1,8,0:0:0:0:
293,172,29897,1,0,0:0:0:0:
165,336,30085,6,0,B|122:349|122:349|59:331,2,87.5,0|0|8,0:0|0:0|0:0,0:0:0:0:
355,206,30647,2,0,B|397:218|397:218|461:201,2,87.5
132,148,31210,1,8,0:0:0:0:
280,58,31397,1,0,0:0:0:0:
209,255,31585,5,0,0:0:0:0:
209,255,31772,1,0,0:0:0:0:
294,80,31960,1,8,0:0:0:0:
321,243,32147,1,0,0:0:0:0:
509,194,32335,2,0,L|405:188,1,87.5
294,80,32710,1,8,0:0:0:0:
506,37,32897,1,0,0:0:0:0:
361,214,33085,6,0,L|356:335,2,87.5,0|0|8,0:0|0:0|0:0,0:0:0:0:
196,101,33647,2,0,L|192:13,2,87.5,0|0|0,0:0|0:0|0:0,0:0:0:0:
103,280,34210,1,8,0:0:0:0:
84,94,34397,1,0,0:0:0:0:
196,245,34585,6,0,P|251:257|315:247,1,87.5,0|0,0:0|0:0,0:0:0:0:
432,116,34960,2,0,P|377:128|313:118,1,87.5,8|0,0:0|0:0,0:0:0:0:
163,49,35335,1,0,0:0:0:0:
235,197,35522,1,0,0:0:0:0:
72,132,35710,1,8,0:0:0:0:
199,124,35897,1,0,0:0:0:0:
66,313,36085,6,0,P|58:262|77:201,1,87.5,4|0,0:0|0:0,0:0:0:0:
130,63,36460,2,0,B|141:96|141:96|126:179,1,87.5,8|0,0:0|0:0,0:0:0:0:
139,192,36741,1,8,0:0:0:0:
154,197,36834,1,8,0:0:0:0:
274,37,37022,1,0,0:0:0:0:
274,37,37397,1,0,0:0:0:0:
274,37,37585,1,0,0:0:0:0:
336,105,38335,5,0,0:0:0:0:
334,118,38428,1,0,0:0:0:0:
333,131,38522,1,0,0:0:0:0:
332,144,38616,1,0,0:0:0:0:
331,157,38710,2,0,L|247:160,1,65.625,0|0,0:0|0:0,0:0:0:0:
210,194,39085,6,0,L|327:189,1,87.5
119,258,39460,2,0,P|105:304|121:360,1,87.5,8|8,0:0|0:0,0:0:0:0:
153,365,39741,1,8,0:0:0:0:
161,349,39834,1,8,0:0:0:0:
50,158,40022,1,0,0:0:0:0:
50,158,40397,1,0,0:0:0:0:
50,158,40585,1,0,0:0:0:0:
125,180,41335,6,0,L|147:119,1,43.75,0|0,0:0|0:0,0:0:0:0:
226,82,41522,2,0,L|211:123,1,43.75,0|0,0:0|0:0,0:0:0:0:
228,240,41710,6,0,L|255:176,1,65.625,0|0,0:0|0:0,0:0:0:0:
302,126,42085,6,0,P|324:172|311:217,1,87.5,0|0,0:0|0:0,0:0:0:0:
225,315,42460,2,0,B|266:335|266:335|343:328,1,87.5,8|0,0:0|0:0,0:0:0:0:
349,307,42741,1,8,0:0:0:0:
353,290,42834,1,8,0:0:0:0:
304,84,43022,1,0,0:0:0:0:
304,84,43397,1,0,0:0:0:0:
304,84,43585,1,0,0:0:0:0:
161,104,44335,5,0,0:0:0:0:
156,120,44428,1,0,0:0:0:0:
154,138,44522,1,0,0:0:0:0:
155,155,44616,1,0,0:0:0:0:
158,172,44710,6,0,P|194:184|235:177,1,65.625,0|0,0:0|0:0,0:0:0:0:
276,153,45085,6,0,P|245:196|236:262,1,87.5,0|0,0:0|0:0,0:0:0:0:
113,379,45460,2,0,L|119:268,1,87.5,8|0,0:0|0:0,0:0:0:0:
89,252,45741,1,8,0:0:0:0:
88,234,45834,1,8,0:0:0:0:
286,331,46022,1,0,0:0:0:0:
286,331,46397,6,0,L|281:170,1,131.25000500679,0|0,0:0|0:0,0:0:0:0:
281,199,46960,1,8,0:0:0:0:
281,199,47335,1,0,0:0:0:0:
161,287,47522,1,0,0:0:0:0:
132,296,47615,1,8,0:0:0:0:
101,294,47709,1,8,0:0:0:0:
19,188,47897,1,0,0:0:0:0:
181,270,48085,6,0,L|287:273,1,87.5
129,202,48460,2,0,B|120:158|120:158|137:98,1,87.5,8|0,0:0|0:0,0:0:0:0:
249,26,48835,1,0,0:0:0:0:
225,168,49022,1,0,0:0:0:0:
121,31,49210,2,0,P|65:26|8:41,1,87.5,8|0,0:0|0:0,0:0:0:0:
5,217,49585,6,0,L|101:211,1,87.5,0|0,0:0|0:0,0:0:0:0:
216,71,49960,1,8,0:0:0:0:
161,268,50147,1,0,0:0:0:0:
74,113,50335,1,0,0:0:0:0:
74,113,50522,1,0,0:0:0:0:
214,202,50710,2,0,P|261:182|299:132,1,87.5,8|0,0:0|0:0,0:0:0:0:
154,249,51085,6,0,L|145:349,2,87.5,0|0|8,0:0|0:0|0:0,0:0:0:0:
74,113,51647,1,0,0:0:0:0:
210,35,51835,2,0,P|255:30|332:54,1,87.5,0|0,0:0|0:0,0:0:0:0:
128,68,52210,1,8,0:0:0:0:
285,156,52397,1,0,0:0:0:0:
106,238,52585,5,0,0:0:0:0:
174,139,52772,1,0,0:0:0:0:
153,317,52960,1,8,0:0:0:0:
153,317,53147,1,0,0:0:0:0:
99,160,53335,2,0,P|98:118|142:60,1,87.5,0|0,0:0|0:0,0:0:0:0:
266,252,53710,2,0,P|294:221|367:211,1,87.5,8|0,0:0|0:0,0:0:0:0:
114,275,54085,6,0,L|103:169,1,87.5,0|0,0:0|0:0,0:0:0:0:
231,33,54460,2,0,L|221:120,1,87.5,8|0,0:0|0:0,0:0:0:0:
114,275,54835,1,0,0:0:0:0:
231,218,55022,1,0,0:0:0:0:
37,152,55210,1,8,0:0:0:0:
156,98,55397,1,0,0:0:0:0:
213,287,55585,6,0,P|271:280|304:235,1,87.5,0|0,0:0|0:0,0:0:0:0:
343,70,55960,1,8,0:0:0:0:
178,114,56147,1,0,0:0:0:0:
343,195,56335,1,0,0:0:0:0:
343,195,56522,1,0,0:0:0:0:
172,279,56710,2,0,L|72:282,1,87.5,8|0,0:0|0:0,0:0:0:0:
113,44,57085,6,0,P|130:107|119:151,1,87.5,0|0,0:0|0:0,0:0:0:0:
63,297,57460,1,8,0:0:0:0:
191,213,57647,1,0,0:0:0:0:
191,213,57741,1,0,0:0:0:0:
191,213,57835,2,0,L|201:117,1,87.5,0|0,0:0|0:0,0:0:0:0:
169,342,58210,1,8,0:0:0:0:
365,198,58397,1,4,0:0:0:0:
303,325,58585,5,0,0:0:0:0:
303,325,58772,1,0,0:0:0:0:
239,160,58960,2,0,P|235:106|252:49,1,87.5,8|0,0:0|0:0,0:0:0:0:
449,19,59335,1,0,0:0:0:0:
509,218,59522,1,0,0:0:0:0:
481,206,59615,1,8,0:0:0:0:
452,194,59709,1,8,0:0:0:0:
362,97,59897,1,0,0:0:0:0:
294,207,60085,5,4,0:0:0:0:
132,128,60272,2,0,P|119:75|131:30,1,96.250002937317,0|8,0:0|0:0,0:0:0:0:
301,119,60647,1,0,0:0:0:0:
184,240,60835,5,0,0:0:0:0:
201,74,61022,1,0,0:0:0:0:
272,270,61210,5,8,0:0:0:0:
98,167,61397,1,0,0:0:0:0:
301,119,61585,5,0,0:0:0:0:
185,298,61772,1,0,0:0:0:0:
273,126,61960,6,0,L|278:19,1,96.250002937317,8|0,0:0|0:0,0:0:0:0:
435,136,62335,1,0,0:0:0:0:
332,160,62522,1,0,0:0:0:0:
326,265,62710,1,8,0:0:0:0:
226,299,62897,1,0,0:0:0:0:
332,160,63085,5,0,0:0:0:0:
164,230,63272,2,0,L|159:354,1,96.250002937317,0|8,0:0|0:0,0:0:0:0:
189,146,63647,1,0,0:0:0:0:
55,248,63835,5,0,0:0:0:0:
263,222,64022,1,0,0:0:0:0:
76,152,64210,5,8,0:0:0:0:
114,322,64397,1,0,0:0:0:0:
174,166,64585,5,0,0:0:0:0:
31,262,64772,1,0,0:0:0:0:
223,247,64960,6,0,P|281:234|328:200,2,96.250002937317,8|0|0,0:0|0:0|0:0,0:0:0:0:
76,152,65522,1,0,0:0:0:0:
153,79,65710,1,0,0:0:0:0:
100,263,65897,1,12,0:0:0:0:
242,314,66085,5,0,0:0:0:0:
329,192,66272,2,0,P|327:119|334:73,1,96.250002937317,0|8,0:0|0:0,0:0:0:0:
485,32,66647,1,0,0:0:0:0:
430,150,66835,5,0,0:0:0:0:
328,5,67022,1,0,0:0:0:0:
404,215,67210,5,8,0:0:0:0:
397,15,67397,1,0,0:0:0:0:
476,205,67585,5,0,0:0:0:0:
352,71,67772,1,0,0:0:0:0:
404,215,67960,6,0,L|292:209,1,96.250002937317,8|0,0:0|0:0,0:0:0:0:
226,108,68334,1,0,0:0:0:0:
161,279,68522,1,0,0:0:0:0:
307,209,68710,1,8,0:0:0:0:
116,141,68897,1,0,0:0:0:0:
208,181,69085,5,0,0:0:0:0:
224,334,69272,1,0,0:0:0:0:
224,334,69460,1,8,0:0:0:0:
343,271,69647,1,0,0:0:0:0:
163,238,69835,5,0,0:0:0:0:
340,196,70022,1,0,0:0:0:0:
208,324,70210,5,8,0:0:0:0:
236,142,70397,1,0,0:0:0:0:
287,318,70585,5,0,0:0:0:0:
169,163,70772,1,0,0:0:0:0:
270,51,70960,5,8,0:0:0:0:
168,22,71147,1,0,0:0:0:0:
236,142,71335,5,0,0:0:0:0:
239,159,71522,1,8,3:0:0:0:
236,174,71710,1,8,3:0:0:0:
233,180,71897,1,0,0:0:0:0:
198,333,72085,5,4,0:0:0:0:
78,274,72272,1,0,0:0:0:0:
323,230,72460,2,0,P|335:183|301:118,1,100.62500191927,8|0,0:0|0:0,0:0:0:0:
244,18,72835,5,0,0:0:0:0:
403,122,73022,1,0,0:0:0:0:
219,29,73210,5,8,0:0:0:0:
446,70,73397,1,0,0:0:0:0:
191,44,73585,6,0,L|61:41,1,100.62500191927,0|0,0:0|0:0,0:0:0:0:
19,188,73960,1,8,0:0:0:0:
102,115,74147,1,0,0:0:0:0:
117,224,74335,1,0,0:0:0:0:
216,110,74522,1,0,0:0:0:0:
228,293,74710,2,0,L|376:298,1,100.62500191927,8|0,0:0|0:0,0:0:0:0:
499,305,75085,5,0,0:0:0:0:
366,346,75272,2,0,P|352:287|377:215,1,100.62500191927,0|8,0:0|0:0,0:0:0:0:
483,138,75647,5,0,0:0:0:0:
328,296,75835,2,0,L|228:293,1,100.62500191927,0|0,0:0|0:0,0:0:0:0:
168,137,76210,1,8,0:0:0:0:
327,184,76397,1,0,0:0:0:0:
138,228,76585,6,0,P|115:293|131:354,1,100.62500191927
168,137,76960,2,0,B|179:104|179:104|163:16,1,100.62500191927,8|0,0:0|0:0,0:0:0:0:
343,4,77335,1,0,0:0:0:0:
256,72,77522,1,0,0:0:0:0:
397,162,77710,1,0,0:0:0:0:
228,57,77897,1,12,0:0:0:0:
425,85,78085,6,0,P|470:122|475:186,1,100.62500191927,0|0,0:0|0:0,0:0:0:0:
411,292,78460,1,8,0:0:0:0:
411,99,78647,1,0,0:0:0:0:
492,262,78835,5,0,0:0:0:0:
331,197,79022,1,0,0:0:0:0:
195,342,79210,2,0,L|198:241,1,100.62500191927,8|0,0:0|0:0,0:0:0:0:
283,97,79585,5,0,0:0:0:0:
361,257,79772,1,0,0:0:0:0:
220,147,79960,5,8,0:0:0:0:
404,111,80147,1,0,0:0:0:0:
205,177,80335,5,0,0:0:0:0:
306,219,80522,1,0,0:0:0:0:
377,289,80710,1,8,0:0:0:0:
479,329,80897,1,0,0:0:0:0:
401,193,81085,6,0,P|397:133|403:73,1,100.62500191927,0|0,0:0|0:0,0:0:0:0:
225,57,81460,2,0,L|342:62,1,100.62500191927,8|0,0:0|0:0,0:0:0:0:
492,71,81835,5,0,0:0:0:0:
316,131,82022,1,0,0:0:0:0:
489,141,82210,5,8,0:0:0:0:
325,61,82397,1,0,0:0:0:0:
473,218,82585,5,0,0:0:0:0:
473,218,82773,2,0,L|476:318,1,100.62500191927,0|8,0:0|0:0,0:0:0:0:
301,361,83147,1,0,0:0:0:0:
378,189,83335,1,0,0:0:0:0:
411,378,83522,1,0,0:0:0:0:
290,235,83710,5,8,0:0:0:0:
442,258,83897,1,12,0:0:0:0:
