osu file format v14

[General]
AudioFilename: kakumei.mp3
AudioLeadIn: 0
PreviewTime: 60085
Countdown: 0
SampleSet: Soft
StackLeniency: 0.7
Mode: 0
LetterboxInBreaks: 0
WidescreenStoryboard: 0

[Editor]
Bookmarks: 24099
DistanceSpacing: 1.2
BeatDivisor: 2
GridSize: 4
TimelineZoom: 1.4

[Metadata]
Title:Shikaku Kakumei
TitleUnicode:四角革命
Artist:soutaiseiriron
ArtistUnicode:相対性理論
Creator:Deppyforce
Version:Relation
Source:
Tags:theory of relativity square revolution やくしまる えつこ yakushimaru etsuko ハイファイ新書 hi-fi anatomia j-pop kayōkyoku kayokyoku mkguh kalibe fcl
BeatmapID:958093
BeatmapSetID:446062

[Difficulty]
HPDrainRate:6.6
CircleSize:2
OverallDifficulty:8.5
ApproachRate:9.1
SliderMultiplier:1
SliderTickRate:1

[Events]
//Background and Video events
0,0,"bg.jpg",0,0
//Break Periods
//Storyboard Layer 0 (Background)
//Storyboard Layer 1 (Fail)
//Storyboard Layer 2 (Pass)
//Storyboard Layer 3 (Foreground)
//Storyboard Sound Samples

[TimingPoints]
24085,375,4,2,1,40,1,0
60085,-83.3333333333333,4,2,1,50,0,1
63460,-76.9230769230769,4,2,1,50,0,1
63835,-64.5161290322581,4,2,1,50,0,1
64210,-55.5555555555556,4,2,1,50,0,1
64585,-83.3333333333333,4,2,1,50,0,1
66460,-76.9230769230769,4,2,1,50,0,1
66835,-64.5161290322581,4,2,1,50,0,1
67210,-55.5555555555556,4,2,1,50,0,1
67585,-83.3333333333333,4,2,1,50,0,1
78460,-76.9230769230769,4,2,1,50,0,1
78835,-64.5161290322581,4,2,1,50,0,1
79210,-55.5555555555556,4,2,1,50,0,1
79585,-83.3333333333333,4,2,1,50,0,1
83897,-100,4,2,1,50,0,0

[Colours]
Combo1 : 149,221,255
Combo2 : 153,204,204
Combo3 : 157,255,221
Combo4 : 222,222,188

[HitObjects]
312,201,24085,5,4,0:0:0:0:
411,215,24273,1,0,0:0:0:0:
504,175,24460,1,8,0:0:0:0:
389,14,24648,5,0,0:0:0:0:
323,96,24835,1,0,0:0:0:0:
312,201,25023,1,0,0:0:0:0:
472,78,25210,5,8,0:0:0:0:
229,139,25398,1,0,0:0:0:0:
401,316,25585,5,0,0:0:0:0:
401,316,25773,1,0,0:0:0:0:
312,201,25960,2,0,L|361:208,1,50,8|0,0:0|0:0,0:0:0:0:
259,348,26335,5,0,0:0:0:0:
259,348,26523,1,0,0:0:0:0:
170,233,26710,2,0,L|219:240,1,50,8|0,0:0|0:0,0:0:0:0:
117,380,27085,5,0,0:0:0:0:
28,265,27273,1,0,0:0:0:0:
69,110,27460,1,8,0:0:0:0:
97,380,27648,5,0,0:0:0:0:
8,265,27835,1,0,0:0:0:0:
49,110,28023,1,0,0:0:0:0:
77,380,28210,5,8,0:0:0:0:
29,110,28398,1,0,0:0:0:0:
286,218,28585,6,0,P|290:244|286:275,1,50
180,120,28960,2,0,P|176:94|180:63,1,50,8|0,0:0|0:0,0:0:0:0:
296,105,29335,5,0,0:0:0:0:
170,233,29523,1,0,0:0:0:0:
388,170,29710,1,8,0:0:0:0:
286,218,29898,1,0,0:0:0:0:
399,58,30085,6,0,P|426:64|446:76,1,50
388,170,30460,1,8,0:0:0:0:
180,120,30648,6,0,P|181:92|184:61,1,50
296,105,31023,1,0,0:0:0:0:
170,233,31210,5,8,0:0:0:0:
399,58,31398,1,0,0:0:0:0:
380,283,31585,6,0,L|386:343,1,50
286,218,31960,1,8,0:0:0:0:
283,104,32148,1,0,0:0:0:0:
241,328,32335,6,0,L|247:388,1,50
147,263,32710,1,8,0:0:0:0:
144,149,32898,1,0,0:0:0:0:
64,340,33085,6,0,P|37:347|8:347,2,50,0|0|8,0:0|0:0|0:0,0:0:0:0:
144,149,33648,2,0,P|171:142|200:142,2,50
147,263,34210,5,8,0:0:0:0:
301,69,34398,1,0,0:0:0:0:
392,299,34585,5,0,0:0:0:0:
269,281,34773,1,0,0:0:0:0:
301,69,34960,5,8,0:0:0:0:
269,281,35148,1,0,0:0:0:0:
147,263,35335,5,0,0:0:0:0:
301,69,35523,1,0,0:0:0:0:
269,281,35710,1,8,0:0:0:0:
179,51,35898,1,0,0:0:0:0:
194,356,36085,6,0,P|164:365|142:366,1,50,4|0,0:0|0:0,0:0:0:0:
346,184,36460,2,0,P|376:175|398:174,1,50,8|0,0:0|0:0,0:0:0:0:
416,178,36742,1,8,0:0:0:0:
436,188,36835,1,8,0:0:0:0:
496,331,37023,1,0,0:0:0:0:
389,291,37210,1,0,0:0:0:0:
512,92,37398,1,0,0:0:0:0:
512,92,37585,1,0,0:0:0:0:
512,92,38335,5,0,0:0:0:0:
493,79,38429,1,0,0:0:0:0:
472,71,38523,1,0,0:0:0:0:
450,66,38617,1,0,0:0:0:0:
427,66,38710,2,0,P|396:85|359:90,1,75
182,29,39085,6,0,P|199:72|198:125,1,100,4|8,0:0|0:0,0:0:0:0:
94,221,39648,1,8,0:0:0:0:
94,221,39742,1,8,0:0:0:0:
94,221,39835,1,8,0:0:0:0:
20,84,40023,2,0,L|68:97,1,50
210,148,40398,1,0,0:0:0:0:
210,148,40585,1,0,0:0:0:0:
221,171,41335,5,0,0:0:0:0:
79,120,41523,1,0,0:0:0:0:
310,103,41710,2,0,P|326:137|334:178,1,75
211,344,42085,6,0,L|211:294,1,50,4|0,0:0|0:0,0:0:0:0:
446,242,42460,2,0,L|446:292,1,50,8|0,0:0|0:0,0:0:0:0:
446,314,42742,1,8,0:0:0:0:
446,336,42835,1,8,0:0:0:0:
272,327,43023,2,0,L|272:267,1,50
494,209,43398,1,0,0:0:0:0:
494,209,43585,1,0,0:0:0:0:
179,358,44335,5,0,0:0:0:0:
157,363,44429,1,0,0:0:0:0:
134,363,44523,1,0,0:0:0:0:
112,360,44617,1,0,0:0:0:0:
90,351,44710,2,0,P|83:327|83:278,1,75
247,148,45085,5,4,0:0:0:0:
266,264,45273,1,0,0:0:0:0:
138,107,45460,2,0,P|151:81|171:59,1,50,8|0,0:0|0:0,0:0:0:0:
181,50,45742,1,8,0:0:0:0:
201,39,45835,1,8,0:0:0:0:
156,222,46023,2,0,P|130:222|98:217,1,50
303,131,46398,6,0,L|303:244,1,100,4|0,0:0|0:0,0:0:0:0:
363,49,46960,2,0,P|380:68|392:90,1,50,8|0,0:0|0:0,0:0:0:0:
384,290,47335,1,0,0:0:0:0:
486,142,47523,2,0,P|492:130|495:116,2,25,0|8|8,0:0|0:0|0:0,0:0:0:0:
392,186,47898,1,0,0:0:0:0:
165,107,48085,6,0,P|214:97|264:104,1,100,4|8,0:0|0:0,0:0:0:0:
217,220,48648,1,0,0:0:0:0:
41,109,48835,1,0,0:0:0:0:
35,323,49023,2,0,P|59:317|81:306,1,50,0|8,0:0|0:0,0:0:0:0:
25,213,49398,1,0,0:0:0:0:
210,362,49585,6,0,P|234:358|256:346,1,50
196,255,49960,1,8,0:0:0:0:
392,186,50148,2,0,P|413:234|416:282,1,100
264,139,50710,1,8,0:0:0:0:
369,52,50898,1,0,0:0:0:0:
288,277,51085,6,0,L|228:277,1,50
416,231,51460,2,0,L|416:291,1,50,8|0,0:0|0:0,0:0:0:0:
264,139,51835,1,0,0:0:0:0:
288,277,52023,1,0,0:0:0:0:
132,105,52210,1,8,0:0:0:0:
156,243,52398,1,0,0:0:0:0:
220,39,52585,6,0,P|202:20|171:2,2,50,0|0|8,0:0|0:0|0:0,0:0:0:0:
29,146,53147,2,0,P|40:169|55:188,1,50
156,243,53523,1,0,0:0:0:0:
115,349,53710,1,8,0:0:0:0:
15,295,53898,1,0,0:0:0:0:
132,105,54085,6,0,P|149:127|160:152,2,50,0|0|8,0:0|0:0|0:0,0:0:0:0:
156,243,54648,1,0,0:0:0:0:
396,258,54835,1,0,0:0:0:0:
470,150,55022,2,0,L|474:93,1,50,0|8,0:0|0:0,0:0:0:0:
408,24,55398,1,0,0:0:0:0:
396,258,55585,6,0,P|440:279|490:279,1,100,0|8,0:0|0:0,0:0:0:0:
269,230,56148,2,0,L|269:330,1,100
356,134,56710,1,8,0:0:0:0:
229,106,56898,1,0,0:0:0:0:
219,330,57085,6,0,L|268:330,2,50,0|0|8,0:0|0:0|0:0,0:0:0:0:
81,277,57648,2,0,L|79:301,1,25
81,277,57835,2,0,P|100:263|121:239,1,50
230,220,58210,1,8,0:0:0:0:
199,13,58397,6,0,P|203:63|230:107,1,100,4|0,0:0|0:0,0:0:0:0:
325,284,58960,1,8,0:0:0:0:
230,220,59148,1,0,0:0:0:0:
430,242,59335,2,0,P|435:268|435:293,1,50
433,321,59617,1,8,0:0:0:0:
420,348,59710,1,8,0:0:0:0:
325,284,59898,1,0,0:0:0:0:
471,49,60085,5,4,0:0:0:0:
430,242,60273,1,0,0:0:0:0:
230,220,60460,5,8,0:0:0:0:
477,158,60648,1,0,0:0:0:0:
180,215,60835,5,0,0:0:0:0:
451,146,61023,1,0,0:0:0:0:
129,209,61210,5,8,0:0:0:0:
425,134,61398,1,0,0:0:0:0:
79,203,61585,5,0,0:0:0:0:
399,122,61773,1,0,0:0:0:0:
83,321,61960,6,0,P|42:280|35:222,2,119.999996337891,8|0|8,0:0|0:0|0:0,0:0:0:0:
180,215,62898,1,0,0:0:0:0:
285,279,63085,6,0,P|315:282|346:277,1,59.9999981689454
451,146,63460,6,0,P|454:178|447:211,1,64.9999970245363,8|0,0:0|0:0,0:0:0:0:
178,291,63835,2,0,P|174:253|179:215,1,77.5000005912781
491,138,64210,2,0,P|492:182|482:226,1,89.9999972534181,8|0,0:0|0:0,0:0:0:0:
140,305,64585,2,0,P|135:275|135:245,1,59.9999981689454
299,177,64960,5,8,0:0:0:0:
180,215,65148,1,0,0:0:0:0:
227,36,65335,1,0,0:0:0:0:
423,135,65523,2,0,P|429:164|428:196,1,59.9999981689454
123,104,65898,1,12,0:0:0:0:
299,178,66085,6,0,P|313:207|321:240,1,59.9999981689454
89,332,66460,6,0,P|72:303|66:270,1,64.9999970245363,8|0,0:0|0:0,0:0:0:0:
331,155,66835,2,0,P|347:190|357:227,1,77.5000005912781
54,353,67210,2,0,P|32:313|26:269,1,89.9999972534181,8|0,0:0|0:0,0:0:0:0:
365,133,67585,2,0,P|379:159|388:187,1,59.9999981689454
233,82,67960,6,0,P|281:36|336:19,2,119.999996337891,8|0|8,0:0|0:0|0:0,0:0:0:0:
188,208,68898,1,0,0:0:0:0:
231,334,69085,5,0,0:0:0:0:
341,206,69273,2,0,L|341:141,1,59.9999981689454,0|8,0:0|0:0,0:0:0:0:
464,131,69648,1,0,0:0:0:0:
340,332,69835,5,0,0:0:0:0:
191,103,70023,1,0,0:0:0:0:
382,318,70210,5,8,0:0:0:0:
148,116,70398,1,0,0:0:0:0:
422,290,70585,5,0,0:0:0:0:
108,144,70773,1,0,0:0:0:0:
373,27,70960,5,8,0:0:0:0:
187,362,71147,1,0,0:0:0:0:
98,8,71335,5,0,0:0:0:0:
344,369,71522,1,8,3:0:0:0:
439,5,71710,5,8,3:0:0:0:
125,375,71897,1,0,0:0:0:0:
464,191,72085,6,0,L|464:128,1,59.9999981689454,4|0,0:0|0:0,0:0:0:0:
258,104,72460,5,8,0:0:0:0:
63,356,72648,1,0,0:0:0:0:
364,136,72835,5,0,0:0:0:0:
66,313,73022,1,0,0:0:0:0:
439,217,73210,5,8,0:0:0:0:
69,270,73397,1,0,0:0:0:0:
447,326,73585,5,0,0:0:0:0:
72,227,73772,1,0,0:0:0:0:
256,125,73960,6,0,B|271:188|271:188|271:245,2,119.999996337891,8|0|8,0:0|0:0|0:0,0:0:0:0:
140,306,74898,1,0,0:0:0:0:
362,157,75085,6,0,L|362:97,1,59.9999981689454
438,233,75460,5,8,0:0:0:0:
143,153,75648,1,0,0:0:0:0:
462,132,75835,5,0,0:0:0:0:
79,227,76023,1,0,0:0:0:0:
416,287,76210,2,0,P|432:261|438:226,1,59.9999981689454,8|0,0:0|0:0,0:0:0:0:
150,34,76585,6,0,L|143:154,1,119.999996337891,0|8,0:0|0:0,0:0:0:0:
79,227,77147,1,0,0:0:0:0:
242,272,77335,1,0,0:0:0:0:
256,104,77523,1,0,0:0:0:0:
36,83,77710,1,0,0:0:0:0:
366,40,77898,1,12,0:0:0:0:
143,153,78085,5,0,0:0:0:0:
241,227,78273,1,0,0:0:0:0:
459,96,78460,6,0,P|473:63|473:29,1,64.9999970245363,8|0,0:0|0:0,0:0:0:0:
340,301,78835,2,0,L|340:378,1,77.5000005912781
501,101,79210,2,0,P|513:58|507:13,1,89.9999972534181,8|0,0:0|0:0,0:0:0:0:
298,306,79585,2,0,L|298:366,1,59.9999981689454
173,175,79960,6,0,B|152:234|152:234|154:295,2,119.999996337891,8|0|8,0:0|0:0|0:0,0:0:0:0:
340,301,80898,1,0,0:0:0:0:
432,208,81085,5,0,0:0:0:0:
204,334,81273,1,0,0:0:0:0:
314,96,81460,1,8,0:0:0:0:
364,354,81648,1,0,0:0:0:0:
173,175,81835,5,0,0:0:0:0:
445,151,82023,1,0,0:0:0:0:
125,186,82210,5,8,0:0:0:0:
432,208,82398,1,0,0:0:0:0:
81,198,82585,5,0,0:0:0:0:
431,266,82773,2,0,P|437:236|431:207,1,59.9999981689454,0|8,0:0|0:0,0:0:0:0:
34,172,83148,5,0,0:0:0:0:
398,115,83335,1,0,0:0:0:0:
137,376,83523,1,0,0:0:0:0:
193,0,83710,5,8,0:0:0:0:
390,376,83897,1,12,0:0:0:0:
