osu file format v14

[General]
AudioFilename: kakumei.mp3
AudioLeadIn: 0
PreviewTime: 60085
Countdown: 0
SampleSet: Soft
StackLeniency: 0.7
Mode: 0
LetterboxInBreaks: 0
WidescreenStoryboard: 0

[Editor]
Bookmarks: 24099
DistanceSpacing: 1.2
BeatDivisor: 4
GridSize: 4
TimelineZoom: 1.4

[Metadata]
Title:Shikaku Kakumei
TitleUnicode:四角革命
Artist:soutaiseiriron
ArtistUnicode:相対性理論
Creator:Deppyforce
Version:Easy
Source:
Tags:theory of relativity square revolution やくしまる えつこ yakushimaru etsuko ハイファイ新書 hi-fi anatomia j-pop kayōkyoku kayokyoku mkguh kalibe fcl
BeatmapID:958155
BeatmapSetID:446062

[Difficulty]
HPDrainRate:3
CircleSize:2.9
OverallDifficulty:3
ApproachRate:3
SliderMultiplier:0.7
SliderTickRate:1

[Events]
//Background and Video events
0,0,"bg.jpg",0,0
//Break Periods
//Storyboard Layer 0 (Background)
//Storyboard Layer 1 (Fail)
//Storyboard Layer 2 (Pass)
//Storyboard Layer 3 (Foreground)
//Storyboard Sound Samples

[TimingPoints]
24085,375,4,2,1,40,1,0
24460,-100,4,2,2,30,0,0
24553,-100,4,2,1,40,0,0
27460,-100,4,2,2,30,0,0
27553,-100,4,2,1,40,0,0
36460,-100,4,2,2,30,0,0
36553,-100,4,2,1,40,0,0
36835,-100,4,2,2,30,0,0
36928,-100,4,2,1,40,0,0
39460,-100,4,2,2,30,0,0
39553,-100,4,2,1,40,0,0
39835,-100,4,2,2,30,0,0
39928,-100,4,2,1,40,0,0
42460,-100,4,2,2,30,0,0
42553,-100,4,2,1,40,0,0
42835,-100,4,2,2,30,0,0
42928,-100,4,2,1,40,0,0
45460,-100,4,2,2,30,0,0
45553,-100,4,2,1,40,0,0
45835,-100,4,2,2,30,0,0
45928,-100,4,2,1,40,0,0
49960,-100,4,2,2,30,0,0
50053,-100,4,2,1,40,0,0
52960,-100,4,2,2,30,0,0
53053,-100,4,2,1,40,0,0
55960,-100,4,2,2,30,0,0
56053,-100,4,2,1,40,0,0
60085,-100,4,2,1,50,0,1
83710,-100,4,2,2,40,0,1
83897,-100,4,2,1,50,0,0

[Colours]
Combo1 : 149,221,255
Combo2 : 157,255,221
Combo3 : 153,204,204
Combo4 : 222,222,188

[HitObjects]
7,342,24085,6,0,P|73:357|135:318,1,140,4|0,0:0|0:0,0:0:0:0:
171,247,25210,1,8,0:0:0:0:
245,286,25585,2,0,L|317:281,1,70,0|8,0:0|0:0,0:0:0:0:
390,243,26335,2,0,L|462:248,1,70,0|8,0:0|0:0,0:0:0:0:
470,164,27085,6,0,L|330:154,1,140,0|0,0:0|0:0,0:0:0:0:
257,111,28210,1,8,0:0:0:0:
183,154,28585,2,0,L|113:159,1,70,0|8,0:0|0:0,0:0:0:0:
34,130,29335,2,0,P|28:166|37:200,1,70,0|8,0:0|0:0,0:0:0:0:
106,243,30085,6,0,P|114:276|108:311,2,70,0|8|0,0:0|0:0|0:0,0:0:0:0:
113,159,31210,1,8,0:0:0:0:
183,208,31585,2,0,L|255:203,1,70,0|8,0:0|0:0,0:0:0:0:
326,162,32335,2,0,L|398:167,1,70,0|8,0:0|0:0,0:0:0:0:
380,249,33085,6,0,P|346:261|311:261,2,70,0|8|0,0:0|0:0|0:0,0:0:0:0:
463,264,34210,1,8,0:0:0:0:
478,181,34585,2,0,P|467:148|467:113,1,70,0|8,0:0|0:0,0:0:0:0:
488,31,35335,2,0,P|453:30|420:42,1,70,0|8,0:0|0:0,0:0:0:0:
382,117,36085,6,0,B|313:131|313:131|211:110,1,175,4|0,0:0|0:0,0:0:0:0:
170,36,37397,1,0,0:0:0:0:
170,36,39085,6,0,P|177:104|102:168,1,175,4|0,0:0|0:0,0:0:0:0:
20,147,40397,1,0,0:0:0:0:
20,147,42085,6,0,B|73:198|137:134|188:195,1,175,4|0,0:0|0:0,0:0:0:0:
211,269,43397,1,0,0:0:0:0:
211,269,45085,6,0,L|388:251,1,175,4|0,0:0|0:0,0:0:0:0:
447,306,46397,2,0,P|467:262|457:208,1,105,4|8,0:0|0:0,0:0:0:0:
383,166,47335,2,0,P|372:133|372:95,1,70,0|8,0:0|0:0,0:0:0:0:
408,22,48085,6,0,P|373:15|338:21,1,70,4|8,0:0|0:0,0:0:0:0:
274,73,48835,2,0,B|240:80|240:80|203:73,1,70,0|8,0:0|0:0,0:0:0:0:
139,21,49585,2,0,P|88:21|44:57,2,105,0|0|8,0:0|0:0|0:0,0:0:0:0:
114,101,51085,6,0,L|115:170,1,70,0|8,0:0|0:0,0:0:0:0:
83,252,51835,2,0,P|117:258|152:250,1,70,0|8,0:0|0:0,0:0:0:0:
199,181,52585,2,0,B|268:172|268:172|300:186,2,105,0|0|8,0:0|0:0|0:0,0:0:0:0:
151,250,54085,6,0,P|145:285|155:321,1,70,0|8,0:0|0:0,0:0:0:0:
232,281,54836,2,0,L|301:280,1,70,0|8,0:0|0:0,0:0:0:0:
383,248,55585,2,0,P|387:299|361:345,2,105,0|0|8,0:0|0:0|0:0,0:0:0:0:
316,196,57085,6,0,P|306:162|311:128,1,70,0|8,0:0|0:0,0:0:0:0:
364,63,57835,1,0,0:0:0:0:
475,123,58397,2,0,P|484:174|461:223,1,105,4|8,0:0|0:0,0:0:0:0:
383,248,59335,1,0,0:0:0:0:
316,196,59710,1,8,0:0:0:0:
235,223,60085,5,4,0:0:0:0:
213,305,60460,2,0,L|220:374,2,70,8|0|8,0:0|0:0|0:0,0:0:0:0:
154,244,61585,2,0,L|147:175,1,70,0|8,0:0|0:0,0:0:0:0:
86,115,62335,2,0,P|119:94|152:90,1,70,0|8,0:0|0:0,0:0:0:0:
221,136,63085,5,0,0:0:0:0:
267,66,63460,2,0,P|300:87|332:89,2,70,8|0|8,0:0|0:0|0:0,0:0:0:0:
324,6,64585,1,0,0:0:0:0:
400,41,64960,2,0,P|415:91|396:144,1,105,8|0,0:0|0:0,0:0:0:0:
322,173,65897,6,0,L|316:283,1,105,12|8,0:0|0:0,0:0:0:0:
232,270,66835,2,0,L|235:196,1,70,0|8,0:0|0:0,0:0:0:0:
168,149,67585,1,0,0:0:0:0:
101,199,67960,2,0,P|66:203|33:193,2,70,8|0|8,0:0|0:0|0:0,0:0:0:0:
73,119,69085,6,0,L|73:48,1,70,0|8,0:0|0:0,0:0:0:0:
156,48,69835,2,0,L|156:118,1,70,0|8,0:0|0:0,0:0:0:0:
239,117,70585,2,0,L|239:47,2,70,0|8|0,0:0|0:0|0:0,0:0:0:0:
198,190,71710,1,8,3:0:0:0:
156,118,72085,5,4,0:0:0:0:
115,191,72460,2,0,P|86:165|74:132,2,70,8|0|8,0:0|0:0|0:0,0:0:0:0:
197,189,73585,2,0,P|191:224|171:252,2,70,0|8|0,0:0|0:0|0:0,0:0:0:0:
239,117,74710,1,8,0:0:0:0:
304,171,75085,5,0,0:0:0:0:
386,191,75460,2,0,L|456:183,2,70,8|0|8,0:0|0:0|0:0,0:0:0:0:
398,274,76585,1,0,0:0:0:0:
378,356,76960,2,0,P|327:370|275:370,1,105,8|0,0:0|0:0,0:0:0:0:
205,324,77897,6,0,B|136:338|136:338|103:324,1,105,12|8,0:0|0:0,0:0:0:0:
59,253,78835,2,0,L|56:183,1,70,0|8,0:0|0:0,0:0:0:0:
110,119,79585,1,0,0:0:0:0:
164,183,79960,2,0,P|169:217|161:256,2,70,8|0|8,0:0|0:0|0:0,0:0:0:0:
218,119,81085,6,0,P|252:107|288:107,1,70,0|8,0:0|0:0,0:0:0:0:
359,146,81835,2,0,P|393:158|429:158,1,70,0|8,0:0|0:0,0:0:0:0:
504,126,82585,2,0,L|500:56,1,70,0|8,0:0|0:0,0:0:0:0:
428,12,83335,2,0,P|376:12|330:35,1,105,0|12,0:0|0:0,0:0:0:0:
