osu file format v14

[General]
AudioFilename: kakumei.mp3
AudioLeadIn: 0
PreviewTime: 60085
Countdown: 0
SampleSet: Soft
StackLeniency: 0.4
Mode: 0
LetterboxInBreaks: 0
WidescreenStoryboard: 0

[Editor]
Bookmarks: 24099
DistanceSpacing: 1.3
BeatDivisor: 4
GridSize: 8
TimelineZoom: 1.4

[Metadata]
Title:Shikaku Kakumei
TitleUnicode:四角革命
Artist:soutaiseiriron
ArtistUnicode:相対性理論
Creator:Deppyforce
Version:Advanced
Source:
Tags:theory of relativity square revolution やくしまる えつこ yakushimaru etsuko ハイファイ新書 hi-fi anatomia j-pop kayōkyoku kayokyoku mkguh kalibe fcl
BeatmapID:962236
BeatmapSetID:446062

[Difficulty]
HPDrainRate:5
CircleSize:4.3
OverallDifficulty:5
ApproachRate:6.5
SliderMultiplier:1.2
SliderTickRate:1

[Events]
//Background and Video events
0,0,"bg.jpg",0,0
//Break Periods
//Storyboard Layer 0 (Background)
//Storyboard Layer 1 (Fail)
//Storyboard Layer 2 (Pass)
//Storyboard Layer 3 (Foreground)
//Storyboard Sound Samples

[TimingPoints]
24085,375,4,2,1,40,1,0
60085,-90.9090909090909,4,2,1,50,0,1
83897,-100,4,2,1,50,0,0

[Colours]
Combo1 : 149,221,255
Combo2 : 153,204,204
Combo3 : 157,255,221
Combo4 : 222,222,188

[HitObjects]
17,138,24085,6,0,P|5:198|36:247,1,120,4|8,0:0|0:0,0:0:0:0:
81,183,24647,1,0,0:0:0:0:
145,228,24835,2,0,P|158:198|158:170,2,60,0|0|8,0:0|0:0|0:0,0:0:0:0:
100,292,25397,1,0,0:0:0:0:
164,337,25585,6,0,B|223:324|223:324|285:332,1,120,0|8,0:0|0:0,0:0:0:0:
323,265,26147,2,0,B|382:278|382:278|444:270,1,120,0|0,0:0|0:0,0:0:0:0:
482,203,26710,1,8,0:0:0:0:
482,203,27085,5,0,0:0:0:0:
441,135,27272,1,0,0:0:0:0:
482,68,27460,2,0,P|423:58|376:91,1,120,8|0,0:0|0:0,0:0:0:0:
369,168,28022,2,0,P|320:201|263:190,1,120,0|0,0:0|0:0,0:0:0:0:
304,125,28585,6,0,L|331:248,1,120,0|8,0:0|0:0,0:0:0:0:
397,280,29147,1,0,0:0:0:0:
435,212,29335,2,0,P|464:212|494:221,2,60,0|0|8,0:0|0:0|0:0,0:0:0:0:
327,325,30085,6,0,P|278:358|221:347,1,120,0|8,0:0|0:0,0:0:0:0:
183,279,30647,1,0,0:0:0:0:
115,317,30835,2,0,P|86:324|53:319,1,60,0|0,0:0|0:0,0:0:0:0:
81,247,31210,2,0,P|83:217|77:187,1,60,8|0,0:0|0:0,0:0:0:0:
51,113,31585,6,0,B|112:119|112:119|170:103,1,120,0|8,0:0|0:0,0:0:0:0:
233,148,32147,2,0,B|291:132|291:132|351:137,1,120,0|0,0:0|0:0,0:0:0:0:
415,93,32710,1,8,0:0:0:0:
415,93,33085,5,0,0:0:0:0:
420,171,33272,1,0,0:0:0:0:
425,249,33460,2,0,P|366:249|315:281,1,120,8|0,0:0|0:0,0:0:0:0:
273,346,34022,2,0,P|222:314|163:314,1,120
90,346,34585,6,0,L|43:235,1,120,0|8,0:0|0:0,0:0:0:0:
116,203,35147,1,0,0:0:0:0:
184,240,35335,2,0,P|213:234|240:217,2,60,0|0|8,0:0|0:0|0:0,0:0:0:0:
183,161,35897,1,0,0:0:0:0:
182,82,36085,6,0,B|123:94|123:94|63:86,2,120,4|8|8,0:0|0:0|0:0,0:0:0:0:
239,29,37022,1,0,0:0:0:0:
239,29,37397,1,0,0:0:0:0:
414,105,38335,2,0,L|414:43,2,60
417,108,39085,6,0,B|358:120|358:120|298:112,2,120,4|8|8,0:0|0:0|0:0,0:0:0:0:
465,172,40022,1,0,0:0:0:0:
465,172,40397,1,0,0:0:0:0:
315,296,41335,2,0,L|315:236,1,60
260,180,41710,1,0,0:0:0:0:
260,180,42085,6,0,B|201:168|201:168|141:176,2,120,4|8|8,0:0|0:0|0:0,0:0:0:0:
299,113,43022,1,0,0:0:0:0:
299,113,43397,1,0,0:0:0:0:
444,250,44335,2,0,L|444:312,2,60
447,253,45085,6,0,B|388:241|388:241|328:249,2,120,4|8|8,0:0|0:0|0:0,0:0:0:0:
465,172,46022,1,0,0:0:0:0:
465,172,46397,6,0,P|435:123|435:62,1,120,4|0,0:0|0:0,0:0:0:0:
494,11,46960,2,0,L|375:11,1,120,8|0,0:0|0:0,0:0:0:0:
315,62,47522,2,0,P|309:91|314:123,1,60,0|8,0:0|0:0,0:0:0:0:
354,187,47897,1,0,0:0:0:0:
303,247,48085,6,0,P|245:266|188:253,1,120,4|8,0:0|0:0,0:0:0:0:
188,253,48835,1,0,0:0:0:0:
113,273,49022,2,0,L|107:154,1,120,0|0,0:0|0:0,0:0:0:0:
44,106,49585,6,0,P|103:119|156:97,1,120,0|8,0:0|0:0,0:0:0:0:
206,37,50147,2,0,P|250:77|307:85,1,120,0|0,0:0|0:0,0:0:0:0:
380,58,50710,1,8,0:0:0:0:
380,58,51085,5,0,0:0:0:0:
368,135,51272,1,0,0:0:0:0:
356,212,51460,2,0,P|306:183|291:126,1,120,8|0,0:0|0:0,0:0:0:0:
368,135,52022,1,0,0:0:0:0:
445,145,52210,2,0,L|435:222,1,60,8|0,0:0|0:0,0:0:0:0:
403,275,52585,6,0,L|413:352,1,60,0|0,0:0|0:0,0:0:0:0:
346,379,52960,1,8,0:0:0:0:
277,343,53147,2,0,P|221:358|161:342,1,120,0|0,0:0|0:0,0:0:0:0:
115,279,53710,1,8,0:0:0:0:
115,279,54085,5,0,0:0:0:0:
142,206,54272,1,0,0:0:0:0:
95,143,54460,2,0,P|82:105|82:76,1,60,8|0,0:0|0:0,0:0:0:0:
20,33,54835,2,0,P|72:6|129:23,1,120,0|8,0:0|0:0,0:0:0:0:
157,97,55397,1,0,0:0:0:0:
232,68,55585,6,0,B|291:79|291:79|351:68,1,120,0|8,0:0|0:0,0:0:0:0:
370,143,56147,2,0,B|311:158|311:158|263:193,1,120,0|0,0:0|0:0,0:0:0:0:
256,271,56710,1,8,0:0:0:0:
256,271,57085,5,0,0:0:0:0:
192,226,57272,1,0,0:0:0:0:
185,303,57460,2,0,P|231:345|287:343,1,120,8|0,0:0|0:0,0:0:0:0:
333,281,58022,1,0,0:0:0:0:
405,310,58210,1,8,0:0:0:0:
453,248,58397,6,0,L|460:129,1,120,4|0,0:0|0:0,0:0:0:0:
508,66,58960,1,8,0:0:0:0:
508,66,59335,1,0,0:0:0:0:
446,18,59522,2,0,L|444:-11,2,30,0|8|8,0:0|0:0|0:0,0:0:0:0:
398,80,59897,1,0,0:0:0:0:
320,43,60085,6,0,P|288:53|256:53,1,66.0000020141602,4|0,0:0|0:0,0:0:0:0:
178,16,60460,1,8,0:0:0:0:
178,16,60647,1,0,0:0:0:0:
119,75,60835,2,0,P|109:106|109:139,1,66.0000020141602,0|0,0:0|0:0,0:0:0:0:
145,217,61210,1,8,0:0:0:0:
145,217,61397,1,0,0:0:0:0:
216,169,61585,6,0,P|247:159|280:159,1,66.0000020141602,0|0,0:0|0:0,0:0:0:0:
357,196,61960,2,0,P|381:254|366:319,2,132.00000402832,8|0|8,0:0|0:0|0:0,0:0:0:0:
351,110,62897,1,0,0:0:0:0:
209,207,63272,5,0,0:0:0:0:
209,207,63460,2,0,P|178:217|145:217,1,66.0000020141602,8|0,0:0|0:0,0:0:0:0:
72,263,63835,2,0,P|62:232|62:199,1,66.0000020141602,0|0,0:0|0:0,0:0:0:0:
16,126,64210,2,0,P|47:116|80:116,1,66.0000020141602,8|0,0:0|0:0,0:0:0:0:
153,70,64585,6,0,P|184:80|217:80,1,66.0000020141602
295,45,64960,2,0,P|358:25|417:55,1,132.00000402832,8|0,0:0|0:0,0:0:0:0:
484,2,65522,1,0,0:0:0:0:
351,110,65897,6,0,B|336:175|336:175|353:244,1,132.00000402832,12|0,0:0|0:0,0:0:0:0:
432,268,66460,2,0,P|413:296|385:316,1,66.0000020141602,8|0,0:0|0:0,0:0:0:0:
303,308,66835,2,0,P|280:282|268:250,1,66.0000020141602,0|0,0:0|0:0,0:0:0:0:
183,250,67210,2,0,P|170:280|149:305,1,66.0000020141602,8|0,0:0|0:0,0:0:0:0:
65,312,67585,6,0,P|38:292|20:265,1,66.0000020141602,0|0,0:0|0:0,0:0:0:0:
101,236,67960,2,0,L|101:103,2,132.00000402832,8|0|8,0:0|0:0|0:0,0:0:0:0:
149,305,68897,1,0,0:0:0:0:
148,305,69272,6,0,P|169:280|183:250,1,66.0000020141602,0|8,0:0|0:0,0:0:0:0:
196,167,69648,1,0,0:0:0:0:
263,219,69835,1,0,0:0:0:0:
263,219,70022,1,0,0:0:0:0:
275,135,70210,2,0,P|307:140|340:137,1,66.0000020141602,8|0,0:0|0:0,0:0:0:0:
418,106,70586,5,0,0:0:0:0:
418,106,70772,1,0,0:0:0:0:
407,191,70960,2,0,P|418:221|437:248,1,66.0000020141602,8|0,0:0|0:0,0:0:0:0:
505,301,71336,1,0,0:0:0:0:
451,366,71522,1,8,3:0:0:0:
385,314,71710,1,8,3:0:0:0:
437,248,71897,1,0,0:0:0:0:
385,314,72085,6,0,P|323:338|259:338,1,132.00000402832,4|8,0:0|0:0,0:0:0:0:
187,289,72647,1,0,0:0:0:0:
139,360,72835,1,0,0:0:0:0:
139,360,73022,1,0,0:0:0:0:
64,316,73210,2,0,L|46:252,1,66.0000020141602,8|0,0:0|0:0,0:0:0:0:
85,175,73585,5,0,0:0:0:0:
85,175,73772,1,0,0:0:0:0:
164,207,73960,2,0,B|212:175|244:231|292:199,2,132.00000402832,8|0|8,0:0|0:0|0:0,0:0:0:0:
153,122,74897,1,0,0:0:0:0:
153,122,75272,5,0,0:0:0:0:
215,63,75460,2,0,P|234:89|238:123,1,66.0000020141602,8|0,0:0|0:0,0:0:0:0:
324,121,75835,2,0,P|327:88|347:62,1,66.0000020141602,0|0,0:0|0:0,0:0:0:0:
427,35,76210,1,8,0:0:0:0:
490,92,76397,1,0,0:0:0:0:
409,121,76585,6,0,L|409:253,1,132.00000402832,0|8,0:0|0:0,0:0:0:0:
452,327,77147,1,0,0:0:0:0:
452,327,77335,2,0,P|391:338|335:301,1,132.00000402832,0|0,0:0|0:0,0:0:0:0:
288,229,77897,6,0,B|223:240|223:240|158:228,1,132.00000402832,12|0,0:0|0:0,0:0:0:0:
93,171,78460,2,0,P|85:139|90:105,1,66.0000020141602,8|0,0:0|0:0,0:0:0:0:
148,40,78835,2,0,P|179:32|213:37,1,66.0000020141602,0|0,0:0|0:0,0:0:0:0:
280,94,79210,2,0,P|287:125|282:159,1,66.0000020141602,8|0,0:0|0:0,0:0:0:0:
223,226,79585,6,0,P|191:233|157:228,1,66.0000020141602,0|0,0:0|0:0,0:0:0:0:
93,171,79960,2,0,L|112:304,2,132.00000402832,8|0|8,0:0|0:0|0:0,0:0:0:0:
171,136,80897,1,0,0:0:0:0:
171,136,81272,5,0,0:0:0:0:
235,192,81460,1,8,0:0:0:0:
313,157,81647,1,0,0:0:0:0:
377,213,81835,2,0,P|392:242|418:261,1,66.0000020141602
458,185,82210,2,0,P|474:154|474:118,1,66.0000020141602,8|0,0:0|0:0,0:0:0:0:
424,53,82585,6,0,P|453:38|485:36,2,66.0000020141602,0|0|8,0:0|0:0|0:0,0:0:0:0:
376,136,83147,1,0,0:0:0:0:
296,103,83335,1,0,0:0:0:0:
296,103,83522,1,0,0:0:0:0:
240,168,83710,1,8,0:0:0:0:
278,247,83897,5,8,0:0:0:0:
