osu file format v14

[General]
AudioFilename: audio.mp3
AudioLeadIn: 0
PreviewTime: 60085
Countdown: 0
SampleSet: Soft
StackLeniency: 0.7
Mode: 2
LetterboxInBreaks: 0
WidescreenStoryboard: 1

[Editor]
Bookmarks: 36085
DistanceSpacing: 1.2
BeatDivisor: 4
GridSize: 4
TimelineZoom: 1

[Metadata]
Title:Shikaku Kakumei (Cut Ver.)
TitleUnicode:四角革命 (Cut Ver.)
Artist:soutaiseiriron
ArtistUnicode:相対性理論
Creator:Chatie
Version:Rain
Source:
Tags:Japanese Pop Jpop やくしまる えつこ yakushimaru etsuko ハイファイ新書 hi-fi anatomia kayōkyoku kayokyoku みらいレコーズ theory of relativity MIRAI Records -Joakh
BeatmapID:3007353
BeatmapSetID:1464135

[Difficulty]
HPDrainRate:5
CircleSize:4
OverallDifficulty:8.8
ApproachRate:8.8
SliderMultiplier:1.8
SliderTickRate:1

[Events]
//Background and Video events
0,0,"kat-tsai-2-24-20-no1.jpg",0,0
//Break Periods
//Storyboard Layer 0 (Background)
//Storyboard Layer 1 (Fail)
//Storyboard Layer 2 (Pass)
//Storyboard Layer 3 (Foreground)
//Storyboard Layer 4 (Overlay)
//Storyboard Sound Samples

[TimingPoints]
24085,375,4,2,1,30,1,0
36085,-100,4,2,1,35,0,0
60085,-100,4,2,1,50,0,1
84085,-100,4,2,1,20,0,0
85585,-100,4,2,1,5,0,0

[Colours]
Combo1 : 0,87,130
Combo2 : 255,150,45
Combo3 : 81,168,255
Combo4 : 60,255,157

[HitObjects]
132,203,24085,6,0,L|132:101,1,90,4|0,3:2|3:0,0:0:0:0:
313,96,24460,1,10,0:0:0:0:
403,96,24647,1,0,0:0:0:0:
222,143,24835,2,0,L|222:46,1,90,2|0,0:0|3:0,0:0:0:0:
312,50,25210,1,10,0:0:0:0:
222,53,25397,1,0,3:0:0:0:
403,76,25585,6,0,L|306:76,1,90,2|0,0:0|3:0,0:0:0:0:
403,76,25960,1,10,0:0:0:0:
151,76,26147,1,0,0:0:0:0:
61,75,26335,1,2,3:2:0:0:
151,76,26522,1,0,3:0:0:0:
332,84,26710,2,0,L|243:84,1,90,10|0,0:0|3:0,0:0:0:0:
496,148,27085,6,0,L|496:29,1,90,2|0,3:2|3:0,0:0:0:0:
243,65,27460,1,10,0:0:0:0:
153,63,27647,1,0,0:0:0:0:
333,90,27835,2,0,L|424:90,1,90,2|0,3:2|3:0,0:0:0:0:
333,90,28210,1,10,0:0:0:0:
423,90,28397,1,0,3:0:0:0:
170,118,28585,6,0,L|170:15,1,90,2|0,3:2|3:0,0:0:0:0:
260,28,28960,1,10,0:0:0:0:
170,28,29147,1,0,3:0:0:0:
423,90,29335,2,0,L|303:90,1,90,2|0,3:2|3:0,0:0:0:0:
80,84,29710,2,0,L|190:84,1,90,10|0,0:0|3:0,0:0:0:0:
423,180,30085,6,0,L|423:60,1,90,2|0,3:2|3:0,0:0:0:0:
241,78,30460,1,10,0:0:0:0:
331,76,30647,1,0,0:0:0:0:
150,87,30835,2,0,L|36:87,1,90,2|0,0:0|3:0,0:0:0:0:
150,87,31210,1,10,0:0:0:0:
60,87,31397,1,0,3:0:0:0:
242,152,31585,6,0,L|242:36,1,90,2|0,0:0|3:0,0:0:0:0:
152,69,31960,1,10,0:0:0:0:
404,66,32147,1,0,0:0:0:0:
494,67,32335,1,2,3:2:0:0:
404,66,32522,1,0,3:0:0:0:
223,72,32710,2,0,L|318:72,1,90,10|0,0:0|0:0,0:0:0:0:
60,120,33085,6,0,L|145:57,1,90,2|0,3:2|3:0,0:0:0:0:
385,51,33460,1,10,0:0:0:0:
295,48,33647,1,0,0:0:0:0:
112,150,33835,2,0,L|112:45,1,90,2|0,0:0|3:0,0:0:0:0:
203,64,34210,1,10,0:0:0:0:
112,60,34397,1,0,3:0:0:0:
294,78,34585,6,0,L|294:185,1,90,2|0,3:2|3:0,0:0:0:0:
204,164,34960,1,10,0:0:0:0:
294,168,35147,1,0,0:0:0:0:
41,158,35335,2,0,L|150:158,1,90,2|0,3:2|3:0,0:0:0:0:
384,152,35710,2,0,L|384:267,1,90,10|0,0:0|0:0,0:0:0:0:
131,168,36085,6,0,L|19:168,2,90,14|0|10,3:2|0:0|0:0,0:0:0:0:
311,159,36647,1,0,3:0:0:0:
266,158,36741,1,8,0:0:0:0:
221,154,36835,1,8,0:0:0:0:
401,161,37022,1,0,3:0:0:0:
311,159,37210,1,2,0:0:0:0:
60,154,37397,1,8,3:2:0:0:
241,200,37585,6,0,P|296:130|224:120,1,180,0|0,0:0|0:0,0:0:0:0:
151,72,38147,1,0,0:0:0:0:
332,70,38335,1,2,0:0:0:0:
377,70,38428,1,0,0:0:0:0:
377,70,38522,1,0,0:0:0:0:
332,70,38616,1,0,0:0:0:0:
205,176,38710,2,0,P|166:98|202:58,1,135,2|0,0:0|0:0,0:0:0:0:
377,70,39085,6,0,L|473:70,2,90,12|0|8,3:2|3:0|0:0,0:0:0:0:
197,65,39647,1,0,3:0:0:0:
242,67,39741,1,8,0:0:0:0:
287,68,39835,1,8,0:0:0:0:
107,67,40022,1,0,3:0:0:0:
197,65,40210,1,2,0:0:0:0:
448,67,40397,1,8,3:2:0:0:
267,76,40585,6,0,L|167:76,2,90,0|0|0,0:0|0:0|0:0,0:0:0:0:
447,76,41147,2,0,L|327:76,1,90,0|2,0:0|0:0,0:0:0:0:
267,74,41522,1,2,0:0:0:0:
14,72,41710,1,2,0:0:0:0:
149,71,41991,1,0,0:0:0:0:
307,74,42085,6,0,L|418:74,2,90,12|0|10,3:2|0:0|0:0,0:0:0:0:
127,76,42647,1,0,3:0:0:0:
172,79,42741,1,8,0:0:0:0:
217,78,42835,1,8,0:0:0:0:
397,81,43022,1,0,3:0:0:0:
307,82,43210,1,2,0:0:0:0:
56,84,43397,1,8,3:2:0:0:
237,83,43585,6,0,L|337:84,2,90,0|0|0,0:0|0:0|0:0,0:0:0:0:
147,79,44147,1,0,0:0:0:0:
328,74,44335,1,2,0:0:0:0:
373,74,44428,1,0,0:0:0:0:
373,74,44522,1,0,0:0:0:0:
328,74,44616,1,0,0:0:0:0:
201,193,44710,2,0,P|172:112|212:75,1,135,2|0,0:0|0:0,0:0:0:0:
388,98,45085,6,0,L|493:98,2,90,12|0|8,3:2|3:0|0:0,0:0:0:0:
208,107,45647,2,0,L|148:107,2,45,0|8|8,3:0|0:0|0:0,0:0:0:0:
389,104,46022,1,0,3:0:0:0:
389,104,46210,1,2,0:0:0:0:
138,244,46397,6,0,P|90:159|152:108,1,180,8|0,3:2|3:0,0:0:0:0:
319,102,46960,1,10,3:2:0:0:
228,101,47147,1,0,0:0:0:0:
481,159,47335,2,0,L|481:65,1,90,0|0,3:0|3:0,0:0:0:0:
436,69,47616,1,8,0:0:0:0:
278,70,47710,2,0,L|163:70,1,90,8|0,0:0|3:0,0:0:0:0:
441,153,48085,6,0,L|441:56,1,90,6|0,3:2|0:0,0:0:0:0:
260,78,48460,1,10,0:0:0:0:
350,82,48647,1,0,0:0:0:0:
169,89,48835,2,0,L|61:88,2,90,2|0|10,3:2|3:0|0:0,0:0:0:0:
259,91,49397,1,0,3:0:0:0:
78,181,49585,6,0,L|3:121,2,90,2|0|10,0:0|3:0|0:0,0:0:0:0:
329,267,50147,2,0,P|376:187|313:126,1,180,0|0,0:0|3:0,0:0:0:0:
146,120,50710,1,10,0:0:0:0:
236,113,50897,1,0,0:0:0:0:
146,120,51085,6,0,L|42:120,1,90,2|0,3:2|0:0,0:0:0:0:
237,113,51460,1,10,0:0:0:0:
147,109,51647,1,0,0:0:0:0:
326,110,51835,2,0,L|423:110,2,90,2|0|10,3:2|3:0|0:0,0:0:0:0:
416,110,52397,1,0,3:0:0:0:
162,129,52585,6,0,L|63:128,2,90,2|0|10,0:0|3:0|0:0,0:0:0:0:
72,128,53147,1,0,0:0:0:0:
325,118,53335,2,0,L|429:118,1,90,2|0,0:0|3:0,0:0:0:0:
162,129,53710,2,0,L|46:129,1,90,10|0,0:0|0:0,0:0:0:0:
325,205,54085,6,0,P|379:137|302:106,1,180,2|10,3:2|0:0,0:0:0:0:
228,108,54647,1,0,3:0:0:0:
409,121,54835,2,0,L|502:121,2,90,2|0|10,3:2|3:0|0:0,0:0:0:0:
319,122,55397,1,0,3:0:0:0:
66,231,55585,6,0,P|34:127|86:87,1,180,2|10,0:0|0:0,0:0:0:0:
258,89,56147,2,0,L|73:89,1,180,0|0,3:0|3:0,0:0:0:0:
258,179,56710,2,0,L|258:65,1,90,10|0,0:0|0:0,0:0:0:0:
168,108,57085,6,0,L|66:108,1,90,2|0,3:2|3:0,0:0:0:0:
258,104,57460,1,10,0:0:0:0:
258,108,57647,1,0,3:0:0:0:
77,102,57835,2,0,L|182:102,1,90,2|0,3:2|3:0,0:0:0:0:
77,102,58210,1,10,0:0:0:0:
328,91,58397,1,12,3:2:0:0:
147,91,58585,6,0,L|41:90,2,90,0|0|10,0:0|3:0|0:0,0:0:0:0:
237,95,59147,1,0,0:0:0:0:
147,91,59335,1,8,3:0:0:0:
327,107,59522,2,0,L|392:107,2,45,0|8|8,3:0|0:0|0:0,0:0:0:0:
146,105,59897,1,8,3:0:0:0:
399,106,60085,5,6,3:2:0:0:
309,92,60272,1,0,0:0:0:0:
56,88,60460,2,0,L|148:88,1,90,8|2,0:0|0:0,0:0:0:0:
399,196,60835,2,0,L|399:84,1,90,0|2,3:0|0:0,0:0:0:0:
146,195,61210,2,0,L|45:194,1,90,8|2,0:0|0:0,0:0:0:0:
309,196,61585,6,0,L|407:196,2,90,0|2|8,3:0|0:0|0:0,0:0:0:0:
219,193,62147,1,2,0:0:0:0:
472,190,62335,2,0,L|376:190,1,90,0|2,3:0|0:0,0:0:0:0:
472,190,62710,1,8,0:0:0:0:
221,191,62897,1,2,0:0:0:0:
131,194,63085,5,0,3:0:0:0:
311,191,63272,1,2,0:0:0:0:
58,100,63460,2,0,L|164:100,1,90,8|2,0:0|0:0,0:0:0:0:
401,108,63835,2,0,L|287:109,1,90,0|2,3:0|0:0,0:0:0:0:
58,190,64210,2,0,L|58:79,1,90,8|2,0:0|0:0,0:0:0:0:
311,108,64585,6,0,L|426:108,2,90,0|2|8,3:0|0:0|0:0,0:0:0:0:
221,111,65147,1,2,0:0:0:0:
474,197,65335,2,0,L|474:99,1,90,0|2,3:0|0:0,0:0:0:0:
384,104,65710,1,8,0:0:0:0:
133,98,65897,1,14,0:0:0:0:
223,94,66085,5,0,3:0:0:0:
43,93,66272,1,2,0:0:0:0:
296,86,66460,2,0,L|407:86,1,90,8|2,0:0|0:0,0:0:0:0:
133,98,66835,2,0,L|22:98,1,90,0|2,3:0|0:0,0:0:0:0:
296,86,67210,2,0,L|398:86,1,90,8|2,0:0|0:0,0:0:0:0:
133,98,67585,6,0,L|22:98,2,90,0|2|8,3:0|0:0|0:0,0:0:0:0:
223,99,68147,1,2,0:0:0:0:
476,169,68335,2,0,L|476:64,1,90,0|2,3:0|0:0,0:0:0:0:
295,77,68710,1,8,0:0:0:0:
205,79,68897,1,2,0:0:0:0:
295,77,69085,5,0,3:0:0:0:
44,211,69272,2,0,P|26:125|95:82,1,180,2|2,0:0|0:0,0:0:0:0:
349,158,69835,2,0,L|270:101,1,90,0|2,3:0|0:0,0:0:0:0:
23,148,70210,2,0,L|23:46,1,90,8|2,0:0|0:0,0:0:0:0:
277,62,70585,6,0,L|384:62,2,90,0|2|8,3:0|0:0|0:0,0:0:0:0:
367,62,71147,1,2,0:0:0:0:
186,68,71335,2,0,L|185:184,1,90,0|8,3:0|3:0,0:0:0:0:
367,62,71710,1,8,0:0:0:0:
116,74,71897,1,2,0:0:0:0:
368,62,72085,5,6,3:2:0:0:
188,73,72272,1,0,0:0:0:0:
441,60,72460,2,0,L|341:60,1,90,8|2,0:0|0:0,0:0:0:0:
98,87,72835,2,0,L|190:87,1,90,0|2,3:0|0:0,0:0:0:0:
441,171,73210,2,0,L|441:74,1,90,8|2,0:0|0:0,0:0:0:0:
188,117,73585,6,0,L|74:117,2,90,0|2|8,3:0|0:0|0:0,0:0:0:0:
278,115,74147,1,2,0:0:0:0:
25,222,74335,2,0,L|122:222,1,90,0|2,3:0|0:0,0:0:0:0:
25,222,74710,1,8,0:0:0:0:
276,226,74897,1,2,0:0:0:0:
276,226,75085,5,0,3:0:0:0:
96,226,75272,1,2,0:0:0:0:
349,218,75460,2,0,L|460:218,1,90,8|2,0:0|0:0,0:0:0:0:
186,226,75835,2,0,L|284:226,1,90,0|2,3:0|0:0,0:0:0:0:
23,233,76210,2,0,L|23:134,1,90,8|2,0:0|0:0,0:0:0:0:
276,132,76585,6,0,L|395:131,2,90,0|2|8,3:0|0:0|0:0,0:0:0:0:
186,132,77147,1,2,0:0:0:0:
439,180,77335,2,0,L|334:180,1,90,0|2,3:0|0:0,0:0:0:0:
439,180,77710,1,0,3:0:0:0:
187,182,77897,1,12,3:2:0:0:
187,182,78085,5,0,3:0:0:0:
367,179,78272,1,2,0:0:0:0:
114,215,78460,2,0,L|114:97,1,90,8|2,0:0|0:0,0:0:0:0:
367,269,78835,2,0,L|367:158,1,90,0|2,3:0|0:0,0:0:0:0:
114,215,79210,2,0,L|114:115,1,90,8|2,0:0|0:0,0:0:0:0:
367,120,79585,6,0,L|248:119,2,90,0|2|8,3:0|0:0|0:0,0:0:0:0:
457,121,80147,1,2,0:0:0:0:
204,153,80335,2,0,L|204:60,1,90,0|2,3:0|0:0,0:0:0:0:
294,63,80710,1,8,0:0:0:0:
42,62,80897,1,2,0:0:0:0:
42,62,81085,5,0,3:0:0:0:
222,60,81272,1,2,0:0:0:0:
475,158,81460,2,0,L|363:158,1,90,8|2,0:0|0:0,0:0:0:0:
132,160,81835,2,0,L|244:160,1,90,0|2,3:0|0:0,0:0:0:0:
475,158,82210,2,0,L|363:158,1,90,8|2,0:0|0:0,0:0:0:0:
132,160,82585,6,0,L|241:160,2,90,0|2|8,3:0|0:0|0:0,0:0:0:0:
42,158,83147,1,2,0:0:0:0:
295,152,83335,2,0,L|194:152,1,90,0|2,3:0|0:0,0:0:0:0:
386,147,83710,1,8,0:0:0:0:
134,139,83897,5,8,0:0:0:0:
256,192,84085,12,0,85585,0:0:0:0:
