osu file format v14

[General]
AudioFilename: audio.mp3
AudioLeadIn: 0
PreviewTime: 60085
Countdown: 0
SampleSet: Soft
StackLeniency: 0.7
Mode: 2
LetterboxInBreaks: 0
WidescreenStoryboard: 1

[Editor]
Bookmarks: 36085
DistanceSpacing: 1.2
BeatDivisor: 4
GridSize: 4
TimelineZoom: 1

[Metadata]
Title:Shikaku Kakumei (Cut Ver.)
TitleUnicode:四角革命 (Cut Ver.)
Artist:soutaiseiriron
ArtistUnicode:相対性理論
Creator:Chatie
Version:Platter
Source:
Tags:Japanese Pop Jpop やくしまる えつこ yakushimaru etsuko ハイファイ新書 hi-fi anatomia kayōkyoku kayokyoku みらいレコーズ theory of relativity MIRAI Records -Joakh
BeatmapID:3007480
BeatmapSetID:1464135

[Difficulty]
HPDrainRate:4
CircleSize:3.5
OverallDifficulty:8
ApproachRate:8
SliderMultiplier:1.6
SliderTickRate:1

[Events]
//Background and Video events
0,0,"kat-tsai-2-24-20-no1.jpg",0,0
//Break Periods
//Storyboard Layer 0 (Background)
//Storyboard Layer 1 (Fail)
//Storyboard Layer 2 (Pass)
//Storyboard Layer 3 (Foreground)
//Storyboard Layer 4 (Overlay)
//Storyboard Sound Samples

[TimingPoints]
24085,375,4,2,1,30,1,0
36085,-100,4,2,1,35,0,0
60085,-100,4,2,1,50,0,1
84085,-100,4,2,1,20,0,0
85585,-100,4,2,1,5,0,0

[Colours]
Combo1 : 0,87,130
Combo2 : 255,150,45
Combo3 : 81,168,255
Combo4 : 60,255,157

[HitObjects]
292,184,24085,6,0,P|327:96|278:69,1,160,4|10,3:2|0:0,0:0:0:0:
207,74,24647,1,0,0:0:0:0:
30,154,24835,2,0,L|30:55,1,80,2|0,0:0|3:0,0:0:0:0:
111,74,25210,1,10,0:0:0:0:
191,76,25397,1,0,3:0:0:0:
368,151,25585,6,0,L|368:62,1,80,2|0,0:0|3:0,0:0:0:0:
288,74,25960,1,10,0:0:0:0:
111,74,26147,1,0,0:0:0:0:
271,67,26522,1,0,3:0:0:0:
351,69,26710,2,0,L|351:163,1,80,10|0,0:0|3:0,0:0:0:0:
86,186,27085,6,0,P|56:89|112:44,1,160,2|10,3:2|0:0,0:0:0:0:
169,48,27647,1,0,0:0:0:0:
347,114,27835,2,0,L|347:8,1,80,2|0,3:2|3:0,0:0:0:0:
185,52,28397,1,0,3:0:0:0:
105,52,28585,6,0,L|205:52,1,80,2|0,3:2|3:0,0:0:0:0:
270,55,28960,1,10,0:0:0:0:
350,60,29147,1,0,3:0:0:0:
173,70,29335,2,0,L|88:70,1,80,2|0,3:2|3:0,0:0:0:0:
13,117,29710,2,0,L|99:117,1,80,10|0,0:0|3:0,0:0:0:0:
357,166,30085,6,0,P|396:79|336:35,1,160,2|10,3:2|0:0,0:0:0:0:
280,48,30647,1,0,0:0:0:0:
102,106,30835,2,0,L|3:106,1,80,2|0,0:0|3:0,0:0:0:0:
102,106,31210,1,10,0:0:0:0:
182,105,31397,1,0,3:0:0:0:
262,105,31585,6,0,L|262:199,1,80,2|0,0:0|3:0,0:0:0:0:
182,105,31960,1,10,0:0:0:0:
358,107,32147,1,0,0:0:0:0:
206,108,32522,1,0,3:0:0:0:
126,188,32710,2,0,L|126:93,1,80,10|0,0:0|0:0,0:0:0:0:
391,193,33085,6,0,P|429:129|360:76,1,160,2|10,3:2|0:0,0:0:0:0:
296,77,33647,1,0,0:0:0:0:
117,177,33835,2,0,L|117:67,1,80,2|0,0:0|3:0,0:0:0:0:
277,84,34397,1,0,3:0:0:0:
357,171,34585,6,0,P|399:82|328:46,1,160,2|10,3:2|0:0,0:0:0:0:
285,48,35147,1,0,0:0:0:0:
108,67,35335,2,0,L|8:67,1,80,2|0,3:2|3:0,0:0:0:0:
108,67,35710,2,0,L|202:67,1,80,10|0,0:0|0:0,0:0:0:0:
455,188,36085,6,0,P|490:99|435:70,1,160,14|10,3:2|0:0,0:0:0:0:
370,66,36647,2,0,L|302:66,2,40,0|8|8,3:0|0:0|0:0,0:0:0:0:
450,71,37022,1,0,3:0:0:0:
170,76,37397,1,8,3:2:0:0:
273,83,38335,5,2,0:0:0:0:
313,76,38428,1,0,0:0:0:0:
313,76,38522,1,0,0:0:0:0:
273,83,38616,1,0,0:0:0:0:
193,94,38710,2,0,L|94:94,1,80,2|0,0:0|0:0,0:0:0:0:
380,176,39085,6,0,P|422:106|369:71,1,160,12|8,3:2|0:0,0:0:0:0:
290,73,39647,1,0,3:0:0:0:
250,75,39741,1,8,0:0:0:0:
210,76,39835,1,8,0:0:0:0:
290,73,40022,1,0,3:0:0:0:
16,84,40397,1,8,3:2:0:0:
415,90,41335,6,0,L|516:89,1,80,2|2,0:0|0:0,0:0:0:0:
415,90,41710,2,0,L|321:90,1,80,2|0,0:0|0:0,0:0:0:0:
70,197,42085,6,0,P|29:118|81:76,1,160,12|10,3:2|0:0,0:0:0:0:
151,74,42647,1,0,3:0:0:0:
151,74,42741,1,8,0:0:0:0:
151,74,42835,1,8,0:0:0:0:
71,77,43022,1,0,3:0:0:0:
351,73,43397,1,8,3:2:0:0:
66,70,44335,5,2,0:0:0:0:
26,71,44428,1,0,0:0:0:0:
26,71,44522,1,0,0:0:0:0:
66,70,44616,1,0,0:0:0:0:
147,71,44710,2,0,L|234:71,1,80,2|2,0:0|0:0,0:0:0:0:
492,148,45085,6,0,P|502:58|450:27,1,160,12|8,3:2|0:0,0:0:0:0:
371,40,45647,2,0,L|303:40,2,40,0|8|8,3:0|0:0|0:0,0:0:0:0:
450,27,46022,1,0,3:0:0:0:
170,179,46397,6,0,P|132:91|184:60,1,160,8|0,3:2|3:0,0:0:0:0:
251,61,46960,1,10,3:2:0:0:
331,62,47147,1,0,0:0:0:0:
154,119,47335,2,0,L|154:34,1,80,0|0,3:0|3:0,0:0:0:0:
234,41,47710,2,0,L|346:41,1,80,8|0,0:0|3:0,0:0:0:0:
49,172,48085,6,0,P|12:94|63:56,1,160,6|10,3:2|0:0,0:0:0:0:
139,55,48647,1,0,0:0:0:0:
316,116,48835,2,0,L|408:116,1,80,2|0,3:2|3:0,0:0:0:0:
316,116,49210,1,10,0:0:0:0:
156,191,49585,6,0,P|122:114|179:67,1,160,2|10,0:0|0:0,0:0:0:0:
348,69,50147,1,0,0:0:0:0:
348,69,50335,1,2,3:2:0:0:
188,75,50710,2,0,L|188:173,1,80,10|0,0:0|0:0,0:0:0:0:
268,196,51085,6,0,P|287:98|240:71,1,160,2|10,3:2|0:0,0:0:0:0:
167,75,51647,1,0,0:0:0:0:
346,77,51835,2,0,L|327:185,1,80,2|0,3:2|3:0,0:0:0:0:
252,83,52210,1,10,0:0:0:0:
332,77,52397,1,0,3:0:0:0:
67,182,52585,6,0,P|34:95|85:58,1,160,2|10,0:0|0:0,0:0:0:0:
156,62,53147,1,0,0:0:0:0:
334,107,53335,2,0,L|440:108,1,80,2|0,0:0|3:0,0:0:0:0:
493,107,53710,2,0,L|411:107,1,80,10|0,0:0|0:0,0:0:0:0:
148,209,54085,6,0,P|106:133|174:93,1,160,2|10,3:2|0:0,0:0:0:0:
231,94,54647,1,0,3:0:0:0:
54,157,54835,2,0,L|54:54,1,80,2|0,3:2|3:0,0:0:0:0:
134,79,55210,1,10,0:0:0:0:
413,168,55585,6,0,P|442:77|392:42,1,160,2|10,0:0|0:0,0:0:0:0:
320,49,56147,1,0,3:0:0:0:
143,64,56335,2,0,L|56:64,1,80,2|0,3:2|3:0,0:0:0:0:
143,64,56710,1,10,0:0:0:0:
304,163,57085,6,0,P|338:76|279:51,1,160,2|10,3:2|0:0,0:0:0:0:
215,57,57647,1,0,3:0:0:0:
135,129,57835,2,0,L|225:89,1,80,2|0,3:2|3:0,0:0:0:0:
128,55,58210,1,10,0:0:0:0:
391,60,58397,1,12,3:2:0:0:
471,150,58585,6,0,P|506:64|450:39,1,160,0|10,0:0|0:0,0:0:0:0:
282,41,59335,1,8,3:0:0:0:
458,41,59522,2,0,L|508:41,2,40,0|8|8,3:0|0:0|0:0,0:0:0:0:
378,43,59897,1,8,3:0:0:0:
112,51,60085,5,6,3:2:0:0:
31,51,60272,1,0,0:0:0:0:
208,43,60460,2,0,L|315:43,1,80,8|2,0:0|0:0,0:0:0:0:
208,149,60835,2,0,L|113:150,1,80,0|2,3:0|0:0,0:0:0:0:
209,118,61210,2,0,L|291:118,1,80,8|2,0:0|0:0,0:0:0:0:
24,130,61585,6,0,L|9:46,2,80,0|2|8,3:0|0:0|0:0,0:0:0:0:
184,130,62335,2,0,L|22:130,1,160,0|8,3:0|0:0,0:0:0:0:
200,130,62897,1,2,0:0:0:0:
280,129,63085,5,0,3:0:0:0:
200,130,63272,1,2,0:0:0:0:
377,158,63460,2,0,L|376:54,1,80,8|2,0:0|0:0,0:0:0:0:
296,113,63835,2,0,L|390:113,1,80,0|2,3:0|0:0,0:0:0:0:
455,139,64210,2,0,L|455:50,1,80,8|2,0:0|0:0,0:0:0:0:
190,55,64585,6,0,L|99:55,2,80,0|2|8,3:0|0:0|0:0,0:0:0:0:
270,65,65147,1,2,0:0:0:0:
178,74,65335,1,0,3:0:0:0:
86,79,65522,1,2,0:0:0:0:
366,60,65897,1,14,0:0:0:0:
446,60,66085,5,0,3:0:0:0:
366,60,66272,1,2,0:0:0:0:
188,79,66460,2,0,L|76:79,1,80,8|2,0:0|0:0,0:0:0:0:
188,79,66835,2,0,L|273:79,1,80,0|2,3:0|0:0,0:0:0:0:
188,79,67210,2,0,L|103:79,1,80,8|2,0:0|0:0,0:0:0:0:
373,82,67585,6,0,L|482:82,2,80,0|2|8,3:0|0:0|0:0,0:0:0:0:
213,82,68335,2,0,L|380:82,1,160,0|8,3:0|0:0,0:0:0:0:
197,82,68897,1,2,0:0:0:0:
117,82,69085,5,0,3:0:0:0:
293,81,69272,1,2,0:0:0:0:
373,77,69460,2,0,L|373:172,1,80,8|2,0:0|0:0,0:0:0:0:
197,82,69835,2,0,L|197:172,1,80,0|2,3:0|0:0,0:0:0:0:
277,82,70210,2,0,L|376:82,1,80,8|2,0:0|0:0,0:0:0:0:
92,85,70585,6,0,L|20:35,2,80,0|2|8,3:0|0:0|0:0,0:0:0:0:
153,89,71147,1,2,0:0:0:0:
213,82,71335,2,0,L|124:82,1,80,0|8,3:0|3:0,0:0:0:0:
53,83,71710,1,8,0:0:0:0:
133,82,71897,1,2,0:0:0:0:
399,87,72085,5,6,3:2:0:0:
479,88,72272,1,0,0:0:0:0:
302,90,72460,2,0,L|201:90,1,80,8|2,0:0|0:0,0:0:0:0:
302,170,72835,2,0,L|302:80,1,80,0|2,3:0|0:0,0:0:0:0:
223,142,73210,2,0,L|140:141,1,80,8|2,0:0|0:0,0:0:0:0:
408,157,73585,6,0,L|509:156,2,80,0|2|8,3:0|0:0|0:0,0:0:0:0:
248,157,74335,2,0,L|418:157,1,160,0|8,3:0|0:0,0:0:0:0:
230,158,74897,1,2,0:0:0:0:
149,157,75085,5,0,3:0:0:0:
230,158,75272,1,2,0:0:0:0:
53,177,75460,2,0,L|53:70,1,80,8|2,0:0|0:0,0:0:0:0:
133,104,75835,2,0,L|235:104,1,80,0|2,3:0|0:0,0:0:0:0:
130,172,76210,2,0,L|130:63,1,80,8|2,0:0|0:0,0:0:0:0:
395,101,76585,6,0,L|500:102,2,80,0|2|8,3:0|0:0|0:0,0:0:0:0:
315,101,77147,1,2,0:0:0:0:
406,100,77335,1,0,3:0:0:0:
496,91,77522,1,2,0:0:0:0:
216,97,77897,1,12,3:2:0:0:
134,94,78085,5,0,3:0:0:0:
216,97,78272,1,2,0:0:0:0:
395,101,78460,2,0,L|480:101,1,80,8|2,0:0|0:0,0:0:0:0:
395,101,78835,2,0,L|314:101,1,80,0|2,3:0|0:0,0:0:0:0:
395,101,79210,2,0,L|481:101,1,80,8|2,0:0|0:0,0:0:0:0:
209,128,79585,6,0,L|111:128,2,80,0|2|8,3:0|0:0|0:0,0:0:0:0:
369,128,80335,2,0,L|201:128,1,160,0|8,3:0|0:0,0:0:0:0:
385,127,80897,1,2,0:0:0:0:
464,128,81085,5,0,3:0:0:0:
385,127,81272,1,2,0:0:0:0:
208,136,81460,2,0,L|103:136,1,80,8|2,0:0|0:0,0:0:0:0:
208,136,81835,2,0,L|297:136,1,80,0|2,3:0|0:0,0:0:0:0:
208,136,82210,2,0,L|120:136,1,80,8|2,0:0|0:0,0:0:0:0:
393,143,82585,6,0,L|477:143,1,80,0|2,3:0|0:0,0:0:0:0:
393,143,82960,1,8,0:0:0:0:
218,146,83147,1,2,0:0:0:0:
137,144,83335,1,0,3:0:0:0:
218,146,83522,1,2,0:0:0:0:
299,149,83710,1,8,0:0:0:0:
35,136,83897,5,8,0:0:0:0:
256,192,84085,12,0,85585,0:0:0:0:
