osu file format v14

[General]
AudioFilename: audio.mp3
AudioLeadIn: 0
PreviewTime: 60085
Countdown: 0
SampleSet: Soft
StackLeniency: 0.7
Mode: 2
LetterboxInBreaks: 0
WidescreenStoryboard: 1

[Editor]
Bookmarks: 36085
DistanceSpacing: 1.2
BeatDivisor: 4
GridSize: 4
TimelineZoom: 1

[Metadata]
Title:Shikaku Kakumei (Cut Ver.)
TitleUnicode:四角革命 (Cut Ver.)
Artist:soutaiseiriron
ArtistUnicode:相対性理論
Creator:Chatie
Version:Cup
Source:
Tags:Japanese Pop Jpop やくしまる えつこ yakushimaru etsuko ハイファイ新書 hi-fi anatomia kayōkyoku kayokyoku みらいレコーズ theory of relativity MIRAI Records -Joakh
BeatmapID:3008177
BeatmapSetID:1464135

[Difficulty]
HPDrainRate:2
CircleSize:2.5
OverallDifficulty:6
ApproachRate:6
SliderMultiplier:1.5
SliderTickRate:1

[Events]
//Background and Video events
0,0,"kat-tsai-2-24-20-no1.jpg",0,0
//Break Periods
//Storyboard Layer 0 (Background)
//Storyboard Layer 1 (Fail)
//Storyboard Layer 2 (Pass)
//Storyboard Layer 3 (Foreground)
//Storyboard Layer 4 (Overlay)
//Storyboard Sound Samples

[TimingPoints]
24085,375,4,2,1,30,1,0
36085,-100,4,2,1,35,0,0
60085,-100,4,2,1,50,0,1
84085,-100,4,2,1,20,0,0
85585,-100,4,2,1,5,0,0

[Colours]
Combo1 : 0,87,130
Combo2 : 255,150,45
Combo3 : 81,168,255
Combo4 : 60,255,157

[HitObjects]
57,209,24085,6,0,P|21:134|75:91,1,150,4|10,3:2|0:0,0:0:0:0:
136,92,24647,1,0,0:0:0:0:
211,93,24835,2,0,L|57:93,1,150,2|10,0:0|0:0,0:0:0:0:
211,243,25585,6,0,L|211:81,1,150,2|10,0:0|0:0,0:0:0:0:
286,90,26147,1,0,0:0:0:0:
136,114,26522,1,0,3:0:0:0:
61,127,26710,1,10,0:0:0:0:
211,195,27085,6,0,P|251:108|192:71,1,150,2|10,3:2|0:0,0:0:0:0:
148,80,27647,1,0,0:0:0:0:
73,85,27835,2,0,L|244:86,1,150,2|10,3:2|0:0,0:0:0:0:
373,202,28585,6,0,P|406:119|354:86,1,150,2|10,3:2|0:0,0:0:0:0:
294,91,29147,1,0,3:0:0:0:
219,107,29335,2,0,L|219:19,1,75,2|0,3:2|3:0,0:0:0:0:
294,91,29710,1,10,0:0:0:0:
444,185,30085,6,0,P|476:95|435:74,1,150,2|10,3:2|0:0,0:0:0:0:
371,74,30647,1,0,0:0:0:0:
296,75,30835,2,0,L|475:75,1,150,2|10,0:0|0:0,0:0:0:0:
296,265,31585,6,0,L|210:116,1,150,2|10,0:0|0:0,0:0:0:0:
146,110,32147,1,0,0:0:0:0:
296,106,32522,1,0,3:0:0:0:
221,106,32710,1,10,0:0:0:0:
71,106,33085,6,0,L|229:106,1,150,2|10,3:2|0:0,0:0:0:0:
296,105,33647,1,0,0:0:0:0:
371,152,33835,2,0,P|408:72|349:43,1,150,2|10,0:0|0:0,0:0:0:0:
220,301,34585,6,0,P|182:214|225:181,1,150,2|10,3:2|0:0,0:0:0:0:
286,185,35147,1,0,0:0:0:0:
361,219,35335,2,0,L|361:136,1,75,2|0,3:2|3:0,0:0:0:0:
286,185,35710,1,10,0:0:0:0:
136,246,36085,6,0,P|101:165|151:123,1,150,14|10,3:2|0:0,0:0:0:0:
212,124,36647,1,0,3:0:0:0:
287,124,36835,2,0,L|204:124,1,75,8|0,0:0|3:0,0:0:0:0:
362,124,37397,1,8,3:2:0:0:
68,209,38335,6,0,L|68:127,1,75,2|0,0:0|0:0,0:0:0:0:
143,138,38710,1,2,0:0:0:0:
293,231,39085,6,0,P|328:150|278:108,1,150,12|8,3:2|0:0,0:0:0:0:
217,109,39647,1,0,3:0:0:0:
142,109,39835,2,0,L|225:109,1,75,8|0,0:0|3:0,0:0:0:0:
367,106,40397,1,8,3:2:0:0:
109,187,41335,6,0,L|109:105,1,75,2|2,0:0|0:0,0:0:0:0:
184,109,41710,1,2,0:0:0:0:
334,231,42085,6,0,P|369:150|319:108,1,150,12|10,3:2|0:0,0:0:0:0:
258,109,42647,1,0,3:0:0:0:
183,109,42835,2,0,L|266:109,1,75,8|0,0:0|3:0,0:0:0:0:
408,106,43397,1,8,3:2:0:0:
180,193,44335,6,0,L|180:105,1,75,2|0,0:0|0:0,0:0:0:0:
255,124,44709,1,2,0:0:0:0:
105,187,45085,6,0,P|70:106|120:64,1,150,12|8,3:2|0:0,0:0:0:0:
181,65,45647,1,0,3:0:0:0:
256,65,45835,2,0,L|173:65,1,75,8|0,0:0|3:0,0:0:0:0:
31,62,46397,1,8,3:2:0:0:
256,65,46960,5,10,3:2:0:0:
107,163,47335,2,0,L|107:71,1,75,0|0,3:0|3:0,0:0:0:0:
182,161,47710,2,0,L|274:161,1,75,8|0,0:0|3:0,0:0:0:0:
182,161,48085,6,0,P|155:76|193:47,1,150,6|10,3:2|0:0,0:0:0:0:
344,43,48835,2,0,L|262:43,1,75,2|0,3:2|3:0,0:0:0:0:
194,46,49210,1,10,0:0:0:0:
344,153,49585,6,0,P|377:63|338:41,1,150,2|10,0:0|0:0,0:0:0:0:
273,43,50147,2,0,L|438:43,1,150,0|0,0:0|3:0,0:0:0:0:
423,43,50710,1,10,0:0:0:0:
272,183,51085,6,0,P|230:109|277:68,1,150,2|10,3:2|0:0,0:0:0:0:
417,67,51835,2,0,L|342:67,1,75,2|0,3:2|3:0,0:0:0:0:
267,70,52210,1,10,0:0:0:0:
117,200,52585,6,0,P|85:115|135:90,1,150,2|10,0:0|0:0,0:0:0:0:
196,150,53147,2,0,P|239:80|178:52,1,150,0|0,0:0|3:0,0:0:0:0:
122,71,53710,1,10,0:0:0:0:
273,194,54085,6,0,P|313:123|266:99,1,150,2|10,3:2|0:0,0:0:0:0:
120,98,54835,2,0,L|202:98,1,75,2|0,3:2|3:0,0:0:0:0:
270,98,55210,1,10,0:0:0:0:
421,200,55585,6,0,P|461:117|407:78,1,150,2|10,0:0|0:0,0:0:0:0:
355,169,56147,2,0,P|320:89|374:50,1,150,0|0,3:0|3:0,0:0:0:0:
432,83,56710,1,10,0:0:0:0:
281,94,57085,6,0,L|130:94,1,150,2|10,3:2|0:0,0:0:0:0:
281,168,57835,2,0,L|282:78,1,75,2|0,3:2|3:0,0:0:0:0:
207,166,58210,1,10,0:0:0:0:
57,217,58585,6,0,L|207:217,1,150,0|10,0:0|0:0,0:0:0:0:
244,210,59335,1,8,3:0:0:0:
132,219,59616,1,8,0:0:0:0:
132,219,59710,1,8,0:0:0:0:
282,163,60085,5,6,3:2:0:0:
357,162,60272,1,0,0:0:0:0:
282,163,60460,2,0,P|246:92|289:42,1,150,8|0,0:0|3:0,0:0:0:0:
435,39,61210,1,8,0:0:0:0:
360,39,61397,1,2,0:0:0:0:
285,43,61585,6,0,L|448:43,1,150,0|8,3:0|0:0,0:0:0:0:
285,193,62335,2,0,L|285:28,1,150,0|8,3:0|0:0,0:0:0:0:
360,41,62897,1,2,0:0:0:0:
210,58,63272,5,2,0:0:0:0:
135,170,63460,2,0,P|124:86|174:47,1,150,8|0,0:0|3:0,0:0:0:0:
317,57,64210,1,8,0:0:0:0:
242,64,64397,1,2,0:0:0:0:
167,258,64585,6,0,L|167:94,1,150,0|8,3:0|0:0,0:0:0:0:
317,247,65335,2,0,P|351:154|304:132,1,150,0|8,3:0|0:0,0:0:0:0:
250,128,65897,1,14,0:0:0:0:
401,127,66272,5,2,0:0:0:0:
476,129,66460,2,0,L|327:129,1,150,8|0,0:0|3:0,0:0:0:0:
176,128,67210,1,8,0:0:0:0:
101,125,67397,1,2,0:0:0:0:
176,128,67585,6,0,L|352:129,1,150,0|8,3:0|0:0,0:0:0:0:
176,278,68335,2,0,L|176:115,1,150,0|8,3:0|0:0,0:0:0:0:
251,132,68897,1,2,0:0:0:0:
401,229,69272,6,0,P|431:139|377:118,1,150,2|2,0:0|0:0,0:0:0:0:
324,190,69835,2,0,P|285:113|330:84,1,150,0|8,3:0|0:0,0:0:0:0:
399,78,70397,1,2,0:0:0:0:
474,84,70585,6,0,L|311:84,1,150,0|8,3:0|0:0,0:0:0:0:
174,254,71335,2,0,L|99:103,1,150,0|8,3:0|0:0,0:0:0:0:
182,104,71897,1,2,0:0:0:0:
257,100,72085,5,6,3:2:0:0:
181,104,72272,1,0,0:0:0:0:
106,176,72460,2,0,P|138:89|188:52,1,150,8|0,0:0|3:0,0:0:0:0:
331,107,73210,1,8,0:0:0:0:
406,101,73397,1,2,0:0:0:0:
481,218,73585,6,0,P|508:128|472:98,1,150,0|8,3:0|0:0,0:0:0:0:
324,218,74335,2,0,L|325:55,1,150,0|8,3:0|0:0,0:0:0:0:
400,73,74897,1,2,0:0:0:0:
250,83,75272,5,2,0:0:0:0:
175,195,75460,2,0,P|137:113|200:72,1,150,8|0,0:0|3:0,0:0:0:0:
321,67,76210,1,8,0:0:0:0:
246,72,76397,1,2,0:0:0:0:
171,185,76585,6,0,P|134:109|178:68,1,150,0|8,3:0|0:0,0:0:0:0:
322,217,77335,2,0,L|322:53,1,150,0|0,3:0|3:0,0:0:0:0:
247,63,77897,1,12,3:2:0:0:
397,66,78272,5,2,0:0:0:0:
472,167,78460,2,0,P|511:91|462:46,1,150,8|0,0:0|3:0,0:0:0:0:
325,67,79210,1,8,0:0:0:0:
250,67,79397,1,2,0:0:0:0:
175,66,79585,6,0,L|358:67,1,150,0|8,3:0|0:0,0:0:0:0:
175,216,80335,2,0,L|175:61,1,150,0|8,3:0|0:0,0:0:0:0:
250,67,80897,1,2,0:0:0:0:
399,71,81272,5,2,0:0:0:0:
324,70,81460,2,0,L|168:70,1,150,8|0,0:0|3:0,0:0:0:0:
324,70,82210,1,8,0:0:0:0:
399,71,82397,1,2,0:0:0:0:
324,70,82585,6,0,L|236:70,1,75,0|2,3:0|0:0,0:0:0:0:
99,76,83147,1,2,0:0:0:0:
99,76,83335,1,0,3:0:0:0:
158,75,83522,1,2,0:0:0:0:
233,76,83710,1,8,0:0:0:0:
315,61,83897,5,8,0:0:0:0:
256,192,84178,12,0,85585,0:0:0:0:
