osu file format v14

[General]
AudioFilename: audio.mp3
AudioLeadIn: 0
PreviewTime: 138443
Countdown: 0
SampleSet: None
StackLeniency: 0.7
Mode: 0
LetterboxInBreaks: 0
WidescreenStoryboard: 0

[Editor]
Bookmarks: 25567,49574,100568,124567,163564,187564,193564
DistanceSpacing: 1.1
BeatDivisor: 4
GridSize: 4
TimelineZoom: 1.8

[Metadata]
Title:Yuudachi
TitleUnicode:夕立ち
Artist:soraru x mafumafu
ArtistUnicode:そらる×まふまふ
Creator:hanyuu_nanodesu
Version:Normal
Source:
Tags:After the rain soramafu そらまふ utaite evening rain
BeatmapID:2093904
BeatmapSetID:1000469

[Difficulty]
HPDrainRate:3.5
CircleSize:3
OverallDifficulty:4
ApproachRate:5
SliderMultiplier:1.2
SliderTickRate:1

[Events]
//Background and Video events
0,0,"yuudachi bg.jpg",0,0
//Break Periods
2,88766,99367
2,187767,192367
//Storyboard Layer 0 (Background)
//Storyboard Layer 1 (Fail)
//Storyboard Layer 2 (Pass)
//Storyboard Layer 3 (Foreground)
//Storyboard Sound Samples

[TimingPoints]
67.1481481481501,375,4,1,0,100,1,0
817,-100,4,2,0,30,0,0
24817,-100,4,3,0,30,0,0
46567,-100,4,1,0,50,0,0
64567,-100,4,1,0,60,0,1
88567,-100,4,1,0,60,0,0
100567,-100,4,1,0,35,0,0
111629,-100,4,1,0,50,0,0
139567,-100,4,1,0,60,0,1
163567,-100,4,1,0,60,0,0
193379,-100,4,1,0,40,0,0
194317,-100,4,1,0,45,0,0
195067,-100,4,1,0,50,0,0
205567,-100,4,1,0,60,0,1
226567,-100,4,1,0,50,0,0

[Colours]
Combo1 : 216,216,216
Combo2 : 49,49,185
Combo3 : 119,109,239
Combo4 : 126,126,126

[HitObjects]
60,100,817,6,0,P|118:81|201:76,1,120
302,112,1567,5,0,0:0:0:0:
256,338,2692,1,0,0:0:0:0:
156,250,3067,38,0,P|143:204|150:114,2,120
269,181,4192,1,0,0:0:0:0:
387,122,4567,2,0,B|402:183|380:248|380:248|444:270|485:319,1,240
71,327,6817,6,0,P|59:283|65:208,1,120
165,124,7567,37,0,0:0:0:0:
423,177,8317,2,0,B|470:266|390:266|450:366,2,180
303,121,9817,6,0,P|243:129|179:116,1,120
74,45,10567,38,0,B|40:104|63:167|63:167|4:205|4:286,1,240
441,332,12817,6,0,P|454:295|456:209,1,120
380,107,13567,37,0,0:0:0:0:
8,244,14692,1,0,0:0:0:0:
92,345,15067,6,0,P|130:360|217:365,1,120
308,279,15817,2,0,P|364:259|424:257,1,120
493,145,16567,38,0,B|445:115|422:55|422:55|352:34|291:54,1,240
56,196,19192,5,0,0:0:0:0:
155,282,19567,38,0,P|224:315|329:303,1,180
412,127,20692,1,0,0:0:0:0:
313,40,21067,6,0,P|269:31|190:36,2,120
249,155,22192,1,0,0:0:0:0:
326,261,22567,38,0,B|277:286|222:282|222:282|194:349|122:372,1,240
61,106,24817,22,0,P|90:72|163:34,1,120
286,51,25567,6,0,P|345:64|413:54,1,120,0|0,0:0|1:0,0:0:0:0:
495,151,26317,2,0,P|507:186|512:215,2,60,0|0|0,0:0|0:0|1:0,0:0:0:0:
379,215,27067,38,0,P|320:202|252:212,1,120,0|0,0:0|1:0,0:0:0:0:
251,340,27817,2,0,P|309:352|368:346,1,120,0|0,0:0|1:0,0:0:0:0:
483,280,28567,6,0,L|498:141,2,120,0|0|0,0:0|1:0|0:0,0:0:0:0:
434,324,29504,2,0,P|379:335|311:323,1,120,0|0,0:0|1:0,0:0:0:0:
200,257,30254,1,0,0:0:0:0:
163,201,30442,38,0,P|150:138|162:74,1,120,0|0,1:0|0:0,0:0:0:0:
267,9,31192,1,0,1:0:0:0:
366,95,31567,6,0,P|318:128|243:141,1,120,0|0,0:0|1:0,0:0:0:0:
142,205,32317,2,0,P|105:204|70:209,2,60,0|0|0,0:0|0:0|1:0,0:0:0:0:
183,255,32879,38,0,P|241:289|360:287,1,180,0|0,0:0|1:0,0:0:0:0:
437,189,33817,2,0,P|389:167|304:172,1,120,0|0,0:0|1:0,0:0:0:0:
217,85,34567,6,0,P|169:107|84:102,2,120,0|0|0,0:0|1:0|0:0,0:0:0:0:
280,63,35504,2,0,P|337:54|405:65,1,120,0|0,0:0|1:0,0:0:0:0:
479,166,36254,1,0,0:0:0:0:
491,231,36442,38,0,P|489:290|469:347,1,120,0|0,1:0|0:0,0:0:0:0:
337,331,37192,1,0,0:0:0:0:
208,347,37567,6,0,P|187:290|186:230,1,120,0|0,0:0|1:0,0:0:0:0:
276,135,38317,2,0,P|284:90|283:57,2,60,0|0|0,0:0|0:0|1:0,0:0:0:0:
295,198,38879,38,0,P|344:248|466:256,1,180,0|0,0:0|1:0,0:0:0:0:
502,140,39817,1,0,0:0:0:0:
376,98,40192,1,0,1:0:0:0:
295,198,40567,6,0,P|248:236|219:303,1,120,0|0,0:0|1:0,0:0:0:0:
96,331,41317,2,0,P|76:274|40:226,1,120,0|0,0:0|1:0,0:0:0:0:
22,163,41879,38,0,P|19:100|55:29,1,120,0|0,1:0|0:0,0:0:0:0:
97,14,42442,1,0,1:0:0:0:
227,33,42817,2,0,P|266:39|289:39,2,60,0|0|0,0:0|0:0|1:0,0:0:0:0:
146,137,43567,6,0,P|134:191|142:266,1,120
247,329,44317,2,0,P|287:338|309:346,2,60,0|0|0,0:0|0:0|1:0,0:0:0:0:
182,344,44879,38,0,P|88:367|-4:330,1,180,0|0,0:0|1:0,0:0:0:0:
11,208,45817,1,0,0:0:0:0:
99,109,46192,1,0,0:0:0:0:
208,182,46567,6,0,P|221:237|214:319,1,120
349,317,47317,2,0,P|370:350|381:375,2,60
343,256,47879,6,0,P|334:208|350:129,1,120
382,83,48442,2,0,L|510:72,1,120
503,204,49192,1,0,0:0:0:0:
400,285,49567,6,0,P|358:295|277:277,1,120
228,243,50129,2,0,P|171:224|110:227,2,120
412,53,51629,38,0,P|345:26|231:37,1,180,0|0,2:0|0:0,0:0:0:0:
158,138,52567,6,0,P|156:175|131:259,1,120
128,320,53129,1,0,0:0:0:0:
246,381,53504,1,0,0:0:0:0:
364,322,53879,38,0,B|403:290|415:242|415:242|395:206|399:148,1,180
449,39,54817,2,0,P|390:32|317:51,1,120
285,168,55567,6,0,P|226:180|167:173,1,120
105,198,56129,2,0,P|75:236|53:311,2,120
179,306,57254,2,0,P|249:312|305:335,1,120
361,330,57817,2,0,P|408:315|470:255,1,120
478,205,58379,1,0,0:0:0:0:
455,142,58567,38,0,P|442:81|453:24,2,120
356,230,59692,1,0,0:0:0:0:
238,169,60067,6,0,P|187:156|107:161,1,120
104,289,60817,2,0,P|155:302|235:297,1,120
346,344,61567,38,0,B|358:288|338:238|338:238|360:211|371:161,1,180
240,138,62504,1,0,0:0:0:0:
132,61,62879,22,0,P|112:116|113:188,1,120
134,238,63442,2,0,P|148:273|154:306,1,60
482,314,64567,6,0,P|501:255|493:179,2,120,4|0|0,0:0|0:0|0:0,0:0:0:0:
351,335,65692,1,0,0:0:0:0:
292,305,65879,38,0,P|249:284|167:279,1,120
117,250,66442,2,0,P|90:207|80:117,1,120
156,33,67192,1,0,0:0:0:0:
221,35,67379,6,0,P|288:41|368:30,1,120
402,58,67942,2,0,P|440:95|469:163,1,120
452,219,68504,2,0,P|439:263|434:301,1,60
306,251,69067,38,0,P|294:200|260:138,2,120
227,356,70192,1,0,0:0:0:0:
99,330,70567,6,0,P|47:293|13:228,2,120
144,206,71692,1,0,0:0:0:0:
205,181,71879,38,0,P|251:167|332:176,1,120
377,208,72442,2,0,P|431:225|495:221,1,120
449,97,73192,1,0,0:0:0:0:
404,48,73379,6,0,P|350:31|286:35,1,120
224,55,73942,2,0,P|169:82|101:90,1,120
41,202,74692,1,0,0:0:0:0:
83,251,74879,38,0,P|120:283|193:298,1,120
252,280,75442,2,0,P|288:277|324:277,2,60
185,165,76192,21,0,0:0:0:0:
145,39,76567,6,0,P|200:37|279:71,2,120,4|0|0,0:0|0:0|0:0,0:0:0:0:
46,126,77692,1,0,0:0:0:0:
23,187,77879,38,0,P|19:242|43:308,1,120
103,321,78442,2,0,P|161:316|242:333,1,120
345,280,79192,1,0,0:0:0:0:
361,216,79379,6,0,P|369:174|353:100,1,120
292,71,79942,2,0,L|165:64,1,120
106,69,80504,2,0,P|61:65|22:70,1,60
13,194,81067,38,0,P|35:248|39:320,2,120
138,153,82192,1,0,0:0:0:0:
266,183,82567,6,0,P|321:202|406:195,2,120
341,74,83692,1,0,0:0:0:0:
469,105,84067,38,0,P|501:157|512:232,2,120
382,201,85192,1,0,0:0:0:0:
263,260,85567,6,0,P|220:243|120:245,1,120
29,298,86317,2,0,P|17:249|31:176,1,120
66,126,86879,1,0,0:0:0:0:
129,106,87067,38,0,L|260:100,1,120
308,218,87817,2,0,L|188:223,1,120
125,244,88379,2,0,P|100:263|69:278,1,60,0|4,0:0|0:0,0:0:0:0:
80,319,100567,22,0,P|69:261|84:182,1,120,4|0,0:0|0:0,0:0:0:0:
181,119,101317,2,0,L|323:109,1,120
408,33,102067,6,0,P|427:90|425:162,2,120
300,110,103192,1,0,0:0:0:0:
182,171,103567,38,0,B|215:230|278:243|278:243|278:307|329:351,1,240
410,246,104692,1,0,0:0:0:0:
490,141,105067,6,0,P|454:123|352:127,1,120
250,163,105817,2,0,P|190:164|135:141,1,120
16,83,106567,38,0,P|5:139|20:207,1,120
129,269,107317,2,0,P|218:283|296:344,2,180
16,200,108817,6,0,P|55:164|127:136,1,120
246,118,109567,38,0,B|266:165|330:198|330:198|391:169|475:180,1,240
408,303,110692,1,0,0:0:0:0:
285,352,111067,6,0,P|222:348|154:303,1,120
146,260,111629,2,0,P|99:248|28:247,2,120
194,215,112567,38,0,P|232:177|264:110,1,120
387,78,113317,2,0,P|376:42|375:9,2,60
423,133,113879,6,0,P|438:217|384:312,1,180
268,325,114817,1,0,0:0:0:0:
139,354,115192,1,0,0:0:0:0:
38,268,115567,38,0,P|26:216|35:145,1,120
153,96,116317,2,0,P|208:92|279:61,1,120
328,42,116879,6,0,B|375:29|422:34|422:34|447:71|455:128,1,180
418,240,117817,2,0,P|419:278|425:320,2,60
299,181,118567,38,0,P|237:173|162:184,1,120
76,261,119317,2,0,P|62:296|39:333,2,60
60,196,119879,6,0,P|67:126|149:36,1,180
258,89,120817,1,0,0:0:0:0:
380,39,121192,1,0,0:0:0:0:
479,127,121567,38,0,P|496:184|499:254,1,120
387,313,122317,2,0,P|391:342|402:379,2,60
347,260,122879,22,0,P|302:229|215:219,1,120
174,232,123442,2,0,P|122:239|45:221,1,120
119,109,124192,1,0,0:0:0:0:
227,33,124567,6,0,P|272:25|360:30,1,120
392,73,125129,2,0,P|431:120|492:161,2,120
273,130,126254,2,0,P|239:143|200:146,1,60
153,167,126629,38,0,P|113:206|87:332,1,180
213,356,127567,6,0,P|270:343|348:346,1,120
397,346,128129,1,0,0:0:0:0:
478,235,128504,1,0,0:0:0:0:
393,133,128879,38,0,B|360:111|340:78|340:78|284:88|219:72,1,180
121,11,129817,2,0,P|109:65|118:138,1,120
28,228,130567,22,0,P|76:253|154:256,1,120
201,231,131129,2,0,P|249:206|327:203,2,120
286,331,132254,6,0,P|345:327|398:300,1,120
447,255,132817,2,0,L|474:113,1,120
448,74,133379,1,0,0:0:0:0:
399,29,133567,38,0,P|353:15|265:26,1,120
188,113,134317,2,0,P|167:167|122:220,1,120
160,343,135067,5,0,0:0:0:0:
290,360,135442,2,0,P|358:358|418:331,2,120
325,233,136567,38,0,B|320:170|299:122|299:122|325:97|348:43,1,180
214,17,137504,1,0,0:0:0:0:
88,56,137879,22,0,P|67:89|43:194,1,120
55,231,138442,1,0,0:0:0:0:
87,288,138629,2,0,B|118:323|162:338|162:338|207:310|270:320,1,180
365,377,139567,6,0,P|373:317|362:250,1,120
472,182,140317,2,0,P|424:145|360:121,1,120
303,128,140879,38,0,P|249:138|172:133,1,120
119,151,141442,2,0,P|75:185|35:246,1,120
96,356,142192,1,0,0:0:0:0:
160,343,142379,6,0,P|225:336|287:347,1,120
344,338,142942,2,0,P|389:316|437:259,2,120
313,209,144067,38,0,P|267:166|194:141,1,120
149,148,144629,1,0,0:0:0:0:
98,190,144817,2,0,L|62:308,1,120
184,356,145567,6,0,P|241:344|319:351,1,120
431,316,146317,2,0,P|462:262|469:205,1,120
434,148,146879,38,0,P|404:121|360:47,1,120
301,28,147442,2,0,P|255:23|176:36,1,120
110,144,148192,1,0,0:0:0:0:
91,207,148379,6,0,P|90:259|118:337,1,120
169,351,148942,2,0,L|299:360,1,120
389,274,149692,1,0,0:0:0:0:
338,231,149879,38,0,L|218:222,1,120
160,190,150442,2,0,P|130:167|92:156,2,60
67,284,151192,21,0,0:0:0:0:
192,327,151567,6,0,P|249:294|294:241,1,120
410,298,152317,2,0,P|409:232|386:166,1,120
346,135,152879,38,0,P|302:107|259:39,1,120
202,26,153442,2,0,P|148:16|61:26,1,120
130,143,154192,1,0,0:0:0:0:
115,207,154379,6,0,P|111:258|133:326,1,120
194,343,154942,2,0,P|260:339|325:353,2,120
210,217,156067,38,0,P|218:154|211:92,1,120
234,35,156629,1,0,0:0:0:0:
296,13,156817,2,0,P|362:6|438:31,1,120
349,134,157567,6,0,P|322:179|311:262,2,120
439,230,158692,1,0,0:0:0:0:
384,350,159067,38,0,P|328:371|268:371,2,120
309,244,160192,1,0,0:0:0:0:
344,116,160567,6,0,P|284:116|228:137,1,120
134,44,161317,2,0,P|104:95|94:154,1,120
113,217,161879,1,0,0:0:0:0:
161,262,162067,38,0,P|211:283|292:276,1,120
407,296,162817,2,0,P|400:242|353:175,1,120
318,140,163379,1,0,0:0:0:0:
251,135,163567,22,0,P|197:144|124:128,1,120
72,156,164129,2,0,B|39:200|28:256|28:256|73:280|96:313,1,180
147,316,164879,6,0,B|200:312|238:294|238:294|273:315|328:319,1,180
424,237,165817,1,0,0:0:0:0:
441,367,166192,1,0,0:0:0:0:
319,318,166567,38,0,P|308:260|320:188,1,120
359,150,167129,2,0,B|389:116|398:72|398:72|366:38|318:28,1,180
252,28,167879,6,0,P|151:47|82:97,1,180
57,148,168629,2,0,B|13:238|81:238|47:328,1,180
176,357,169567,38,0,P|227:346|309:351,1,120
360,343,170129,2,0,B|400:308|416:275|416:275|393:230|389:183,1,180
363,127,170879,6,0,B|338:100|318:67|318:67|253:79|205:71,1,180
114,159,171817,1,0,0:0:0:0:
160,282,172192,1,0,0:0:0:0:
278,340,172567,38,0,P|288:290|280:210,1,120
276,156,173129,2,0,P|292:113|420:78,1,180
463,111,173879,6,0,B|473:156|504:196|504:196|480:238|471:289,1,180
424,319,174629,2,0,P|376:342|307:342,1,120
342,214,175379,1,0,0:0:0:0:
276,204,175567,6,0,P|216:203|162:227,1,120
97,241,176129,2,0,B|45:218|22:183|22:183|35:146|45:91,1,180
81,48,176879,6,0,P|142:26|260:35,1,180
304,156,177817,1,0,0:0:0:0:
247,275,178192,1,0,0:0:0:0:
118,303,178567,38,0,P|101:249|107:179,1,120
146,135,179129,2,0,B|192:120|227:91|227:91|255:107|329:113,1,180
373,133,179879,6,0,B|420:154|453:189|453:189|438:232|403:277,1,180
359,297,180629,1,0,0:0:0:0:
228,317,181004,2,0,P|192:314|150:295,1,60
116,184,181567,38,0,P|115:148|97:58,2,120
95,246,182504,1,0,0:0:0:0:
198,327,182879,6,0,P|237:337|343:324,1,120
372,297,183442,1,0,0:0:0:0:
416,248,183629,2,0,P|411:194|418:115,2,120
466,290,184567,38,0,P|484:323|496:352,1,60
165,303,185692,6,0,P|154:268|151:224,1,60
174,183,186067,2,0,P|185:148|188:104,1,60
447,79,187567,5,0,0:0:0:0:
96,66,193567,22,0,P|77:127|84:208,1,120
118,234,194129,2,0,P|158:276|190:334,2,120
180,117,195254,2,0,P|235:114|313:82,1,120
415,148,196004,2,0,P|449:141|492:140,2,60
366,193,196567,6,0,P|346:250|337:313,2,120
298,78,197692,1,0,0:0:0:0:
182,142,198067,37,0,0:0:0:0:
51,119,198442,2,0,P|31:170|28:247,1,120
63,289,199004,2,0,P|98:307|125:331,1,60
234,374,199567,6,0,P|240:339|225:250,1,120
180,209,200129,1,0,0:0:0:0:
229,86,200504,1,0,0:0:0:0:
101,52,200879,38,0,P|64:101|36:171,1,120
42,220,201442,1,0,0:0:0:0:
66,281,201629,2,0,P|98:318|180:343,1,120
228,330,202192,2,0,P|262:324|305:323,1,60
351,306,202567,6,0,P|383:273|411:197,1,120,0|4,0:0|0:0,0:0:0:0:
118,77,204067,38,0,L|91:180,2,90
447,62,205567,6,0,P|462:110|456:193,1,120,4|0,0:0|0:0,0:0:0:0:
422,233,206129,1,0,0:0:0:0:
359,255,206317,2,0,P|297:253|223:267,1,120
148,357,207067,38,0,P|124:319|112:240,2,120
239,262,208192,1,0,0:0:0:0:
187,140,208567,6,0,P|129:122|51:130,2,120
316,113,209692,1,0,0:0:0:0:
372,146,209879,38,0,P|403:200|409:269,1,120
368,308,210442,2,0,P|307:323|250:357,1,120
130,312,211192,1,0,0:0:0:0:
84,264,211379,6,0,P|64:207|69:137,1,120
100,91,211942,2,0,P|125:78|231:68,1,120
189,194,212692,1,0,0:0:0:0:
254,194,212879,38,0,P|313:190|368:168,1,120
431,145,213442,2,0,P|462:140|512:144,2,60
470,271,214192,21,0,0:0:0:0:
348,322,214567,6,0,P|277:320|222:299,2,120,4|0|0,0:0|0:0|0:0,0:0:0:0:
310,195,215692,1,0,0:0:0:0:
260,152,215879,38,0,P|211:116|143:101,1,120
94,129,216442,2,0,L|57:252,1,120
80,306,217004,2,0,P|100:331|134:354,1,60
250,314,217567,6,0,P|311:296|382:295,1,120
425,262,218129,1,0,0:0:0:0:
444,198,218317,2,0,P|440:134|410:71,1,120
360,50,218879,1,0,0:0:0:0:
294,61,219067,38,0,P|237:68|157:58,1,120
112,81,219629,2,0,P|77:103|54:125,1,60
46,246,220192,1,0,0:0:0:0:
169,293,220567,6,0,P|172:223|151:168,2,120
279,365,221692,1,0,0:0:0:0:
384,285,222067,38,0,P|342:249|267:234,2,120
501,225,223192,1,0,0:0:0:0:
501,93,223567,6,0,P|444:107|395:149,1,120
270,110,224317,2,0,P|224:148|166:162,1,120
105,187,224879,1,0,0:0:0:0:
80,248,225067,38,0,P|78:299|118:376,1,120
235,341,225817,2,0,P|290:321|354:322,1,120
414,306,226379,1,0,0:0:0:0:
450,250,226567,22,0,P|462:218|465:127,1,120
352,66,227317,2,0,P|302:69|227:48,1,120
169,49,227879,6,0,P|107:64|55:105,1,120
64,162,228442,2,0,P|90:211|95:282,1,120
123,334,229004,2,0,P|156:354|189:366,1,60
299,313,229567,6,0,P|351:300|442:304,2,120
241,280,230504,2,0,P|219:249|209:228,1,60
183,168,230879,6,0,P|153:115|99:79,1,120
39,90,231442,1,0,0:0:0:0:
2,216,231817,1,0,0:0:0:0:
119,276,232192,1,0,0:0:0:0:
246,240,232567,6,0,P|278:196|299:122,1,120
424,97,233317,2,0,P|441:154|475:203,1,120
489,267,233879,6,0,P|471:313|404:367,1,120
353,357,234442,2,0,P|299:347|225:356,1,120
168,349,235004,2,0,P|133:336|107:312,1,60
84,193,235567,6,0,P|98:154|101:115,1,60
430,124,236692,2,0,P|435:156|449:190,2,60
431,58,237254,5,0,0:0:0:0:
